999
DXF file: E:\PTCStandard\library\Profile\AP005\ap005.dxf
999
Pro/ENGINEER 2011310 by Parametric Technology Corporation
  0
SECTION
  2
HEADER
  9
$EXTMAX
 10
594.0
 20
420.0
 30
0.0
  9
$EXTMIN
 10
0.0
 20
0.0
 30
0.0
  9
$LIMMIN
 10
0.0
 20
0.0
  9
$LIMMAX
 10
594.0
 20
420.0
  9
$VIEWCTR
 10
297.0
 20
210.0
  9
$VIEWSIZE
 40
420.0
  9
$CLAYER
  8
0
  9
$LTSCALE
 40
32.67
  9
$CELTYPE
  6
BYLAYER
  9
$DIMSCALE
 40
1.0
  9
$DIMASZ
 40
7.0
  9
$DIMEXO
 40
3.7125
  9
$DIMDLI
 40
22.572
  9
$DIMEXE
 40
10.692
  9
$DIMCEN
 40
5.346
  9
$DIMLFAC
 40
1.0
  9
$DIMBLK
  1
_FILLED
  9
$DIMTXT
 40
3.5
  9
$PDMODE
 70
3
  9
$PDSIZE
 40
8.0
  9
$TILEMODE
 70
1
  0
ENDSEC
  0
SECTION
  2
TABLES
  0
TABLE
  2
LTYPE
 70
6
  0
LTYPE
  2
BYBLOCK
 70
0
  3

 72
65
 73
0
 40
0.0
  0
LTYPE
  2
BYLAYER
 70
0
  3

 72
65
 73
0
 40
0.0
  0
LTYPE
  2
CONTINUOUS
 70
64
  3
Solid line
 72
65
 73
0
 40
0.0
  0
LTYPE
  2
CENTER
 70
64
  3
____ _ ____ _ ____ _ ____ _ ____ _ ____ _ ____
 72
65
 73
4
 40
0.6
 49
0.375
 49
-0.075
 49
0.075
 49
-0.075
  0
LTYPE
  2
HIDDEN
 70
64
  3
- - - - - - - - - - - - - - - - - - - -
 72
65
 73
2
 40
0.2
 49
0.1
 49
-0.1
  0
LTYPE
  2
PHANTOM
 70
64
  3
_____ _ _ _____ _ _ _____ _ _ _____
 72
65
 73
6
 40
0.8
 49
0.45
 49
-0.05
 49
0.1
 49
-0.05
 49
0.1
 49
-0.05
  0
LTYPE
  2
DOT
 70
64
  3
. . . . . . . . . . . . . . . . . . . .
 72
65
 73
2
 40
0.2
 49
0.1
 49
-0.1
  0
LTYPE
  2
DASHED
 70
64
  3
- - - - - - - - - - - - - - - - - - - -
 72
65
 73
2
 40
0.2
 49
0.1
 49
-0.1
  0
ENDTAB
  0
TABLE
  2
LAYER
 70
36
  0
LAYER
  2
0
 70
0
 62
7
  6
CONTINUOUS
  0
LAYER
  2
DEFAULT_1
 70
0
 62
7
  6
CENTER
  0
LAYER
  2
DEFAULT_2
 70
0
 62
8
  6
HIDDEN
  0
LAYER
  2
DEFAULT_3
 70
0
 62
7
  6
PHANTOM
  0
LAYER
  2
01_ALL_DTM_PLN
 70
0
 62
7
  6
CONTINUOUS
  0
LAYER
  2
01__ASM_ALL_DTM_PLN
 70
0
 62
7
  6
CONTINUOUS
  0
LAYER
  2
01__ASM_DEF_DTM_PLN
 70
0
 62
7
  6
CONTINUOUS
  0
LAYER
  2
01___PRT_ALL_DTM_PLN
 70
0
 62
7
  6
CONTINUOUS
  0
LAYER
  2
01___PRT_DEF_DTM_PLN
 70
0
 62
7
  6
CONTINUOUS
  0
LAYER
  2
02_ALL_AXES
 70
0
 62
7
  6
CONTINUOUS
  0
LAYER
  2
02__ASM_ALL_AXES
 70
0
 62
7
  6
CONTINUOUS
  0
LAYER
  2
02___PRT_ALL_AXES
 70
0
 62
7
  6
CONTINUOUS
  0
LAYER
  2
03_ALL_CURVES
 70
0
 62
7
  6
CONTINUOUS
  0
LAYER
  2
03__ASM_ALL_CURVES
 70
0
 62
7
  6
CONTINUOUS
  0
LAYER
  2
03___PRT_ALL_CURVES
 70
0
 62
7
  6
CONTINUOUS
  0
LAYER
  2
04_ALL_DTM_PNT
 70
0
 62
7
  6
CONTINUOUS
  0
LAYER
  2
04__ASM_ALL_DTM_PNT
 70
0
 62
7
  6
CONTINUOUS
  0
LAYER
  2
04___PRT_ALL_DTM_PNT
 70
0
 62
7
  6
CONTINUOUS
  0
LAYER
  2
05_ALL_DTM_CSYS
 70
0
 62
7
  6
CONTINUOUS
  0
LAYER
  2
05__ASM_ALL_DTM_CSYS
 70
0
 62
7
  6
CONTINUOUS
  0
LAYER
  2
05__ASM_DEF_DTM_CSYS
 70
0
 62
7
  6
CONTINUOUS
  0
LAYER
  2
05___PRT_ALL_DTM_CSYS
 70
0
 62
7
  6
CONTINUOUS
  0
LAYER
  2
05___PRT_DEF_DTM_CSYS
 70
0
 62
7
  6
CONTINUOUS
  0
LAYER
  2
06_ALL_SURFS
 70
0
 62
7
  6
CONTINUOUS
  0
LAYER
  2
06__ASM_ALL_SURFS
 70
0
 62
7
  6
CONTINUOUS
  0
LAYER
  2
06___PRT_ALL_SURFS
 70
0
 62
7
  6
CONTINUOUS
  0
LAYER
  2
07__ASM_ALL_SKELETONS
 70
0
 62
7
  6
CONTINUOUS
  0
LAYER
  2
HIDDEN
 70
0
 62
7
  6
CONTINUOUS
  0
LAYER
  2
WHITE
 70
0
 62
7
  6
CONTINUOUS
  0
LAYER
  2
AP0059
 70
0
 62
7
  6
CONTINUOUS
  0
LAYER
  2
AP0054
 70
0
 62
7
  6
CONTINUOUS
  0
LAYER
  2
AP005-ENDCAP-02
 70
0
 62
7
  6
CONTINUOUS
  0
LAYER
  2
AP005-ENDCAP-03
 70
0
 62
7
  6
CONTINUOUS
  0
LAYER
  2
AP005-BASE2
 70
0
 62
7
  6
CONTINUOUS
  0
LAYER
  2
AP005-BASE3
 70
0
 62
7
  6
CONTINUOUS
  0
LAYER
  2
AP005-DIFFUSE2
 70
0
 62
7
  6
CONTINUOUS
  0
LAYER
  2
AP005-ENDCAP-13
 70
0
 62
7
  6
CONTINUOUS
  0
LAYER
  2
AP005-ENDCAP-12
 70
0
 62
7
  6
CONTINUOUS
  0
LAYER
  2
AP005-DIFFUSE3
 70
0
 62
7
  6
CONTINUOUS
  0
ENDTAB
  0
TABLE
  2
STYLE
 70
1
  0
STYLE
  2
STANDARD
 70
0
 40
0.0
 41
0.85
 50
0.0
 71
0
 42
0.2
  3
SIMHEI.SHX
  4

  0
STYLE
  2
TEXTSTYLE_1
 70
0
 40
0.0
 41
0.8
 50
0.0
 71
0
 42
0.2
  3
gdt
  4

  0
STYLE
  2
TEXTSTYLE_2
 70
0
 40
0.0
 41
1.0
 50
0.0
 71
0
 42
0.2
  3
TXT.TTF
  4

  0
STYLE
  2
TEXTSTYLE_3
 70
0
 40
0.0
 41
1.0
 50
0.0
 71
0
 42
0.2
  3
TXT.TTF
  4

  0
STYLE
  2
TEXTSTYLE_4
 70
0
 40
0.0
 41
1.0
 50
0.0
 71
0
 42
0.2
  3
TXT.TTF
  4

  0
STYLE
  2
TEXTSTYLE_5
 70
0
 40
0.0
 41
1.0
 50
0.0
 71
0
 42
0.2
  3
TXT.TTF
  4

  0
STYLE
  2
TEXTSTYLE_6
 70
0
 40
0.0
 41
1.0
 50
0.0
 71
0
 42
0.2
  3
TXT.TTF
  4

  0
STYLE
  2
TEXTSTYLE_7
 70
0
 40
0.0
 41
0.75
 50
0.0
 71
0
 42
0.2
  3
SIMHEI.SHX
  4

  0
STYLE
  2
TEXTSTYLE_8
 70
0
 40
0.0
 41
0.55
 50
0.0
 71
0
 42
0.2
  3
gdt
  4

  0
ENDTAB
  0
ENDSEC
  0
SECTION
  2
BLOCKS
  0
BLOCK
  8
AP0059
 62
7
  6
BYLAYER
  2
SYMBOL_283_BL0
 70
64
 10
374.7813345799
 20
34.864330558
  0
LINE
  8
AP0059
 62
7
  6
BYLAYER
 10
344.006198458
 20
42.5069798671
 11
344.006198458
 21
40.367498696
  0
LINE
  8
AP0059
 62
7
  6
BYLAYER
 10
346.0152823568
 20
40.367498696
 11
346.0152823568
 21
42.5069798671
  0
LINE
  8
AP0059
 62
7
  6
BYLAYER
 10
347.4558617457
 20
42.5069798671
 11
347.4558617457
 21
40.367498696
  0
LINE
  8
AP0059
 62
7
  6
BYLAYER
 10
349.4373483381
 20
40.367498696
 11
349.4373483381
 21
42.5069798671
  0
LINE
  8
AP0059
 62
7
  6
BYLAYER
 10
350.9248431478
 20
42.5069798671
 11
350.9248431478
 21
40.367498696
  0
LINE
  8
AP0059
 62
7
  6
BYLAYER
 10
352.9311673159
 20
40.367498696
 11
352.9311673159
 21
42.5069798671
  0
LINE
  8
AP0059
 62
7
  6
BYLAYER
 10
366.346858271
 20
26.6331711387
 11
369.1787979746
 21
26.6331711387
  0
LINE
  8
AP0059
 62
7
  6
BYLAYER
 10
369.1787979746
 20
26.6331711387
 11
369.1787979746
 21
26.1748482372
  0
LINE
  8
AP0059
 62
7
  6
BYLAYER
 10
369.1787979746
 20
26.1748482372
 11
367.0696226802
 21
26.1748482372
  0
LINE
  8
AP0059
 62
7
  6
BYLAYER
 10
367.0696226802
 20
26.1748482372
 11
367.0696226802
 21
24.5831137776
  0
LINE
  8
AP0059
 62
7
  6
BYLAYER
 10
367.0696226802
 20
24.5831137776
 11
369.1787979746
 21
24.5831137776
  0
LINE
  8
AP0059
 62
7
  6
BYLAYER
 10
369.1787979746
 20
24.5831137776
 11
369.1787979746
 21
24.1311476431
  0
LINE
  8
AP0059
 62
7
  6
BYLAYER
 10
369.1787979746
 20
24.1311476431
 11
367.0696226802
 21
24.1311476431
  0
LINE
  8
AP0059
 62
7
  6
BYLAYER
 10
367.0696226802
 20
24.1311476431
 11
367.0696226802
 21
22.2412808106
  0
LINE
  8
AP0059
 62
7
  6
BYLAYER
 10
367.0696226802
 20
22.2412808106
 11
369.1787979746
 21
22.2412808106
  0
LINE
  8
AP0059
 62
7
  6
BYLAYER
 10
369.1787979746
 20
22.2412808106
 11
369.1787979746
 21
21.8083849772
  0
LINE
  8
AP0059
 62
7
  6
BYLAYER
 10
369.1787979746
 20
21.8083849772
 11
366.346858271
 21
21.8083849772
  0
LINE
  8
AP0059
 62
7
  6
BYLAYER
 10
366.346858271
 20
21.8083849772
 11
366.346858271
 21
26.6331711387
  0
LINE
  8
AP0059
 62
7
  6
BYLAYER
 10
389.8983622095
 20
24.1915369297
 11
389.8983622095
 21
24.1769163656
  0
ARC
  8
AP0059
 62
7
  6
BYLAYER
 10
392.8233249602
 20
24.131204526
 40
2.9253199253
 50
179.1046442283
 51
200.8922339549
  0
ARC
  8
AP0059
 62
7
  6
BYLAYER
 10
392.3591855469
 20
24.0462299263
 40
2.4628999342
 50
202.8963230435
 51
250.070082015
  0
ARC
  8
AP0059
 62
7
  6
BYLAYER
 10
392.4794077055
 20
24.411048466
 40
2.8468723348
 50
250.2981849841
 51
270.5013647429
  0
LINE
  8
AP0059
 62
7
  6
BYLAYER
 10
392.5043188458
 20
21.5642851239
 11
392.7938695831
 21
21.5642851239
  0
LINE
  8
AP0059
 62
7
  6
BYLAYER
 10
392.7938695831
 20
21.5642851239
 11
392.9928363906
 21
21.5712775676
  0
LINE
  8
AP0059
 62
7
  6
BYLAYER
 10
392.9928363906
 20
21.5712775676
 11
393.191803198
 21
21.5928905755
  0
LINE
  8
AP0059
 62
7
  6
BYLAYER
 10
393.191803198
 20
21.5928905755
 11
393.3945840657
 21
21.6291241475
  0
LINE
  8
AP0059
 62
7
  6
BYLAYER
 10
393.3945840657
 20
21.6291241475
 11
393.6043573771
 21
21.6729858398
  0
LINE
  8
AP0059
 62
7
  6
BYLAYER
 10
393.6043573771
 20
21.6729858398
 11
393.651397453
 21
21.6869707273
  0
LINE
  8
AP0059
 62
7
  6
BYLAYER
 10
393.651397453
 20
21.6869707273
 11
393.7057478109
 21
21.7015912914
  0
LINE
  8
AP0059
 62
7
  6
BYLAYER
 10
393.7057478109
 20
21.7015912914
 11
394.0099191124
 21
21.8026638869
  0
LINE
  8
AP0059
 62
7
  6
BYLAYER
 10
394.0099191124
 20
21.8026638869
 11
394.1109917079
 21
21.8465255792
  0
LINE
  8
AP0059
 62
7
  6
BYLAYER
 10
394.1109917079
 20
21.8465255792
 11
394.2123821417
 21
21.8973797153
  0
LINE
  8
AP0059
 62
7
  6
BYLAYER
 10
394.2123821417
 20
21.8973797153
 11
394.3064622935
 21
21.9552262951
  0
LINE
  8
AP0059
 62
7
  6
BYLAYER
 10
394.3064622935
 20
21.9552262951
 11
394.4078527273
 21
22.0200653186
  0
LINE
  8
AP0059
 62
7
  6
BYLAYER
 10
394.4078527273
 20
22.0200653186
 11
394.4656993071
 21
22.4688530696
  0
LINE
  8
AP0059
 62
7
  6
BYLAYER
 10
394.4656993071
 20
22.4688530696
 11
394.1761485697
 21
22.4618606259
  0
ARC
  8
AP0059
 62
7
  6
BYLAYER
 10
392.799100623
 20
24.0979477164
 40
2.1384672116
 50
300.1226166813
 51
310.0863647934
  0
ARC
  8
AP0059
 62
7
  6
BYLAYER
 10
392.6650798273
 20
24.3073564034
 40
2.3868791644
 50
290.9261388757
 51
300.3825747552
  0
ARC
  8
AP0059
 62
7
  6
BYLAYER
 10
392.672769603
 20
24.1699223763
 40
2.2561527278
 50
282.3564329875
 51
291.9903650689
  0
ARC
  8
AP0059
 62
7
  6
BYLAYER
 10
392.5869962834
 20
24.5311589169
 40
2.6273841832
 50
274.3560974414
 51
282.4978406016
  0
ARC
  8
AP0059
 62
7
  6
BYLAYER
 10
392.9118726541
 20
23.8860590974
 40
1.9786666682
 50
247.3413638217
 51
266.3689009432
  0
ARC
  8
AP0059
 62
7
  6
BYLAYER
 10
393.020846386
 20
24.111038418
 40
2.228305621
 50
229.1447438403
 51
246.9841673426
  0
ARC
  8
AP0059
 62
7
  6
BYLAYER
 10
392.5802960465
 20
23.5978222977
 40
1.5519430064
 50
197.9155448152
 51
229.0523049251
  0
ARC
  8
AP0059
 62
7
  6
BYLAYER
 10
394.4203335269
 20
24.1960721783
 40
3.4867908655
 50
180.1894261358
 51
197.9684336648
  0
LINE
  8
AP0059
 62
7
  6
BYLAYER
 10
390.9335617173
 20
24.184544486
 11
390.9335617173
 21
24.2709965173
  0
ARC
  8
AP0059
 62
7
  6
BYLAYER
 10
393.4884870691
 20
24.314222136
 40
2.5552909829
 50
160.1190365148
 51
180.9692687312
  0
ARC
  8
AP0059
 62
7
  6
BYLAYER
 10
392.900900733
 20
24.50352549
 40
1.9384708199
 50
135.1351303734
 51
159.4747438859
  0
ARC
  8
AP0059
 62
7
  6
BYLAYER
 10
392.9092347377
 20
24.51589719
 40
1.9357056989
 50
95.5684905603
 51
135.5687020976
  0
LINE
  8
AP0059
 62
7
  6
BYLAYER
 10
392.7214024392
 20
26.4424681284
 11
392.7576360112
 21
26.4424681284
  0
LINE
  8
AP0059
 62
7
  6
BYLAYER
 10
392.7576360112
 20
26.4424681284
 11
392.8370955988
 21
26.4316616245
  0
LINE
  8
AP0059
 62
7
  6
BYLAYER
 10
392.8370955988
 20
26.4316616245
 11
392.9241833069
 21
26.4208551206
  0
LINE
  8
AP0059
 62
7
  6
BYLAYER
 10
392.9241833069
 20
26.4208551206
 11
393.2172302661
 21
26.3452095931
  0
ARC
  8
AP0059
 62
7
  6
BYLAYER
 10
392.5840744254
 20
24.3735827564
 40
2.0707966346
 50
63.4314101522
 51
72.196424709
  0
ARC
  8
AP0059
 62
7
  6
BYLAYER
 10
392.5723065776
 20
24.3527741257
 40
2.0946716107
 50
54.371244206
 51
63.3980911646
  0
LINE
  8
AP0059
 62
7
  6
BYLAYER
 10
393.7925176806
 20
26.0553410174
 11
394.0604554101
 21
25.8417536458
  0
LINE
  8
AP0059
 62
7
  6
BYLAYER
 10
394.0604554101
 20
25.8417536458
 11
394.4078527273
 21
25.8417536458
  0
LINE
  8
AP0059
 62
7
  6
BYLAYER
 10
394.4078527273
 20
25.8417536458
 11
394.5817103051
 21
26.3992421127
  0
ARC
  8
AP0059
 62
7
  6
BYLAYER
 10
393.6938278359
 20
24.9734012813
 40
1.6796896605
 50
58.0891485033
 51
67.5454670452
  0
ARC
  8
AP0059
 62
7
  6
BYLAYER
 10
393.3689179966
 20
24.0612104602
 40
2.6472578651
 50
68.5873384549
 51
81.3423857767
  0
LINE
  8
AP0059
 62
7
  6
BYLAYER
 10
393.7674084509
 20
26.6783041845
 11
393.4670512096
 21
26.7107236963
  0
LINE
  8
AP0059
 62
7
  6
BYLAYER
 10
393.4670512096
 20
26.7107236963
 11
393.1555696261
 21
26.7323367041
  0
ARC
  8
AP0059
 62
7
  6
BYLAYER
 10
393.1193077625
 20
27.4813372146
 40
0.7498777817
 50
261.6918862418
 51
272.7717347723
  0
ARC
  8
AP0059
 62
7
  6
BYLAYER
 10
392.9745875849
 20
27.4290727002
 40
0.690701545
 50
260.9563938617
 51
273.01803113
  0
LINE
  8
AP0059
 62
7
  6
BYLAYER
 10
392.8660188887
 20
26.7469572682
 11
392.5764681513
 21
26.7393291478
  0
ARC
  8
AP0059
 62
7
  6
BYLAYER
 10
392.5315842635
 20
23.6990980638
 40
3.0405623834
 50
89.1541858308
 51
110.4524797124
  0
ARC
  8
AP0059
 62
7
  6
BYLAYER
 10
392.3047792819
 20
24.3876173322
 40
2.3163634422
 50
111.1471074556
 51
136.8410387207
  0
ARC
  8
AP0059
 62
7
  6
BYLAYER
 10
392.6043686132
 20
24.0993447912
 40
2.7320923203
 50
136.728707552
 51
157.5391803557
  0
ARC
  8
AP0059
 62
7
  6
BYLAYER
 10
392.3976141225
 20
24.2087768956
 40
2.4993113734
 50
158.0467340334
 51
180.395222912
  0
LINE
  8
AP0059
 62
7
  6
BYLAYER
 10
397.3176628267
 20
24.1915369297
 11
397.3176628267
 21
24.1769163656
  0
ARC
  8
AP0059
 62
7
  6
BYLAYER
 10
400.2426255774
 20
24.131204526
 40
2.9253199253
 50
179.1046442283
 51
200.8922339548
  0
ARC
  8
AP0059
 62
7
  6
BYLAYER
 10
399.7784861641
 20
24.0462299263
 40
2.4628999342
 50
202.8963230435
 51
250.0700820149
  0
ARC
  8
AP0059
 62
7
  6
BYLAYER
 10
399.8987083227
 20
24.411048466
 40
2.8468723348
 50
250.2981849841
 51
270.5013647429
  0
LINE
  8
AP0059
 62
7
  6
BYLAYER
 10
399.923619463
 20
21.5642851239
 11
400.2131702004
 21
21.5642851239
  0
LINE
  8
AP0059
 62
7
  6
BYLAYER
 10
400.2131702004
 20
21.5642851239
 11
400.4121370078
 21
21.5712775676
  0
LINE
  8
AP0059
 62
7
  6
BYLAYER
 10
400.4121370078
 20
21.5712775676
 11
400.6111038153
 21
21.5928905755
  0
LINE
  8
AP0059
 62
7
  6
BYLAYER
 10
400.6111038153
 20
21.5928905755
 11
400.8138846829
 21
21.6291241475
  0
LINE
  8
AP0059
 62
7
  6
BYLAYER
 10
400.8138846829
 20
21.6291241475
 11
401.0236579943
 21
21.6729858398
  0
LINE
  8
AP0059
 62
7
  6
BYLAYER
 10
401.0236579943
 20
21.6729858398
 11
401.0706980702
 21
21.6869707273
  0
LINE
  8
AP0059
 62
7
  6
BYLAYER
 10
401.0706980702
 20
21.6869707273
 11
401.1250484281
 21
21.7015912914
  0
LINE
  8
AP0059
 62
7
  6
BYLAYER
 10
401.1250484281
 20
21.7015912914
 11
401.4292197296
 21
21.8026638869
  0
LINE
  8
AP0059
 62
7
  6
BYLAYER
 10
401.4292197296
 20
21.8026638869
 11
401.5302923251
 21
21.8465255792
  0
LINE
  8
AP0059
 62
7
  6
BYLAYER
 10
401.5302923251
 20
21.8465255792
 11
401.6316827589
 21
21.8973797153
  0
LINE
  8
AP0059
 62
7
  6
BYLAYER
 10
401.6316827589
 20
21.8973797153
 11
401.7257629107
 21
21.9552262951
  0
LINE
  8
AP0059
 62
7
  6
BYLAYER
 10
401.7257629107
 20
21.9552262951
 11
401.8271533445
 21
22.0200653186
  0
LINE
  8
AP0059
 62
7
  6
BYLAYER
 10
401.8271533445
 20
22.0200653186
 11
401.8849999243
 21
22.4688530696
  0
LINE
  8
AP0059
 62
7
  6
BYLAYER
 10
401.8849999243
 20
22.4688530696
 11
401.595449187
 21
22.4618606259
  0
ARC
  8
AP0059
 62
7
  6
BYLAYER
 10
400.2184012402
 20
24.0979477165
 40
2.1384672117
 50
300.1226166814
 51
310.0863647934
  0
ARC
  8
AP0059
 62
7
  6
BYLAYER
 10
400.0843804446
 20
24.3073564034
 40
2.3868791643
 50
290.9261388756
 51
300.3825747552
  0
ARC
  8
AP0059
 62
7
  6
BYLAYER
 10
400.0920702202
 20
24.1699223763
 40
2.2561527278
 50
282.3564329875
 51
291.990365069
  0
ARC
  8
AP0059
 62
7
  6
BYLAYER
 10
400.0062969007
 20
24.5311589168
 40
2.6273841832
 50
274.3560974413
 51
282.4978406017
  0
ARC
  8
AP0059
 62
7
  6
BYLAYER
 10
400.3311732713
 20
23.8860590974
 40
1.9786666681
 50
247.3413638216
 51
266.3689009432
  0
ARC
  8
AP0059
 62
7
  6
BYLAYER
 10
400.4401470032
 20
24.111038418
 40
2.228305621
 50
229.1447438403
 51
246.9841673426
  0
ARC
  8
AP0059
 62
7
  6
BYLAYER
 10
399.9995966638
 20
23.5978222977
 40
1.5519430064
 50
197.9155448152
 51
229.0523049251
  0
ARC
  8
AP0059
 62
7
  6
BYLAYER
 10
401.8396341441
 20
24.1960721783
 40
3.4867908655
 50
180.1894261358
 51
197.9684336648
  0
LINE
  8
AP0059
 62
7
  6
BYLAYER
 10
398.3528623345
 20
24.184544486
 11
398.3528623345
 21
24.2709965173
  0
ARC
  8
AP0059
 62
7
  6
BYLAYER
 10
400.9077876863
 20
24.314222136
 40
2.5552909829
 50
160.1190365147
 51
180.9692687312
  0
ARC
  8
AP0059
 62
7
  6
BYLAYER
 10
400.3202013502
 20
24.50352549
 40
1.9384708199
 50
135.1351303734
 51
159.4747438859
  0
ARC
  8
AP0059
 62
7
  6
BYLAYER
 10
400.328535355
 20
24.51589719
 40
1.9357056989
 50
95.5684905604
 51
135.5687020976
  0
LINE
  8
AP0059
 62
7
  6
BYLAYER
 10
400.1407030564
 20
26.4424681284
 11
400.1769366284
 21
26.4424681284
  0
LINE
  8
AP0059
 62
7
  6
BYLAYER
 10
400.1769366284
 20
26.4424681284
 11
400.256396216
 21
26.4316616245
  0
LINE
  8
AP0059
 62
7
  6
BYLAYER
 10
400.256396216
 20
26.4316616245
 11
400.3434839241
 21
26.4208551206
  0
LINE
  8
AP0059
 62
7
  6
BYLAYER
 10
400.3434839241
 20
26.4208551206
 11
400.6365308833
 21
26.3452095931
  0
ARC
  8
AP0059
 62
7
  6
BYLAYER
 10
400.0016961471
 20
24.3694792717
 40
2.0752169634
 50
54.3289773468
 51
72.1869316133
  0
LINE
  8
AP0059
 62
7
  6
BYLAYER
 10
401.2118182978
 20
26.0553410174
 11
401.4797560274
 21
25.8417536458
  0
LINE
  8
AP0059
 62
7
  6
BYLAYER
 10
401.4797560274
 20
25.8417536458
 11
401.8271533445
 21
25.8417536458
  0
LINE
  8
AP0059
 62
7
  6
BYLAYER
 10
401.8271533445
 20
25.8417536458
 11
402.0010109223
 21
26.3992421127
  0
ARC
  8
AP0059
 62
7
  6
BYLAYER
 10
401.1131284531
 20
24.9734012813
 40
1.6796896605
 50
58.0891485032
 51
67.5454670453
  0
ARC
  8
AP0059
 62
7
  6
BYLAYER
 10
400.7882186138
 20
24.0612104602
 40
2.6472578651
 50
68.5873384549
 51
81.3423857767
  0
LINE
  8
AP0059
 62
7
  6
BYLAYER
 10
401.1867090681
 20
26.6783041845
 11
400.8863518269
 21
26.7107236963
  0
LINE
  8
AP0059
 62
7
  6
BYLAYER
 10
400.8863518269
 20
26.7107236963
 11
400.5748702433
 21
26.7323367041
  0
ARC
  8
AP0059
 62
7
  6
BYLAYER
 10
400.5386083798
 20
27.4813372146
 40
0.7498777817
 50
261.6918862419
 51
272.7717347724
  0
ARC
  8
AP0059
 62
7
  6
BYLAYER
 10
400.3938882021
 20
27.4290727002
 40
0.690701545
 50
260.9563938617
 51
273.01803113
  0
LINE
  8
AP0059
 62
7
  6
BYLAYER
 10
400.2853195059
 20
26.7469572682
 11
399.9957687686
 21
26.7393291478
  0
ARC
  8
AP0059
 62
7
  6
BYLAYER
 10
399.9508848808
 20
23.6990980639
 40
3.0405623834
 50
89.1541858308
 51
110.4524797125
  0
ARC
  8
AP0059
 62
7
  6
BYLAYER
 10
399.7240798991
 20
24.3876173322
 40
2.3163634422
 50
111.1471074555
 51
136.8410387208
  0
ARC
  8
AP0059
 62
7
  6
BYLAYER
 10
400.0236692304
 20
24.0993447912
 40
2.7320923203
 50
136.728707552
 51
157.5391803557
  0
ARC
  8
AP0059
 62
7
  6
BYLAYER
 10
399.8169147397
 20
24.2087768956
 40
2.4993113734
 50
158.0467340334
 51
180.3952229121
  0
LINE
  8
AP0059
 62
7
  6
BYLAYER
 10
370.8477671534
 20
26.6897463651
 11
373.9470089097
 21
23.280612217
  0
LINE
  8
AP0059
 62
7
  6
BYLAYER
 10
373.9470089097
 20
23.280612217
 11
373.9470089097
 21
26.6897463651
  0
LINE
  8
AP0059
 62
7
  6
BYLAYER
 10
373.9470089097
 20
26.6897463651
 11
374.6723160257
 21
26.6897463651
  0
LINE
  8
AP0059
 62
7
  6
BYLAYER
 10
374.6723160257
 20
26.6897463651
 11
374.6723160257
 21
21.8083849772
  0
LINE
  8
AP0059
 62
7
  6
BYLAYER
 10
374.6723160257
 20
21.8083849772
 11
374.1157810739
 21
21.8083849772
  0
LINE
  8
AP0059
 62
7
  6
BYLAYER
 10
374.1157810739
 20
21.8083849772
 11
370.9532894858
 21
25.322405781
  0
LINE
  8
AP0059
 62
7
  6
BYLAYER
 10
370.9532894858
 20
25.322405781
 11
370.9532894858
 21
21.8083849772
  0
LINE
  8
AP0059
 62
7
  6
BYLAYER
 10
370.9532894858
 20
21.8083849772
 11
370.2276645314
 21
21.8083849772
  0
LINE
  8
AP0059
 62
7
  6
BYLAYER
 10
370.2276645314
 20
21.8083849772
 11
370.2276645314
 21
26.6897463651
  0
LINE
  8
AP0059
 62
7
  6
BYLAYER
 10
370.2276645314
 20
26.6897463651
 11
370.8477671534
 21
26.6897463651
  0
LINE
  8
AP0059
 62
7
  6
BYLAYER
 10
396.4245220468
 20
39.4291902818
 11
396.4245220468
 21
40.6489912203
  0
LINE
  8
AP0059
 62
7
  6
BYLAYER
 10
396.4245220468
 20
40.6489912203
 11
389.2933780985
 21
40.6489912203
  0
LINE
  8
AP0059
 62
7
  6
BYLAYER
 10
389.2933780985
 20
40.6489912203
 11
389.2933780985
 21
39.4291902818
  0
LINE
  8
AP0059
 62
7
  6
BYLAYER
 10
389.2933780985
 20
39.4291902818
 11
396.4245220468
 21
39.4291902818
  0
LINE
  8
AP0059
 62
7
  6
BYLAYER
 10
389.2933780985
 20
41.6059278163
 11
396.4245220468
 21
41.6059278163
  0
LINE
  8
AP0059
 62
7
  6
BYLAYER
 10
396.4245220468
 20
41.6059278163
 11
396.4245220468
 21
42.863675051
  0
LINE
  8
AP0059
 62
7
  6
BYLAYER
 10
396.4245220468
 20
42.863675051
 11
389.2933780985
 21
42.863675051
  0
LINE
  8
AP0059
 62
7
  6
BYLAYER
 10
389.2933780985
 20
42.863675051
 11
389.2933780985
 21
41.6059278163
  0
LINE
  8
AP0059
 62
7
  6
BYLAYER
 10
396.4245220468
 20
44.9658998585
 11
389.2933780985
 21
44.9658998585
  0
LINE
  8
AP0059
 62
7
  6
BYLAYER
 10
389.2933780985
 20
44.9658998585
 11
389.2933780985
 21
43.8213015797
  0
LINE
  8
AP0059
 62
7
  6
BYLAYER
 10
389.2933780985
 20
43.8213015797
 11
396.4245220468
 21
43.8213015797
  0
LINE
  8
AP0059
 62
7
  6
BYLAYER
 10
396.4245220468
 20
43.8213015797
 11
396.4245220468
 21
44.9658998585
  0
LINE
  8
AP0059
 62
7
  6
BYLAYER
 10
337.6089806413
 20
38.5851461734
 11
337.6089806413
 21
31.0581526012
  0
LINE
  8
AP0059
 62
7
  6
BYLAYER
 10
339.3309442994
 20
31.0581526012
 11
337.6089806413
 21
31.0581526012
  0
LINE
  8
AP0059
 62
7
  6
BYLAYER
 10
339.3309442994
 20
31.0645420767
 11
339.3309442994
 21
40.5920487921
  0
LINE
  8
AP0059
 62
7
  6
BYLAYER
 10
339.3309442994
 20
40.5920487921
 11
341.524830565
 21
42.9053729918
  0
LINE
  8
AP0059
 62
7
  6
BYLAYER
 10
339.8170654134
 20
43.8962984501
 11
341.524830565
 21
42.9053729918
  0
LINE
  8
AP0059
 62
7
  6
BYLAYER
 10
334.8337793928
 20
38.1591785398
 11
335.8190534835
 21
36.7450048113
  0
LINE
  8
AP0059
 62
7
  6
BYLAYER
 10
335.0485716461
 20
43.0865480711
 11
336.3102682379
 21
41.8616714187
  0
LINE
  8
AP0059
 62
7
  6
BYLAYER
 10
336.3102682379
 20
41.8616714187
 11
341.3024751821
 21
46.8423490167
  0
LINE
  8
AP0059
 62
7
  6
BYLAYER
 10
341.3024751821
 20
46.8423490167
 11
339.1032888898
 21
47.6087321185
  0
LINE
  8
AP0059
 62
7
  6
BYLAYER
 10
341.7397765782
 20
46.1219899487
 11
341.7397765782
 21
44.847250286
  0
LINE
  8
AP0059
 62
7
  6
BYLAYER
 10
341.7515501687
 20
44.8474968776
 11
346.9991996516
 21
44.9574061535
  0
LINE
  8
AP0059
 62
7
  6
BYLAYER
 10
341.7397765782
 20
46.1219899487
 11
347.1700141356
 21
46.0293237788
  0
LINE
  8
AP0059
 62
7
  6
BYLAYER
 10
347.1751516226
 20
47.9045065282
 11
347.1700141356
 21
46.0293237788
  0
LINE
  8
AP0059
 62
7
  6
BYLAYER
 10
349.4525107084
 20
47.5928679165
 11
348.816991376
 21
46.0335882431
  0
LINE
  8
AP0059
 62
7
  6
BYLAYER
 10
349.4525107084
 20
47.5928679165
 11
347.1751516226
 21
47.9045065282
  0
LINE
  8
AP0059
 62
7
  6
BYLAYER
 10
348.816991376
 20
46.0335882431
 11
355.481941097
 21
46.0844962012
  0
LINE
  8
AP0059
 62
7
  6
BYLAYER
 10
355.481941097
 20
44.8604109761
 11
348.4869593555
 21
44.9513030751
  0
LINE
  8
AP0059
 62
7
  6
BYLAYER
 10
348.4869593555
 20
44.9513030751
 11
348.164313202
 21
43.5416978798
  0
LINE
  8
AP0059
 62
7
  6
BYLAYER
 10
347.0022101604
 20
44.9705957589
 11
346.6774795062
 21
43.547889675
  0
LINE
  8
AP0059
 62
7
  6
BYLAYER
 10
346.6774795062
 20
43.547889675
 11
342.4480582283
 21
43.6596065063
  0
LINE
  8
AP0059
 62
7
  6
BYLAYER
 10
342.4480582283
 20
43.6596065063
 11
342.4294017806
 21
39.2399922384
  0
LINE
  8
AP0059
 62
7
  6
BYLAYER
 10
342.4294017806
 20
39.2399922384
 11
354.535303688
 21
39.2381698838
  0
LINE
  8
AP0059
 62
7
  6
BYLAYER
 10
354.5554264866
 20
43.6531118991
 11
354.535303688
 21
39.2381698838
  0
LINE
  8
AP0059
 62
7
  6
BYLAYER
 10
354.5554264866
 20
43.6531118991
 11
348.164313202
 21
43.5416978798
  0
LINE
  8
AP0059
 62
7
  6
BYLAYER
 10
347.4558617457
 20
42.5069798671
 11
349.4373483381
 21
42.5069798671
  0
LINE
  8
AP0059
 62
7
  6
BYLAYER
 10
350.9496807234
 20
42.5069798671
 11
352.9311673159
 21
42.5069798671
  0
LINE
  8
AP0059
 62
7
  6
BYLAYER
 10
344.0337957643
 20
42.5069798671
 11
346.0152823568
 21
42.5069798671
  0
LINE
  8
AP0059
 62
7
  6
BYLAYER
 10
344.0337957643
 20
40.367498696
 11
346.0152823568
 21
40.367498696
  0
LINE
  8
AP0059
 62
7
  6
BYLAYER
 10
347.4558617457
 20
40.367498696
 11
349.4373483381
 21
40.367498696
  0
LINE
  8
AP0059
 62
7
  6
BYLAYER
 10
350.9496807234
 20
40.367498696
 11
352.9311673159
 21
40.367498696
  0
LINE
  8
AP0059
 62
7
  6
BYLAYER
 10
341.1759053618
 20
37.0222417812
 11
355.1528831066
 21
37.0454908201
  0
LINE
  8
AP0059
 62
7
  6
BYLAYER
 10
355.1528831066
 20
37.0741584839
 11
355.1528831066
 21
38.2732086323
  0
LINE
  8
AP0059
 62
7
  6
BYLAYER
 10
355.1528831066
 20
38.2732086323
 11
341.1759053618
 21
38.287748384
  0
LINE
  8
AP0059
 62
7
  6
BYLAYER
 10
341.1759053618
 20
38.2866267847
 11
341.1759053618
 21
37.0222417812
  0
LINE
  8
AP0059
 62
7
  6
BYLAYER
 10
341.9874590499
 20
35.7337708315
 11
340.0920465616
 21
32.2060375578
  0
LINE
  8
AP0059
 62
7
  6
BYLAYER
 10
340.1291757076
 20
32.1951604525
 11
342.0071335894
 21
31.6450065204
  0
LINE
  8
AP0059
 62
7
  6
BYLAYER
 10
343.553270776
 20
35.5114070361
 11
342.0071335894
 21
31.6450065204
  0
LINE
  8
AP0059
 62
7
  6
BYLAYER
 10
343.553270776
 20
35.5114070361
 11
341.9874590499
 21
35.7337708315
  0
LINE
  8
AP0059
 62
7
  6
BYLAYER
 10
344.4089799853
 20
35.9685303998
 11
346.0152823568
 21
35.8728879685
  0
LINE
  8
AP0059
 62
7
  6
BYLAYER
 10
346.0159330837
 20
35.8728492229
 11
346.0159330837
 21
33.0076457944
  0
LINE
  8
AP0059
 62
7
  6
BYLAYER
 10
344.4089799853
 20
35.9685303998
 11
344.4089799853
 21
31.9645051055
  0
LINE
  8
AP0059
 62
7
  6
BYLAYER
 10
344.4089799853
 20
31.9645051055
 11
347.11013077
 21
31.5437527423
  0
LINE
  8
AP0059
 62
7
  6
BYLAYER
 10
347.11013077
 20
31.5437527423
 11
350.0149460876
 21
31.5764988044
  0
LINE
  8
AP0059
 62
7
  6
BYLAYER
 10
350.0149460876
 20
31.5764988044
 11
352.157816447
 21
32.2370108384
  0
LINE
  8
AP0059
 62
7
  6
BYLAYER
 10
352.157816447
 20
32.2370108384
 11
352.9762444732
 21
33.597370936
  0
LINE
  8
AP0059
 62
7
  6
BYLAYER
 10
352.9762444732
 20
33.597370936
 11
351.2339340617
 21
34.289735724
  0
LINE
  8
AP0059
 62
7
  6
BYLAYER
 10
351.2339340617
 20
34.289735724
 11
351.017295063
 21
33.3032545692
  0
LINE
  8
AP0059
 62
7
  6
BYLAYER
 10
351.017295063
 20
33.3032545692
 11
350.2210066738
 21
32.7944925793
  0
LINE
  8
AP0059
 62
7
  6
BYLAYER
 10
350.2210066738
 20
32.7944925793
 11
348.472686429
 21
32.6906636018
  0
LINE
  8
AP0059
 62
7
  6
BYLAYER
 10
348.472686429
 20
32.6906636018
 11
346.7091911799
 21
32.7569544105
  0
LINE
  8
AP0059
 62
7
  6
BYLAYER
 10
346.7091911799
 20
32.7569544105
 11
346.0159330837
 21
33.0076457944
  0
LINE
  8
AP0059
 62
7
  6
BYLAYER
 10
349.1051029949
 20
36.7587553108
 11
350.3201772446
 21
34.4241382675
  0
LINE
  8
AP0059
 62
7
  6
BYLAYER
 10
350.3201772446
 20
34.4241382675
 11
348.4719324417
 21
33.8942023523
  0
LINE
  8
AP0059
 62
7
  6
BYLAYER
 10
348.4719324417
 20
33.8942023523
 11
347.3387008976
 21
36.3546633248
  0
LINE
  8
AP0059
 62
7
  6
BYLAYER
 10
347.3387008976
 20
36.3546633248
 11
349.1051029949
 21
36.7587553108
  0
LINE
  8
AP0059
 62
7
  6
BYLAYER
 10
351.6108159175
 20
35.5340901993
 11
353.056566881
 21
36.3590724778
  0
LINE
  8
AP0059
 62
7
  6
BYLAYER
 10
353.056566881
 20
36.3590724778
 11
356.3938795478
 21
33.5139429091
  0
LINE
  8
AP0059
 62
7
  6
BYLAYER
 10
356.3938795478
 20
33.5139429091
 11
354.6362892984
 21
32.4358982932
  0
LINE
  8
AP0059
 62
7
  6
BYLAYER
 10
354.6362892984
 20
32.4358982932
 11
351.6108159175
 21
35.5340901993
  0
LINE
  8
AP0059
 62
7
  6
BYLAYER
 10
360.4788928855
 20
36.1052320235
 11
358.820303489
 21
32.2386781936
  0
LINE
  8
AP0059
 62
7
  6
BYLAYER
 10
358.820303489
 20
32.2386781936
 11
361.0673619934
 21
31.8821027127
  0
LINE
  8
AP0059
 62
7
  6
BYLAYER
 10
361.0673619934
 20
31.8821027127
 11
362.4433520787
 21
35.7266113239
  0
LINE
  8
AP0059
 62
7
  6
BYLAYER
 10
362.4504891583
 20
35.7465522844
 11
360.4788928855
 21
36.1052320235
  0
LINE
  8
AP0059
 62
7
  6
BYLAYER
 10
364.3466503743
 20
36.4461931362
 11
364.3674966225
 21
32.5305728449
  0
LINE
  8
AP0059
 62
7
  6
BYLAYER
 10
364.3674966225
 20
32.5305728449
 11
364.7882122217
 21
31.7897475506
  0
LINE
  8
AP0059
 62
7
  6
BYLAYER
 10
364.7882122217
 20
31.7897475506
 11
366.3256797737
 21
31.3832171693
  0
LINE
  8
AP0059
 62
7
  6
BYLAYER
 10
366.3256797737
 20
31.3832171693
 11
372.7574855896
 21
31.4031842804
  0
LINE
  8
AP0059
 62
7
  6
BYLAYER
 10
372.7574855896
 20
31.4031842804
 11
373.9810701557
 21
31.6779317286
  0
LINE
  8
AP0059
 62
7
  6
BYLAYER
 10
373.9810701557
 20
31.6779317286
 11
374.9211217445
 21
32.4350845802
  0
LINE
  8
AP0059
 62
7
  6
BYLAYER
 10
374.9211217445
 20
32.4350845802
 11
375.7459446416
 21
34.0557738258
  0
LINE
  8
AP0059
 62
7
  6
BYLAYER
 10
375.7459446416
 20
34.0557738258
 11
373.5506615504
 21
34.8823172738
  0
LINE
  8
AP0059
 62
7
  6
BYLAYER
 10
373.5199678524
 20
34.8938737218
 11
373.2782278462
 21
33.7289533771
  0
LINE
  8
AP0059
 62
7
  6
BYLAYER
 10
373.2782278462
 20
33.7289533771
 11
373.0114672424
 21
33.1650821607
  0
LINE
  8
AP0059
 62
7
  6
BYLAYER
 10
373.0114672424
 20
33.1650821607
 11
372.4507907637
 21
32.7976873171
  0
LINE
  8
AP0059
 62
7
  6
BYLAYER
 10
372.4507907637
 20
32.7976873171
 11
371.0802482603
 21
32.6091977886
  0
LINE
  8
AP0059
 62
7
  6
BYLAYER
 10
371.0802482603
 20
32.6091977886
 11
367.5388814419
 21
32.6155872642
  0
LINE
  8
AP0059
 62
7
  6
BYLAYER
 10
367.5388814419
 20
32.6155872642
 11
366.6651206618
 21
32.777720206
  0
LINE
  8
AP0059
 62
7
  6
BYLAYER
 10
366.6651206618
 20
32.777720206
 11
366.3632179425
 21
33.1419203118
  0
LINE
  8
AP0059
 62
7
  6
BYLAYER
 10
366.3632179425
 20
33.1419203118
 11
366.2993231871
 21
35.3742433288
  0
LINE
  8
AP0059
 62
7
  6
BYLAYER
 10
366.2993231871
 20
35.3742433288
 11
366.6958823691
 21
36.2443060117
  0
LINE
  8
AP0059
 62
7
  6
BYLAYER
 10
366.6958823691
 20
36.2443060117
 11
364.3466503743
 21
36.4461931362
  0
LINE
  8
AP0059
 62
7
  6
BYLAYER
 10
368.2882505304
 20
36.6163519936
 11
370.3037109044
 21
34.0471344427
  0
LINE
  8
AP0059
 62
7
  6
BYLAYER
 10
370.3037109044
 20
34.0471344427
 11
372.1822616122
 21
34.7772515735
  0
LINE
  8
AP0059
 62
7
  6
BYLAYER
 10
372.1822616122
 20
34.7772515735
 11
370.1062378081
 21
37.2169267045
  0
LINE
  8
AP0059
 62
7
  6
BYLAYER
 10
370.1062378081
 20
37.2169267045
 11
368.2882505304
 21
36.6163519936
  0
LINE
  8
AP0059
 62
7
  6
BYLAYER
 10
375.2061114654
 20
35.8832130957
 11
378.3957930414
 21
32.7050709164
  0
LINE
  8
AP0059
 62
7
  6
BYLAYER
 10
378.3957930414
 20
32.7050709164
 11
380.2927686567
 21
33.8319384026
  0
LINE
  8
AP0059
 62
7
  6
BYLAYER
 10
380.2321022805
 20
33.7959005292
 11
376.6834587523
 21
36.7764269064
  0
LINE
  8
AP0059
 62
7
  6
BYLAYER
 10
376.6834587523
 20
36.7764269064
 11
375.2061114654
 21
35.8832130957
  0
LINE
  8
AP0059
 62
7
  6
BYLAYER
 10
377.0077934008
 20
47.0196452053
 11
377.0099440042
 21
37.5053757775
  0
LINE
  8
AP0059
 62
7
  6
BYLAYER
 10
377.0099440042
 20
37.5053757775
 11
361.2261908097
 21
37.513578444
  0
LINE
  8
AP0059
 62
7
  6
BYLAYER
 10
361.2261908097
 20
37.513578444
 11
361.2846954834
 21
46.993411935
  0
LINE
  8
AP0059
 62
7
  6
BYLAYER
 10
361.2846954834
 20
46.993411935
 11
377.0077934008
 21
47.0196452053
  0
LINE
  8
AP0059
 62
7
  6
BYLAYER
 10
363.2498001419
 20
45.7165465899
 11
363.2498001419
 21
38.7721444143
  0
LINE
  8
AP0059
 62
7
  6
BYLAYER
 10
363.2498001419
 20
38.7721444143
 11
374.9869345119
 21
38.7721444143
  0
LINE
  8
AP0059
 62
7
  6
BYLAYER
 10
374.9869345119
 20
38.7721444143
 11
374.9869345119
 21
45.7165465899
  0
LINE
  8
AP0059
 62
7
  6
BYLAYER
 10
374.9869345119
 20
45.7165465899
 11
363.2498001419
 21
45.7165465899
  0
LINE
  8
AP0059
 62
7
  6
BYLAYER
 10
364.9016254126
 20
43.8299155222
 11
368.1737190807
 21
43.8131519294
  0
LINE
  8
AP0059
 62
7
  6
BYLAYER
 10
368.2624895469
 20
45.119790897
 11
368.1737190807
 21
43.8131519294
  0
LINE
  8
AP0059
 62
7
  6
BYLAYER
 10
370.2432269645
 20
44.8410500265
 11
369.900631858
 21
43.7241200622
  0
LINE
  8
AP0059
 62
7
  6
BYLAYER
 10
369.900631858
 20
43.7241200622
 11
373.5689489833
 21
43.8373553754
  0
LINE
  8
AP0059
 62
7
  6
BYLAYER
 10
373.5689489833
 20
43.8373553754
 11
373.5689489833
 21
42.5854886689
  0
LINE
  8
AP0059
 62
7
  6
BYLAYER
 10
373.5689489833
 20
42.5854886689
 11
369.6383200506
 21
42.7177531455
  0
LINE
  8
AP0059
 62
7
  6
BYLAYER
 10
369.6383200506
 20
42.7177531455
 11
369.3738633775
 21
42.06315742
  0
LINE
  8
AP0059
 62
7
  6
BYLAYER
 10
369.3738633775
 20
42.06315742
 11
373.9398937031
 21
40.4565911943
  0
LINE
  8
AP0059
 62
7
  6
BYLAYER
 10
368.0131483879
 20
42.7183052983
 11
364.882456986
 21
42.5943506896
  0
LINE
  8
AP0059
 62
7
  6
BYLAYER
 10
364.7370964174
 20
43.6350365182
 11
364.7370964174
 21
42.6215059606
  0
LINE
  8
AP0059
 62
7
  6
BYLAYER
 10
368.0131483879
 20
42.7183052983
 11
367.4390458866
 21
41.7741017671
  0
LINE
  8
AP0059
 62
7
  6
BYLAYER
 10
367.4390458866
 20
41.7741017671
 11
366.5221561465
 21
41.0353186577
  0
LINE
  8
AP0059
 62
7
  6
BYLAYER
 10
366.5221561465
 20
41.0353186577
 11
365.1300491632
 21
40.4954079745
  0
LINE
  8
AP0059
 62
7
  6
BYLAYER
 10
365.1300491632
 20
40.4954079745
 11
363.9153965466
 21
40.2097919846
  0
LINE
  8
AP0059
 62
7
  6
BYLAYER
 10
363.9153965466
 20
40.2097919846
 11
364.7019543019
 21
39.6152577188
  0
LINE
  8
AP0059
 62
7
  6
BYLAYER
 10
364.7019543019
 20
39.6152577188
 11
365.1974899936
 21
39.0725705161
  0
LINE
  8
AP0059
 62
7
  6
BYLAYER
 10
365.1974899936
 20
39.0725705161
 11
366.7625601638
 21
39.6807498431
  0
LINE
  8
AP0059
 62
7
  6
BYLAYER
 10
366.7625601638
 20
39.6807498431
 11
368.0548315918
 21
40.4562724368
  0
LINE
  8
AP0059
 62
7
  6
BYLAYER
 10
368.0548315918
 20
40.4562724368
 11
368.7550726281
 21
41.1396884596
  0
LINE
  8
AP0059
 62
7
  6
BYLAYER
 10
368.7550726281
 20
41.1396884596
 11
369.7736005122
 21
40.7206369873
  0
LINE
  8
AP0059
 62
7
  6
BYLAYER
 10
369.7736005122
 20
40.7206369873
 11
371.3533983396
 21
39.945913078
  0
LINE
  8
AP0059
 62
7
  6
BYLAYER
 10
371.3533983396
 20
39.945913078
 11
372.6007403367
 21
39.2052511634
  0
LINE
  8
AP0059
 62
7
  6
BYLAYER
 10
372.6007403367
 20
39.2052511634
 11
373.9398937031
 21
40.4565911943
  0
LINE
  8
AP0059
 62
7
  6
BYLAYER
 10
383.6994624528
 20
46.3151100117
 11
387.5378739303
 21
46.1455553204
  0
LINE
  8
AP0059
 62
7
  6
BYLAYER
 10
387.5459267282
 20
44.9712013391
 11
383.6994624528
 21
44.826865204
  0
LINE
  8
AP0059
 62
7
  6
BYLAYER
 10
383.6994624528
 20
46.3151100117
 11
383.6994624528
 21
44.826865204
  0
LINE
  8
AP0059
 62
7
  6
BYLAYER
 10
389.2914925841
 20
46.148496459
 11
396.4199672149
 21
46.148496459
  0
LINE
  8
AP0059
 62
7
  6
BYLAYER
 10
396.2770798298
 20
47.9618054173
 11
396.4199672149
 21
46.148496459
  0
LINE
  8
AP0059
 62
7
  6
BYLAYER
 10
398.1253008544
 20
46.8185288115
 11
398.1253008544
 21
46.1403338232
  0
LINE
  8
AP0059
 62
7
  6
BYLAYER
 10
398.1253008544
 20
46.1403338232
 11
402.2800573246
 21
46.3075560822
  0
LINE
  8
AP0059
 62
7
  6
BYLAYER
 10
402.2800573246
 20
46.3075560822
 11
402.2800573246
 21
44.8181735445
  0
LINE
  8
AP0059
 62
7
  6
BYLAYER
 10
402.2800573246
 20
44.8181735445
 11
398.1253008544
 21
44.9741998068
  0
LINE
  8
AP0059
 62
7
  6
BYLAYER
 10
387.3050487799
 20
47.7568531864
 11
387.5378739303
 21
46.1455553204
  0
LINE
  8
AP0059
 62
7
  6
BYLAYER
 10
387.3050487799
 20
47.7568531864
 11
388.9084823872
 21
47.6116863578
  0
LINE
  8
AP0059
 62
7
  6
BYLAYER
 10
388.9084823872
 20
47.6116863578
 11
389.8512143241
 21
47.5987561192
  0
LINE
  8
AP0059
 62
7
  6
BYLAYER
 10
389.8512143241
 20
47.5987561192
 11
389.426029906
 21
47.1780007054
  0
LINE
  8
AP0059
 62
7
  6
BYLAYER
 10
389.426029906
 20
47.1780007054
 11
389.3014351329
 21
46.7778597997
  0
LINE
  8
AP0059
 62
7
  6
BYLAYER
 10
389.3014351329
 20
46.7778597997
 11
389.2914925841
 21
46.148496459
  0
LINE
  8
AP0059
 62
7
  6
BYLAYER
 10
396.2770798298
 20
47.9618054173
 11
396.9847794704
 21
47.8752522238
  0
LINE
  8
AP0059
 62
7
  6
BYLAYER
 10
396.9847794704
 20
47.8752522238
 11
398.08137321
 21
47.8049679929
  0
LINE
  8
AP0059
 62
7
  6
BYLAYER
 10
398.08137321
 20
47.8049679929
 11
398.9422199332
 21
47.7856592813
  0
LINE
  8
AP0059
 62
7
  6
BYLAYER
 10
398.9422199332
 20
47.7856592813
 11
398.2698627385
 21
47.2059546609
  0
LINE
  8
AP0059
 62
7
  6
BYLAYER
 10
398.2698627385
 20
47.2059546609
 11
398.1253008544
 21
46.8185288115
  0
LINE
  8
AP0059
 62
7
  6
BYLAYER
 10
387.5459267282
 20
44.9712013391
 11
387.5459267282
 21
39.4226862948
  0
LINE
  8
AP0059
 62
7
  6
BYLAYER
 10
387.5459267282
 20
39.4226862948
 11
382.8720253703
 21
39.5929042501
  0
LINE
  8
AP0059
 62
7
  6
BYLAYER
 10
382.8720253703
 20
38.1536045974
 11
388.8892195413
 21
38.3284695243
  0
LINE
  8
AP0059
 62
7
  6
BYLAYER
 10
382.8720253703
 20
39.5929042501
 11
382.8720253703
 21
38.1536045974
  0
LINE
  8
AP0059
 62
7
  6
BYLAYER
 10
388.8892195413
 20
38.3284695243
 11
385.7712498968
 21
36.4221173174
  0
LINE
  8
AP0059
 62
7
  6
BYLAYER
 10
385.7712498968
 20
36.4221173174
 11
382.2953594192
 21
35.0595966176
  0
LINE
  8
AP0059
 62
7
  6
BYLAYER
 10
382.2953594192
 20
35.0595966176
 11
383.0141912011
 21
34.6666089127
  0
LINE
  8
AP0059
 62
7
  6
BYLAYER
 10
383.0141912011
 20
34.6666089127
 11
383.7798121929
 21
33.8520700863
  0
LINE
  8
AP0059
 62
7
  6
BYLAYER
 10
383.7916032658
 20
33.8462878109
 11
386.7855791388
 21
35.3391012133
  0
LINE
  8
AP0059
 62
7
  6
BYLAYER
 10
386.7855791388
 20
35.3391012133
 11
389.509093088
 21
37.2016333334
  0
LINE
  8
AP0059
 62
7
  6
BYLAYER
 10
389.509093088
 20
37.2016333334
 11
390.5186151254
 21
38.1824178288
  0
LINE
  8
AP0059
 62
7
  6
BYLAYER
 10
388.3030795797
 20
35.7656636164
 11
392.1782402717
 21
35.6338670734
  0
LINE
  8
AP0059
 62
7
  6
BYLAYER
 10
392.1751017573
 20
34.5889446748
 11
388.3030795797
 21
34.4415043794
  0
LINE
  8
AP0059
 62
7
  6
BYLAYER
 10
388.3030795797
 20
35.7656636164
 11
388.3030795797
 21
34.4415043794
  0
LINE
  8
AP0059
 62
7
  6
BYLAYER
 10
392.0111878714
 20
37.5478367553
 11
392.1607254373
 21
36.2096672557
  0
LINE
  8
AP0059
 62
7
  6
BYLAYER
 10
392.1607254373
 20
36.2096672557
 11
392.1782402717
 21
35.6338670734
  0
LINE
  8
AP0059
 62
7
  6
BYLAYER
 10
392.0111878714
 20
37.5478367553
 11
392.755745347
 21
37.4811728883
  0
LINE
  8
AP0059
 62
7
  6
BYLAYER
 10
392.755745347
 20
37.4811728883
 11
393.8587285622
 21
37.4396412973
  0
LINE
  8
AP0059
 62
7
  6
BYLAYER
 10
393.8587285622
 20
37.4396412973
 11
394.5094580443
 21
37.4201750307
  0
LINE
  8
AP0059
 62
7
  6
BYLAYER
 10
394.5094580443
 20
37.4201750307
 11
393.9769338597
 21
36.9396648362
  0
LINE
  8
AP0059
 62
7
  6
BYLAYER
 10
393.9769338597
 20
36.9396648362
 11
393.8587285622
 21
36.5770620993
  0
LINE
  8
AP0059
 62
7
  6
BYLAYER
 10
393.8587285622
 20
36.5770620993
 11
393.8515598525
 21
35.6361689544
  0
LINE
  8
AP0059
 62
7
  6
BYLAYER
 10
393.8515598525
 20
35.6361689544
 11
395.9105488951
 21
35.6785421014
  0
LINE
  8
AP0059
 62
7
  6
BYLAYER
 10
395.9105488951
 20
35.6785421014
 11
397.6780375665
 21
35.7635984045
  0
LINE
  8
AP0059
 62
7
  6
BYLAYER
 10
397.6780375665
 20
35.7635984045
 11
397.6780375665
 21
34.4437524508
  0
LINE
  8
AP0059
 62
7
  6
BYLAYER
 10
397.6780375665
 20
34.4437524508
 11
393.8523390866
 21
34.5830422209
  0
LINE
  8
AP0059
 62
7
  6
BYLAYER
 10
393.8523390866
 20
34.5830422209
 11
393.8523390866
 21
32.9641411939
  0
LINE
  8
AP0059
 62
7
  6
BYLAYER
 10
392.1751017573
 20
34.5889446748
 11
392.1751017573
 21
32.9621413184
  0
LINE
  8
AP0059
 62
7
  6
BYLAYER
 10
392.1751017573
 20
32.9621413184
 11
384.6435074639
 21
33.1091628032
  0
LINE
  8
AP0059
 62
7
  6
BYLAYER
 10
384.6435074639
 20
33.1091628032
 11
384.6435074639
 21
31.65140682
  0
LINE
  8
AP0059
 62
7
  6
BYLAYER
 10
384.6435074639
 20
31.65140682
 11
393.6989916737
 21
31.7897475506
  0
LINE
  8
AP0059
 62
7
  6
BYLAYER
 10
393.6989916737
 20
31.7897475506
 11
401.4558149799
 21
31.6499925077
  0
LINE
  8
AP0059
 62
7
  6
BYLAYER
 10
401.4558149799
 20
31.6499925077
 11
401.4558149799
 21
33.1129510669
  0
LINE
  8
AP0059
 62
7
  6
BYLAYER
 10
401.4558149799
 20
33.1129510669
 11
393.8523390866
 21
32.9641411939
  0
LINE
  8
AP0059
 62
7
  6
BYLAYER
 10
401.7412825632
 20
34.122918941
 11
398.8513050127
 21
35.5691223328
  0
LINE
  8
AP0059
 62
7
  6
BYLAYER
 10
398.8513050127
 20
35.5691223328
 11
396.6812793822
 21
37.2575412444
  0
LINE
  8
AP0059
 62
7
  6
BYLAYER
 10
396.6812793822
 20
37.2575412444
 11
396.0263581393
 21
38.1824178288
  0
LINE
  8
AP0059
 62
7
  6
BYLAYER
 10
397.6230898635
 20
38.3297352655
 11
398.8481102749
 21
37.2934820443
  0
LINE
  8
AP0059
 62
7
  6
BYLAYER
 10
398.8481102749
 20
37.2934820443
 11
400.5980278885
 21
36.4269094241
  0
LINE
  8
AP0059
 62
7
  6
BYLAYER
 10
400.5980278885
 20
36.4269094241
 11
402.9340640026
 21
35.8540488792
  0
LINE
  8
AP0059
 62
7
  6
BYLAYER
 10
402.9340640026
 20
35.8540488792
 11
402.3958665688
 21
35.3630617466
  0
LINE
  8
AP0059
 62
7
  6
BYLAYER
 10
402.3958665688
 20
35.3630617466
 11
401.9494019654
 21
34.7017510282
  0
LINE
  8
AP0059
 62
7
  6
BYLAYER
 10
401.9494019654
 20
34.7017510282
 11
401.7412825632
 21
34.122918941
  0
LINE
  8
AP0059
 62
7
  6
BYLAYER
 10
402.8966417142
 20
38.1367163742
 11
397.6230898635
 21
38.3297352655
  0
LINE
  8
AP0059
 62
7
  6
BYLAYER
 10
402.8966417142
 20
39.5919919994
 11
398.1253008544
 21
39.4220642938
  0
LINE
  8
AP0059
 62
7
  6
BYLAYER
 10
402.8966417142
 20
39.5919919994
 11
402.8966417142
 21
38.1367163742
  0
LINE
  8
AP0059
 62
7
  6
BYLAYER
 10
398.1253008544
 20
44.9741998068
 11
398.1253008544
 21
39.4220642938
  0
LINE
  8
AP0059
 62
7
  6
BYLAYER
 10
405.9012925872
 20
47.3656915494
 11
405.9012925872
 21
31.6619580398
  0
LINE
  8
AP0059
 62
7
  6
BYLAYER
 10
406.6999770297
 20
30.8632735972
 11
414.0350949502
 21
30.8632735972
  0
LINE
  8
AP0059
 62
7
  6
BYLAYER
 10
414.8337793928
 20
31.6619580398
 11
414.8337793928
 21
47.3656915494
  0
LINE
  8
AP0059
 62
7
  6
BYLAYER
 10
414.0350949502
 20
48.164375992
 11
406.6999770297
 21
48.164375992
  0
LINE
  8
AP0059
 62
7
  6
BYLAYER
 10
409.9686962275
 20
45.8194384686
 11
407.0769560866
 21
45.8194384686
  0
LINE
  8
AP0059
 62
7
  6
BYLAYER
 10
407.0769560866
 20
45.8194384686
 11
407.0769560866
 21
44.7955250133
  0
LINE
  8
AP0059
 62
7
  6
BYLAYER
 10
407.0769560866
 20
44.7955250133
 11
409.8591849736
 21
44.7955250133
  0
LINE
  8
AP0059
 62
7
  6
BYLAYER
 10
410.450767871
 20
44.7955250133
 11
413.6581158934
 21
44.7955250133
  0
LINE
  8
AP0059
 62
7
  6
BYLAYER
 10
413.6581158934
 20
44.7955250133
 11
413.6581158934
 21
45.8194384686
  0
LINE
  8
AP0059
 62
7
  6
BYLAYER
 10
413.6581158934
 20
45.8194384686
 11
410.5576359195
 21
45.8194384686
  0
LINE
  8
AP0059
 62
7
  6
BYLAYER
 10
410.5576359195
 20
45.8194384686
 11
410.6707905345
 21
47.1314203564
  0
LINE
  8
AP0059
 62
7
  6
BYLAYER
 10
410.0757413484
 20
47.3064348229
 11
410.6707905345
 21
47.1314203564
  0
LINE
  8
AP0059
 62
7
  6
BYLAYER
 10
410.0757413484
 20
47.3064348229
 11
409.9686962275
 21
45.8194384686
  0
LINE
  8
AP0059
 62
7
  6
BYLAYER
 10
409.8591849736
 20
44.7955250133
 11
409.6688654498
 21
43.4665141009
  0
LINE
  8
AP0059
 62
7
  6
BYLAYER
 10
410.450767871
 20
44.7955250133
 11
410.2753208859
 21
43.4665141009
  0
LINE
  8
AP0059
 62
7
  6
BYLAYER
 10
410.2753208859
 20
43.4665141009
 11
413.4073289784
 21
43.4665141009
  0
LINE
  8
AP0059
 62
7
  6
BYLAYER
 10
413.4073289784
 20
43.4665141009
 11
413.4073289784
 21
42.4426006455
  0
LINE
  8
AP0059
 62
7
  6
BYLAYER
 10
413.4073289784
 20
42.4426006455
 11
410.1062888852
 21
42.4426006455
  0
LINE
  8
AP0059
 62
7
  6
BYLAYER
 10
410.1062888852
 20
42.4426006455
 11
409.7427758198
 21
40.905931778
  0
LINE
  8
AP0059
 62
7
  6
BYLAYER
 10
409.4773326088
 20
42.4426006455
 11
409.049426189
 21
40.905931778
  0
LINE
  8
AP0059
 62
7
  6
BYLAYER
 10
409.4773326088
 20
42.4426006455
 11
407.3421193216
 21
42.4426006455
  0
LINE
  8
AP0059
 62
7
  6
BYLAYER
 10
407.3421193216
 20
43.4665141009
 11
409.6688654498
 21
43.4665141009
  0
LINE
  8
AP0059
 62
7
  6
BYLAYER
 10
407.3421193216
 20
43.4665141009
 11
407.3421193216
 21
42.4426006455
  0
LINE
  8
AP0059
 62
7
  6
BYLAYER
 10
409.049426189
 20
40.905931778
 11
406.7894296873
 21
40.905931778
  0
LINE
  8
AP0059
 62
7
  6
BYLAYER
 10
406.7894296873
 20
40.905931778
 11
406.7894296873
 21
39.8804209537
  0
LINE
  8
AP0059
 62
7
  6
BYLAYER
 10
406.7894296873
 20
39.8804209537
 11
408.7116915049
 21
39.8804209537
  0
LINE
  8
AP0059
 62
7
  6
BYLAYER
 10
408.7116915049
 20
39.8804209537
 11
406.6599280622
 21
36.696422914
  0
LINE
  8
AP0059
 62
7
  6
BYLAYER
 10
409.4272266661
 20
39.8804209537
 11
408.6747783723
 21
38.1674450894
  0
LINE
  8
AP0059
 62
7
  6
BYLAYER
 10
409.4272266661
 20
39.8804209537
 11
411.2799321683
 21
39.8804209537
  0
LINE
  8
AP0059
 62
7
  6
BYLAYER
 10
411.2799321683
 20
39.8804209537
 11
411.9349452481
 21
38.0559927511
  0
LINE
  8
AP0059
 62
7
  6
BYLAYER
 10
411.8889807033
 20
39.8804209537
 11
412.551139256
 21
38.5577995169
  0
LINE
  8
AP0059
 62
7
  6
BYLAYER
 10
412.551139256
 20
38.5577995169
 11
413.3154802675
 21
37.6249360879
  0
LINE
  8
AP0059
 62
7
  6
BYLAYER
 10
413.3154802675
 20
37.6249360879
 11
414.0826289268
 21
37.0084960329
  0
LINE
  8
AP0059
 62
7
  6
BYLAYER
 10
411.8889807033
 20
39.8804209537
 11
413.9600186126
 21
39.8804209537
  0
LINE
  8
AP0059
 62
7
  6
BYLAYER
 10
413.9600186126
 20
40.905931778
 11
413.9600186126
 21
39.8804209537
  0
LINE
  8
AP0059
 62
7
  6
BYLAYER
 10
413.9600186126
 20
40.905931778
 11
409.7427758198
 21
40.905931778
  0
LINE
  8
AP0059
 62
7
  6
BYLAYER
 10
412.370665587
 20
37.3238296869
 11
412.9313130506
 21
36.5626857793
  0
LINE
  8
AP0059
 62
7
  6
BYLAYER
 10
412.9313130506
 20
36.5626857793
 11
413.7189248493
 21
35.7449176731
  0
LINE
  8
AP0059
 62
7
  6
BYLAYER
 10
414.0826289268
 20
37.0084960329
 11
413.7189248493
 21
35.7449176731
  0
LINE
  8
AP0059
 62
7
  6
BYLAYER
 10
412.370665587
 20
37.3238296869
 11
411.2868970409
 21
35.9836201327
  0
LINE
  8
AP0059
 62
7
  6
BYLAYER
 10
410.9846117938
 20
36.9253549411
 11
411.2868970409
 21
35.9836201327
  0
LINE
  8
AP0059
 62
7
  6
BYLAYER
 10
411.9349452481
 20
38.0559927511
 11
410.9846117938
 21
36.9253549411
  0
LINE
  8
AP0059
 62
7
  6
BYLAYER
 10
410.7141650381
 20
39.0817365112
 11
410.7141650381
 21
33.141490251
  0
LINE
  8
AP0059
 62
7
  6
BYLAYER
 10
410.7141650381
 20
39.0817365112
 11
410.1407096083
 21
39.0817365112
  0
LINE
  8
AP0059
 62
7
  6
BYLAYER
 10
410.1407096083
 20
39.0817365112
 11
410.1407096083
 21
33.8120165591
  0
LINE
  8
AP0059
 62
7
  6
BYLAYER
 10
410.1407096083
 20
33.8120165591
 11
410.0863990662
 21
33.3008585159
  0
LINE
  8
AP0059
 62
7
  6
BYLAYER
 10
410.0863990662
 20
33.3008585159
 11
409.9649990309
 21
33.0580584454
  0
LINE
  8
AP0059
 62
7
  6
BYLAYER
 10
409.9649990309
 20
33.0580584454
 11
409.7277897515
 21
32.9510347301
  0
LINE
  8
AP0059
 62
7
  6
BYLAYER
 10
409.7277897515
 20
32.9510347301
 11
408.8306145359
 21
33.0739588319
  0
LINE
  8
AP0059
 62
7
  6
BYLAYER
 10
408.8306145359
 20
33.0739588319
 11
408.9197166325
 21
31.7474513683
  0
LINE
  8
AP0059
 62
7
  6
BYLAYER
 10
408.9197166325
 20
31.7474513683
 11
410.0366829095
 21
31.7152205006
  0
LINE
  8
AP0059
 62
7
  6
BYLAYER
 10
410.0366829095
 20
31.7152205006
 11
410.4737610209
 21
32.158739763
  0
LINE
  8
AP0059
 62
7
  6
BYLAYER
 10
410.4737610209
 20
32.158739763
 11
410.7141650381
 21
33.141490251
  0
LINE
  8
AP0059
 62
7
  6
BYLAYER
 10
410.8177776389
 20
34.7995691177
 11
413.2903095835
 21
32.7669407452
  0
LINE
  8
AP0059
 62
7
  6
BYLAYER
 10
413.2903095835
 20
32.7669407452
 11
413.558421102
 21
33.9670589711
  0
LINE
  8
AP0059
 62
7
  6
BYLAYER
 10
413.558421102
 20
33.9670589711
 11
411.0472670673
 21
35.7781223543
  0
LINE
  8
AP0059
 62
7
  6
BYLAYER
 10
411.0472670673
 20
35.7781223543
 11
410.8177776389
 21
34.7995691177
  0
LINE
  8
AP0059
 62
7
  6
BYLAYER
 10
409.8109322739
 20
35.7634643599
 11
409.9353491275
 21
34.6959677555
  0
LINE
  8
AP0059
 62
7
  6
BYLAYER
 10
409.9353491275
 20
34.6959677555
 11
407.3986675373
 21
33.0194790021
  0
LINE
  8
AP0059
 62
7
  6
BYLAYER
 10
407.2166131029
 20
34.1610404554
 11
407.3986675373
 21
33.0194790021
  0
LINE
  8
AP0059
 62
7
  6
BYLAYER
 10
407.2166131029
 20
34.1610404554
 11
409.8109322739
 21
35.7634643599
  0
LINE
  8
AP0059
 62
7
  6
BYLAYER
 10
409.6789653934
 20
36.8465010885
 11
409.3252302882
 21
35.8720817149
  0
LINE
  8
AP0059
 62
7
  6
BYLAYER
 10
409.3252302882
 20
35.8720817149
 11
408.2749604303
 21
37.3927178282
  0
LINE
  8
AP0059
 62
7
  6
BYLAYER
 10
408.2749604303
 20
37.3927178282
 11
407.0040800149
 21
35.6087017788
  0
LINE
  8
AP0059
 62
7
  6
BYLAYER
 10
406.6599280622
 20
36.696422914
 11
407.0040800149
 21
35.6087017788
  0
LINE
  8
AP0059
 62
7
  6
BYLAYER
 10
408.6747783723
 20
38.1674450894
 11
409.6789653934
 21
36.8465010885
  0
LINE
  8
AP0059
 62
7
  6
BYLAYER
 10
334.7282991569
 20
26.6961031321
 11
335.6114130139
 21
26.6852966282
  0
LINE
  8
AP0059
 62
7
  6
BYLAYER
 10
335.7561883826
 20
26.6891106884
 11
336.8781577601
 21
22.9831155209
  0
LINE
  8
AP0059
 62
7
  6
BYLAYER
 10
336.8781577601
 20
22.9831155209
 11
338.1447435871
 21
26.6961031321
  0
LINE
  8
AP0059
 62
7
  6
BYLAYER
 10
338.1447435871
 20
26.6961031321
 11
338.8903923575
 21
26.6891106884
  0
LINE
  8
AP0059
 62
7
  6
BYLAYER
 10
338.8903923575
 20
26.6891106884
 11
340.1137521688
 21
23.0333339802
  0
LINE
  8
AP0059
 62
7
  6
BYLAYER
 10
340.1137521688
 20
23.0333339802
 11
341.2862578441
 21
26.6961031321
  0
LINE
  8
AP0059
 62
7
  6
BYLAYER
 10
341.2862578441
 20
26.6961031321
 11
342.0824429122
 21
26.6891106884
  0
LINE
  8
AP0059
 62
7
  6
BYLAYER
 10
342.0824429122
 20
26.6891106884
 11
340.374061778
 21
21.7378248633
  0
LINE
  8
AP0059
 62
7
  6
BYLAYER
 10
340.374061778
 20
21.7378248633
 11
339.5708842661
 21
21.7378248633
  0
LINE
  8
AP0059
 62
7
  6
BYLAYER
 10
339.5708842661
 20
21.7378248633
 11
338.4053710346
 21
25.4005940152
  0
LINE
  8
AP0059
 62
7
  6
BYLAYER
 10
338.4053710346
 20
25.4005940152
 11
337.1820112232
 21
21.7378248633
  0
LINE
  8
AP0059
 62
7
  6
BYLAYER
 10
337.1820112232
 20
21.7378248633
 11
336.3206692932
 21
21.7378248633
  0
LINE
  8
AP0059
 62
7
  6
BYLAYER
 10
336.3206692932
 20
21.7378248633
 11
334.7282991569
 21
26.6961031321
  0
LINE
  8
AP0059
 62
7
  6
BYLAYER
 10
342.2559826516
 20
26.6961031321
 11
343.848352788
 21
21.7378248633
  0
LINE
  8
AP0059
 62
7
  6
BYLAYER
 10
343.848352788
 20
21.7378248633
 11
344.709694718
 21
21.7378248633
  0
LINE
  8
AP0059
 62
7
  6
BYLAYER
 10
344.709694718
 20
21.7378248633
 11
345.9330545293
 21
25.4005940152
  0
LINE
  8
AP0059
 62
7
  6
BYLAYER
 10
345.9330545293
 20
25.4005940152
 11
347.0985677608
 21
21.7378248633
  0
LINE
  8
AP0059
 62
7
  6
BYLAYER
 10
347.0985677608
 20
21.7378248633
 11
347.9017452727
 21
21.7378248633
  0
LINE
  8
AP0059
 62
7
  6
BYLAYER
 10
347.9017452727
 20
21.7378248633
 11
349.610126407
 21
26.6891106884
  0
LINE
  8
AP0059
 62
7
  6
BYLAYER
 10
349.610126407
 20
26.6891106884
 11
348.8139413388
 21
26.6961031321
  0
LINE
  8
AP0059
 62
7
  6
BYLAYER
 10
348.8139413388
 20
26.6961031321
 11
347.6414356636
 21
23.0333339802
  0
LINE
  8
AP0059
 62
7
  6
BYLAYER
 10
347.6414356636
 20
23.0333339802
 11
346.4180758523
 21
26.6891106884
  0
LINE
  8
AP0059
 62
7
  6
BYLAYER
 10
346.4180758523
 20
26.6891106884
 11
345.6700417978
 21
26.6891106884
  0
LINE
  8
AP0059
 62
7
  6
BYLAYER
 10
345.6700417978
 20
26.6891106884
 11
344.4058412549
 21
22.9831155209
  0
LINE
  8
AP0059
 62
7
  6
BYLAYER
 10
344.4058412549
 20
22.9831155209
 11
343.2838718774
 21
26.6891106884
  0
LINE
  8
AP0059
 62
7
  6
BYLAYER
 10
343.2838718774
 20
26.6891106884
 11
342.2559826516
 21
26.6961031321
  0
LINE
  8
AP0059
 62
7
  6
BYLAYER
 10
349.7839839848
 20
26.6961031321
 11
350.8118732105
 21
26.6891106884
  0
LINE
  8
AP0059
 62
7
  6
BYLAYER
 10
350.8118732105
 20
26.6891106884
 11
351.933842588
 21
22.9831155209
  0
LINE
  8
AP0059
 62
7
  6
BYLAYER
 10
351.933842588
 20
22.9831155209
 11
353.200428415
 21
26.6961031321
  0
LINE
  8
AP0059
 62
7
  6
BYLAYER
 10
353.200428415
 20
26.6961031321
 11
353.9460771854
 21
26.6891106884
  0
LINE
  8
AP0059
 62
7
  6
BYLAYER
 10
353.9460771854
 20
26.6891106884
 11
355.1694369967
 21
23.0333339802
  0
LINE
  8
AP0059
 62
7
  6
BYLAYER
 10
355.1694369967
 20
23.0333339802
 11
356.341942672
 21
26.6961031321
  0
LINE
  8
AP0059
 62
7
  6
BYLAYER
 10
356.341942672
 20
26.6961031321
 11
357.1381277401
 21
26.6891106884
  0
LINE
  8
AP0059
 62
7
  6
BYLAYER
 10
357.1381277401
 20
26.6891106884
 11
355.4297466058
 21
21.7378248633
  0
LINE
  8
AP0059
 62
7
  6
BYLAYER
 10
355.4297466058
 20
21.7378248633
 11
354.626569094
 21
21.7378248633
  0
LINE
  8
AP0059
 62
7
  6
BYLAYER
 10
354.626569094
 20
21.7378248633
 11
353.4610558624
 21
25.4005940152
  0
LINE
  8
AP0059
 62
7
  6
BYLAYER
 10
353.4610558624
 20
25.4005940152
 11
352.2376960511
 21
21.7378248633
  0
LINE
  8
AP0059
 62
7
  6
BYLAYER
 10
352.2376960511
 20
21.7378248633
 11
351.3763541211
 21
21.7378248633
  0
LINE
  8
AP0059
 62
7
  6
BYLAYER
 10
351.3763541211
 20
21.7378248633
 11
349.7839839848
 21
26.6961031321
  0
LINE
  8
AP0059
 62
7
  6
BYLAYER
 10
358.2597792793
 20
22.5845462292
 11
358.5855635886
 21
22.5921743497
  0
LINE
  8
AP0059
 62
7
  6
BYLAYER
 10
358.5855635886
 20
22.5921743497
 11
358.8897348901
 21
22.4402476181
  0
LINE
  8
AP0059
 62
7
  6
BYLAYER
 10
358.8897348901
 20
22.4402476181
 11
359.0188590151
 21
22.2121696321
  0
LINE
  8
AP0059
 62
7
  6
BYLAYER
 10
359.0188590151
 20
22.2121696321
 11
358.9765047598
 21
21.9221711067
  0
LINE
  8
AP0059
 62
7
  6
BYLAYER
 10
358.9765047598
 20
21.9221711067
 11
358.7266838162
 21
21.7054053516
  0
LINE
  8
AP0059
 62
7
  6
BYLAYER
 10
358.7266838162
 20
21.7054053516
 11
358.2597792793
 21
21.6799782835
  0
LINE
  8
AP0059
 62
7
  6
BYLAYER
 10
358.2597792793
 20
21.6799782835
 11
357.977538824
 21
21.7740584353
  0
LINE
  8
AP0059
 62
7
  6
BYLAYER
 10
357.977538824
 20
21.7740584353
 11
357.8256120924
 21
22.0632913343
  0
LINE
  8
AP0059
 62
7
  6
BYLAYER
 10
357.8256120924
 20
22.0632913343
 11
357.9119029221
 21
22.3858726522
  0
LINE
  8
AP0059
 62
7
  6
BYLAYER
 10
357.9119029221
 20
22.3858726522
 11
358.2588017978
 21
22.5845475288
  0
LINE
  8
AP0059
 62
7
  6
BYLAYER
 10
360.6206825473
 20
26.6897463651
 11
360.6206825473
 21
21.8083849772
  0
LINE
  8
AP0059
 62
7
  6
BYLAYER
 10
360.6206825473
 20
21.8083849772
 11
362.9590192924
 21
21.8083849772
  0
LINE
  8
AP0059
 62
7
  6
BYLAYER
 10
364.8609639821
 20
25.9917733473
 11
364.1022818581
 21
26.5412371892
  0
LINE
  8
AP0059
 62
7
  6
BYLAYER
 10
364.1022818581
 20
26.5412371892
 11
363.3280365338
 21
26.6953680579
  0
LINE
  8
AP0059
 62
7
  6
BYLAYER
 10
363.3280365338
 20
26.6953680579
 11
360.6206825473
 21
26.6897463651
  0
LINE
  8
AP0059
 62
7
  6
BYLAYER
 10
361.5716548921
 20
26.3445739164
 11
361.5716548921
 21
22.1395725385
  0
LINE
  8
AP0059
 62
7
  6
BYLAYER
 10
361.5716548921
 20
22.1395725385
 11
362.3449445441
 21
22.1415792804
  0
LINE
  8
AP0059
 62
7
  6
BYLAYER
 10
363.8537342492
 20
25.8938791353
 11
363.4081248817
 21
26.190104478
  0
LINE
  8
AP0059
 62
7
  6
BYLAYER
 10
363.4081248817
 20
26.190104478
 11
362.495147002
 21
26.3298404545
  0
LINE
  8
AP0059
 62
7
  6
BYLAYER
 10
362.495147002
 20
26.3298404545
 11
361.5716548921
 21
26.3298404545
  0
LINE
  8
AP0059
 62
7
  6
BYLAYER
 10
386.3080602015
 20
26.5626110249
 11
389.139999905
 21
26.5626110249
  0
LINE
  8
AP0059
 62
7
  6
BYLAYER
 10
389.139999905
 20
26.5626110249
 11
389.139999905
 21
26.1042881234
  0
LINE
  8
AP0059
 62
7
  6
BYLAYER
 10
389.139999905
 20
26.1042881234
 11
387.0308246107
 21
26.1042881234
  0
LINE
  8
AP0059
 62
7
  6
BYLAYER
 10
387.0308246107
 20
26.1042881234
 11
387.0308246107
 21
24.5125536638
  0
LINE
  8
AP0059
 62
7
  6
BYLAYER
 10
387.0308246107
 20
24.5125536638
 11
389.139999905
 21
24.5125536638
  0
LINE
  8
AP0059
 62
7
  6
BYLAYER
 10
389.139999905
 20
24.5125536638
 11
389.139999905
 21
24.0605875293
  0
LINE
  8
AP0059
 62
7
  6
BYLAYER
 10
389.139999905
 20
24.0605875293
 11
387.0308246107
 21
24.0605875293
  0
LINE
  8
AP0059
 62
7
  6
BYLAYER
 10
387.0308246107
 20
24.0605875293
 11
387.0308246107
 21
22.1707206968
  0
LINE
  8
AP0059
 62
7
  6
BYLAYER
 10
387.0308246107
 20
22.1707206968
 11
389.139999905
 21
22.1707206968
  0
LINE
  8
AP0059
 62
7
  6
BYLAYER
 10
389.139999905
 20
22.1707206968
 11
389.139999905
 21
21.7378248633
  0
LINE
  8
AP0059
 62
7
  6
BYLAYER
 10
389.139999905
 20
21.7378248633
 11
386.3080602015
 21
21.7378248633
  0
LINE
  8
AP0059
 62
7
  6
BYLAYER
 10
386.3080602015
 20
21.7378248633
 11
386.3080602015
 21
26.5626110249
  0
LINE
  8
AP0059
 62
7
  6
BYLAYER
 10
380.1437116579
 20
25.745766464
 11
379.124757851
 21
26.3683344442
  0
LINE
  8
AP0059
 62
7
  6
BYLAYER
 10
379.124757851
 20
26.3683344442
 11
378.5038573418
 21
26.4291189177
  0
LINE
  8
AP0059
 62
7
  6
BYLAYER
 10
376.8908277126
 20
25.1965417942
 11
376.7637022893
 21
24.7042008677
  0
LINE
  8
AP0059
 62
7
  6
BYLAYER
 10
377.0368119637
 20
22.9566147533
 11
377.4608436834
 21
22.4278389822
  0
LINE
  8
AP0059
 62
7
  6
BYLAYER
 10
379.1872097955
 20
22.0334145294
 11
379.6658743514
 21
22.2387381038
  0
LINE
  8
AP0059
 62
7
  6
BYLAYER
 10
379.6658743514
 20
22.2387381038
 11
379.6658743514
 21
24.0834718905
  0
LINE
  8
AP0059
 62
7
  6
BYLAYER
 10
379.6658743514
 20
24.0834718905
 11
380.5605893083
 21
24.0834718905
  0
LINE
  8
AP0059
 62
7
  6
BYLAYER
 10
380.5605893083
 20
24.0834718905
 11
380.5501006427
 21
22.0165690968
  0
LINE
  8
AP0059
 62
7
  6
BYLAYER
 10
380.5501006427
 20
22.0165690968
 11
379.5959499143
 21
21.787407646
  0
LINE
  8
AP0059
 62
7
  6
BYLAYER
 10
379.5959499143
 20
21.787407646
 11
378.4475999537
 21
21.6958702011
  0
LINE
  8
AP0059
 62
7
  6
BYLAYER
 10
378.37894687
 20
26.7777875882
 11
379.4708805233
 21
26.7266156138
  0
LINE
  8
AP0059
 62
7
  6
BYLAYER
 10
379.4708805233
 20
26.7266156138
 11
380.6168466963
 21
26.3445739164
  0
LINE
  8
AP0059
 62
7
  6
BYLAYER
 10
380.6168466963
 20
26.3445739164
 11
380.3914993058
 21
25.745766464
  0
LINE
  8
AP0059
 62
7
  6
BYLAYER
 10
380.3914993058
 20
25.745766464
 11
380.1437116579
 21
25.745766464
  0
LINE
  8
AP0059
 62
7
  6
BYLAYER
 10
381.4584826486
 20
26.7393291478
 11
381.4584826486
 21
26.232694817
  0
LINE
  8
AP0059
 62
7
  6
BYLAYER
 10
383.0511706233
 20
26.3862686341
 11
383.0511706233
 21
21.7378248633
  0
LINE
  8
AP0059
 62
7
  6
BYLAYER
 10
383.0511706233
 20
21.7378248633
 11
383.9703591331
 21
21.7378248633
  0
LINE
  8
AP0059
 62
7
  6
BYLAYER
 10
381.4584826486
 20
26.7393291478
 11
385.5627292694
 21
26.753949712
  0
LINE
  8
AP0059
 62
7
  6
BYLAYER
 10
385.5627292694
 20
26.753949712
 11
385.5536708765
 21
26.2600289152
  0
LINE
  8
AP0059
 62
7
  6
BYLAYER
 10
383.9703591331
 20
21.7378248633
 11
383.9703591331
 21
26.3892232879
  0
LINE
  8
AP0059
 62
7
  6
BYLAYER
 10
409.4708478372
 20
26.753949712
 11
409.9847924501
 21
26.753949712
  0
LINE
  8
AP0059
 62
7
  6
BYLAYER
 10
409.9847924501
 20
26.753949712
 11
411.8377900339
 21
23.2075093964
  0
LINE
  8
AP0059
 62
7
  6
BYLAYER
 10
411.8377900339
 20
23.2075093964
 11
413.7413239154
 21
26.753949712
  0
LINE
  8
AP0059
 62
7
  6
BYLAYER
 10
413.7413239154
 20
26.753949712
 11
414.2625788104
 21
26.753949712
  0
LINE
  8
AP0059
 62
7
  6
BYLAYER
 10
414.2625788104
 20
26.753949712
 11
414.834370003
 21
21.7378248633
  0
LINE
  8
AP0059
 62
7
  6
BYLAYER
 10
413.7991704952
 20
21.7378248633
 11
413.5026273142
 21
25.0242734082
  0
LINE
  8
AP0059
 62
7
  6
BYLAYER
 10
413.5026273142
 20
25.0242734082
 11
411.8667133238
 21
21.8535180229
  0
LINE
  8
AP0059
 62
7
  6
BYLAYER
 10
411.8667133238
 20
21.8535180229
 11
411.4611515885
 21
21.8535180229
  0
LINE
  8
AP0059
 62
7
  6
BYLAYER
 10
411.4611515885
 20
21.8535180229
 11
409.8834020163
 21
24.958798708
  0
LINE
  8
AP0059
 62
7
  6
BYLAYER
 10
409.8834020163
 20
24.958798708
 11
409.5865409968
 21
21.7378248633
  0
LINE
  8
AP0059
 62
7
  6
BYLAYER
 10
408.7830456466
 20
21.7378248633
 11
409.4708478372
 21
26.753949712
  0
LINE
  8
AP0059
 62
7
  6
BYLAYER
 10
408.7830456466
 20
21.7378248633
 11
409.5865409968
 21
21.7378248633
  0
LINE
  8
AP0059
 62
7
  6
BYLAYER
 10
413.7991704952
 20
21.7378248633
 11
414.834370003
 21
21.7378248633
  0
LINE
  8
AP0059
 62
7
  6
BYLAYER
 10
395.6950740807
 20
22.5845475288
 11
396.0218358715
 21
22.5921743497
  0
LINE
  8
AP0059
 62
7
  6
BYLAYER
 10
396.0218358715
 20
22.5921743497
 11
396.2553787928
 21
22.4960514331
  0
LINE
  8
AP0059
 62
7
  6
BYLAYER
 10
396.2553787928
 20
22.4960514331
 11
396.4270797684
 21
22.2984917137
  0
LINE
  8
AP0059
 62
7
  6
BYLAYER
 10
396.4270797684
 20
22.2984917137
 11
396.4633133404
 21
22.1217735908
  0
LINE
  8
AP0059
 62
7
  6
BYLAYER
 10
396.4633133404
 20
22.1217735908
 11
396.3648620807
 21
21.8466539986
  0
LINE
  8
AP0059
 62
7
  6
BYLAYER
 10
396.3648620807
 20
21.8466539986
 11
396.1629560991
 21
21.7054053516
  0
LINE
  8
AP0059
 62
7
  6
BYLAYER
 10
396.1629560991
 20
21.7054053516
 11
396.0088293737
 21
21.6799765326
  0
LINE
  8
AP0059
 62
7
  6
BYLAYER
 10
396.0088293737
 20
21.6799765326
 11
395.6960515621
 21
21.6799782835
  0
LINE
  8
AP0059
 62
7
  6
BYLAYER
 10
395.6960515621
 20
21.6799782835
 11
395.4138111068
 21
21.7740584353
  0
LINE
  8
AP0059
 62
7
  6
BYLAYER
 10
395.4138111068
 20
21.7740584353
 11
395.280621153
 21
21.9783460842
  0
LINE
  8
AP0059
 62
7
  6
BYLAYER
 10
395.280621153
 20
21.9783460842
 11
395.3089244511
 21
22.2984917137
  0
LINE
  8
AP0059
 62
7
  6
BYLAYER
 10
395.3089244511
 20
22.2984917137
 11
395.4719364257
 21
22.5121414958
  0
LINE
  8
AP0059
 62
7
  6
BYLAYER
 10
395.4719364257
 20
22.5121414958
 11
395.6950740807
 21
22.5845475288
  0
LINE
  8
AP0059
 62
7
  6
BYLAYER
 10
406.9118739241
 20
25.6155215673
 11
407.1000915804
 21
25.2124337117
  0
LINE
  8
AP0059
 62
7
  6
BYLAYER
 10
406.8571557231
 20
22.8531095387
 11
406.0505893468
 21
22.0779118984
  0
LINE
  8
AP0059
 62
7
  6
BYLAYER
 10
406.0505893468
 20
22.0779118984
 11
405.3739114985
 21
21.904372159
  0
LINE
  8
AP0059
 62
7
  6
BYLAYER
 10
405.3739114985
 20
21.904372159
 11
404.3308737047
 21
22.2631181853
  0
LINE
  8
AP0059
 62
7
  6
BYLAYER
 10
404.3308737047
 20
22.2631181853
 11
403.7997298167
 21
22.8482407117
  0
LINE
  8
AP0059
 62
7
  6
BYLAYER
 10
403.6258005704
 20
23.2399289081
 11
403.4846803427
 21
24.2277705017
  0
LINE
  8
AP0059
 62
7
  6
BYLAYER
 10
403.4846803427
 20
24.2277705017
 11
403.717536624
 21
25.2219660375
  0
LINE
  8
AP0059
 62
7
  6
BYLAYER
 10
403.717536624
 20
25.2219660375
 11
404.215708549
 21
26.0521626339
  0
LINE
  8
AP0059
 62
7
  6
BYLAYER
 10
405.3303676444
 20
26.5587969647
 11
406.098807797
 21
26.3723040486
  0
LINE
  8
AP0059
 62
7
  6
BYLAYER
 10
405.3303676444
 20
26.5587969647
 11
404.7201693382
 21
26.4217977015
  0
LINE
  8
AP0059
 62
7
  6
BYLAYER
 10
404.7201693382
 20
26.4217977015
 11
404.215708549
 21
26.0521626339
  0
LINE
  8
AP0059
 62
7
  6
BYLAYER
 10
407.4366823936
 20
22.3023057739
 11
408.077916116
 21
23.1519855947
  0
LINE
  8
AP0059
 62
7
  6
BYLAYER
 10
408.077916116
 20
23.1519855947
 11
408.2722619814
 21
24.0784770533
  0
LINE
  8
AP0059
 62
7
  6
BYLAYER
 10
408.2722619814
 20
24.0784770533
 11
408.175020882
 21
24.958798708
  0
LINE
  8
AP0059
 62
7
  6
BYLAYER
 10
408.175020882
 20
24.958798708
 11
407.8806385459
 21
25.6893376593
  0
LINE
  8
AP0059
 62
7
  6
BYLAYER
 10
407.1348610318
 20
26.4876749983
 11
406.1091007898
 21
26.8092529642
  0
LINE
  8
AP0059
 62
7
  6
BYLAYER
 10
406.1091007898
 20
26.8092529642
 11
405.1293477489
 21
26.858236036
  0
LINE
  8
AP0059
 62
7
  6
BYLAYER
 10
402.9449954151
 20
25.7520474169
 11
402.5460930415
 21
24.9386356314
  0
LINE
  8
AP0059
 62
7
  6
BYLAYER
 10
402.5460930415
 20
24.9386356314
 11
402.449069827
 21
24.1768012081
  0
LINE
  8
AP0059
 62
7
  6
BYLAYER
 10
402.449069827
 20
24.1768012081
 11
402.4826926818
 21
23.7170140475
  0
LINE
  8
AP0059
 62
7
  6
BYLAYER
 10
402.4826926818
 20
23.7170140475
 11
402.5979113446
 21
23.2183159003
  0
LINE
  8
AP0059
 62
7
  6
BYLAYER
 10
402.5979113446
 20
23.2183159003
 11
403.0501953175
 21
22.4834736338
  0
LINE
  8
AP0059
 62
7
  6
BYLAYER
 10
403.0501953175
 20
22.4834736338
 11
403.3536634008
 21
22.2180404509
  0
LINE
  8
AP0059
 62
7
  6
BYLAYER
 10
403.3536634008
 20
22.2180404509
 11
404.0237611112
 21
21.8262117352
  0
LINE
  8
AP0059
 62
7
  6
BYLAYER
 10
404.0237611112
 20
21.8262117352
 11
404.8509084926
 21
21.6348452378
  0
LINE
  8
AP0059
 62
7
  6
BYLAYER
 10
404.8509084926
 20
21.6348452378
 11
405.5572410059
 21
21.6220847513
  0
LINE
  8
AP0059
 62
7
  6
BYLAYER
 10
405.5572410059
 20
21.6220847513
 11
406.5429209518
 21
21.7886789994
  0
LINE
  8
AP0059
 62
7
  6
BYLAYER
 10
406.5429209518
 20
21.7886789994
 11
407.0127305552
 21
22.005593861
  0
LINE
  8
AP0059
 62
7
  6
BYLAYER
 10
407.0127305552
 20
22.005593861
 11
407.4366823936
 21
22.3023057739
  0
LINE
  8
AP0059
 62
7
  6
BYLAYER
 10
407.1000915804
 20
25.2124337117
 11
407.2162487591
 21
24.7266369991
  0
LINE
  8
AP0059
 62
7
  6
BYLAYER
 10
407.2162487591
 20
24.7266369991
 11
407.241211808
 21
24.2277705017
  0
LINE
  8
AP0059
 62
7
  6
BYLAYER
 10
407.241211808
 20
24.2277705017
 11
407.0387487787
 21
23.2431072916
  0
LINE
  8
AP0059
 62
7
  6
BYLAYER
 10
407.0387487787
 20
23.2431072916
 11
406.8571557231
 21
22.8531095387
  0
LINE
  8
AP0059
 62
7
  6
BYLAYER
 10
403.6258005704
 20
23.2399289081
 11
403.7997298167
 21
22.8482407117
  0
LINE
  8
AP0059
 62
7
  6
BYLAYER
 10
335.8190534835
 20
36.7450048113
 11
337.6089806413
 21
38.5851461734
  0
LINE
  8
AP0059
 62
7
  6
BYLAYER
 10
339.1032888898
 20
47.6087321185
 11
338.1025676268
 21
45.9360463973
  0
LINE
  8
AP0059
 62
7
  6
BYLAYER
 10
338.1025676268
 20
45.9360463973
 11
336.6577474702
 21
44.3762156809
  0
LINE
  8
AP0059
 62
7
  6
BYLAYER
 10
336.6577474702
 20
44.3762156809
 11
335.0485716461
 21
43.0865480711
  0
LINE
  8
AP0059
 62
7
  6
BYLAYER
 10
339.8170654134
 20
43.8962984501
 11
337.9891544359
 21
41.0129554933
  0
LINE
  8
AP0059
 62
7
  6
BYLAYER
 10
337.9891544359
 20
41.0129554933
 11
336.3230986887
 21
39.3149523684
  0
LINE
  8
AP0059
 62
7
  6
BYLAYER
 10
336.3230986887
 20
39.3149523684
 11
334.8337793928
 21
38.1591785398
  0
LINE
  8
AP0059
 62
7
  6
BYLAYER
 10
364.8609639821
 20
25.9917733473
 11
365.2201213183
 21
25.2562954041
  0
LINE
  8
AP0059
 62
7
  6
BYLAYER
 10
365.2201213183
 20
25.2562954041
 11
365.3398977751
 21
24.4178493963
  0
LINE
  8
AP0059
 62
7
  6
BYLAYER
 10
365.3398977751
 20
24.4178493963
 11
365.1638639302
 21
23.3861345494
  0
LINE
  8
AP0059
 62
7
  6
BYLAYER
 10
362.3449445441
 20
22.1415792804
 11
363.1150779225
 21
22.2114040057
  0
LINE
  8
AP0059
 62
7
  6
BYLAYER
 10
363.1150779225
 20
22.2114040057
 11
363.7192886269
 21
22.5413202136
  0
LINE
  8
AP0059
 62
7
  6
BYLAYER
 10
363.7192886269
 20
22.5413202136
 11
364.1461455317
 21
23.2945971044
  0
LINE
  8
AP0059
 62
7
  6
BYLAYER
 10
364.1461455317
 20
23.2945971044
 11
364.2846909811
 21
24.2488117977
  0
LINE
  8
AP0059
 62
7
  6
BYLAYER
 10
364.2846909811
 20
24.2488117977
 11
364.2636588567
 21
24.6239056974
  0
LINE
  8
AP0059
 62
7
  6
BYLAYER
 10
364.2636588567
 20
24.6239056974
 11
364.1105080073
 21
25.3158306936
  0
LINE
  8
AP0059
 62
7
  6
BYLAYER
 10
364.1105080073
 20
25.3158306936
 11
363.8537342492
 21
25.8938791353
  0
LINE
  8
AP0059
 62
7
  6
BYLAYER
 10
378.37894687
 20
26.7777875882
 11
377.8190746155
 21
26.7037312526
  0
LINE
  8
AP0059
 62
7
  6
BYLAYER
 10
377.8190746155
 20
26.7037312526
 11
377.1133991534
 21
26.4833939636
  0
LINE
  8
AP0059
 62
7
  6
BYLAYER
 10
377.1133991534
 20
26.4833939636
 11
376.2780353728
 21
25.851924473
  0
LINE
  8
AP0059
 62
7
  6
BYLAYER
 10
376.2780353728
 20
25.851924473
 11
375.8086060473
 21
24.8405134139
  0
LINE
  8
AP0059
 62
7
  6
BYLAYER
 10
375.8086060473
 20
24.8405134139
 11
375.7288113921
 21
24.1396473868
  0
LINE
  8
AP0059
 62
7
  6
BYLAYER
 10
375.7288113921
 20
24.1396473868
 11
376.0127476714
 21
22.9188306078
  0
LINE
  8
AP0059
 62
7
  6
BYLAYER
 10
376.0127476714
 20
22.9188306078
 11
376.6917116132
 21
22.1425618211
  0
LINE
  8
AP0059
 62
7
  6
BYLAYER
 10
376.6917116132
 20
22.1425618211
 11
377.6621671073
 21
21.7534092465
  0
LINE
  8
AP0059
 62
7
  6
BYLAYER
 10
377.6621671073
 20
21.7534092465
 11
378.4475999537
 21
21.6958702011
  0
LINE
  8
AP0059
 62
7
  6
BYLAYER
 10
379.1872097955
 20
22.0334145294
 11
378.6589624568
 21
21.9634900922
  0
LINE
  8
AP0059
 62
7
  6
BYLAYER
 10
378.6589624568
 20
21.9634900922
 11
378.0808079456
 21
22.0697514529
  0
LINE
  8
AP0059
 62
7
  6
BYLAYER
 10
378.0808079456
 20
22.0697514529
 11
377.4608436834
 21
22.4278389822
  0
LINE
  8
AP0059
 62
7
  6
BYLAYER
 10
376.7637022893
 20
24.7042008677
 11
376.7280478765
 21
24.2193958398
  0
LINE
  8
AP0059
 62
7
  6
BYLAYER
 10
376.7280478765
 20
24.2193958398
 11
376.8196370072
 21
23.5001774718
  0
LINE
  8
AP0059
 62
7
  6
BYLAYER
 10
376.8196370072
 20
23.5001774718
 11
377.0368119637
 21
22.9566147533
  0
LINE
  8
AP0059
 62
7
  6
BYLAYER
 10
378.5038573418
 20
26.4291189177
 11
377.7044938901
 21
26.1513281993
  0
LINE
  8
AP0059
 62
7
  6
BYLAYER
 10
377.7044938901
 20
26.1513281993
 11
377.1745773938
 21
25.6957201472
  0
LINE
  8
AP0059
 62
7
  6
BYLAYER
 10
377.1745773938
 20
25.6957201472
 11
376.8908277126
 21
25.1965417942
  0
LINE
  8
AP0059
 62
7
  6
BYLAYER
 10
381.4584826486
 20
26.232694817
 11
381.748033386
 21
26.2257023733
  0
LINE
  8
AP0059
 62
7
  6
BYLAYER
 10
381.748033386
 20
26.2257023733
 11
383.0511706233
 21
26.3862686341
  0
LINE
  8
AP0059
 62
7
  6
BYLAYER
 10
383.9703591331
 20
26.3892232879
 11
385.2731785321
 21
26.232694817
  0
LINE
  8
AP0059
 62
7
  6
BYLAYER
 10
385.2731785321
 20
26.232694817
 11
385.5627292694
 21
26.2257023733
  0
LINE
  8
AP0059
 62
7
  6
BYLAYER
 10
363.0179140318
 20
21.8098127032
 11
363.6666728316
 21
21.909684572
  0
LINE
  8
AP0059
 62
7
  6
BYLAYER
 10
363.6666728316
 20
21.909684572
 11
364.5149728995
 21
22.3983119033
  0
LINE
  8
AP0059
 62
7
  6
BYLAYER
 10
364.5149728995
 20
22.3983119033
 11
365.1638639302
 21
23.3861345494
  0
LINE
  8
AP0059
 62
7
  6
BYLAYER
 10
402.9755161669
 20
25.7946357309
 11
403.5769697285
 21
26.4066628128
  0
LINE
  8
AP0059
 62
7
  6
BYLAYER
 10
403.5769697285
 20
26.4066628128
 11
404.3504598712
 21
26.7505215361
  0
LINE
  8
AP0059
 62
7
  6
BYLAYER
 10
404.3504598712
 20
26.7505215361
 11
405.1293477489
 21
26.858236036
  0
LINE
  8
AP0059
 62
7
  6
BYLAYER
 10
406.9118739241
 20
25.6155215673
 11
406.5173755069
 21
26.0859196437
  0
LINE
  8
AP0059
 62
7
  6
BYLAYER
 10
406.5173755069
 20
26.0859196437
 11
406.098807797
 21
26.3723040486
  0
LINE
  8
AP0059
 62
7
  6
BYLAYER
 10
407.1348610318
 20
26.4876749983
 11
407.5982144957
 21
26.0645207201
  0
LINE
  8
AP0059
 62
7
  6
BYLAYER
 10
407.5982144957
 20
26.0645207201
 11
407.8806385459
 21
25.6893376593
  0
LINE
  8
AP0059
 62
7
  6
BYLAYER
 10
355.481941097
 20
46.0844962012
 11
355.481941097
 21
44.8604109761
  0
LINE
  8
AP0059
 62
7
  6
BYLAYER
 10
396.0263581393
 20
38.1824178288
 11
390.5186151254
 21
38.1824178288
  0
ARC
  8
AP0059
 62
7
  6
BYLAYER
 10
406.6999770297
 20
47.3656915494
 40
0.7986844426
 50
90.0
 51
180.0
  0
ARC
  8
AP0059
 62
7
  6
BYLAYER
 10
414.0350949502
 20
47.3656915494
 40
0.7986844426
 50
0.0
 51
90.0
  0
ARC
  8
AP0059
 62
7
  6
BYLAYER
 10
414.0350949502
 20
31.6619580398
 40
0.7986844426
 50
270.0
 51
360.0
  0
ARC
  8
AP0059
 62
7
  6
BYLAYER
 10
406.6999770297
 20
31.6619580398
 40
0.7986844426
 50
180.0
 51
270.0
  0
LINE
  8
AP0059
 62
7
  6
BYLAYER
 10
368.2624895469
 20
45.119790897
 11
370.2432269645
 21
44.8410500265
  0
ENDBLK
  8
0
  6
BYBLOCK
 62
0
  0
BLOCK
  8
0
  2
_FILLED
 70
64
 10
0.0
 20
0.0
  0
SOLID
  8
0
  6
BYBLOCK
 62
0
 10
0.0
 20
0.0
 11
-1.0
 21
0.2142857143
 12
-1.0
 22
-0.2142857143
 13
-1.0
 23
-0.2142857143
  0
ENDBLK
  8
0
  6
BYBLOCK
 62
0
  0
BLOCK
  8
AP0054
 62
3
  6
BYLAYER
  2
*D0
 70
65
 10
0.0
 20
0.0
  0
TEXT
  8
AP0054
 62
3
  6
BYLAYER
 10
71.2803583645
 20
250.3459087548
  7
STANDARD
 40
7.0
  1
39,18
 50
90.0
 41
0.85
 72
1
 11
71.2803583645
 21
265.2209087548
  0
LINE
  8
AP0054
 62
3
  6
BYLAYER
 10
93.3640014849
 20
284.8101370344
 11
70.0303583645
 21
284.8101370344
  0
LINE
  8
AP0054
 62
3
  6
BYLAYER
 10
93.3640014849
 20
245.6316804752
 11
70.0303583645
 21
245.6316804752
  0
LINE
  8
AP0054
 62
3
  6
BYLAYER
 10
73.0303583645
 20
284.8101370344
 11
73.0303583645
 21
265.2209087548
  0
LINE
  8
AP0054
 62
3
  6
BYLAYER
 10
73.0303583645
 20
245.6316804752
 11
73.0303583645
 21
265.2209087548
  0
INSERT
  8
AP0054
 62
3
  6
BYLAYER
  2
_FILLED
 10
73.0303583645
 20
284.8101370344
 41
7.0
 42
7.0
 43
7.0
 50
90.0
  0
INSERT
  8
AP0054
 62
3
  6
BYLAYER
  2
_FILLED
 10
73.0303583645
 20
245.6316804752
 41
7.0
 42
7.0
 43
7.0
 50
270.0
  0
ENDBLK
  8
0
  6
BYBLOCK
 62
0
  0
BLOCK
  8
AP0054
 62
3
  6
BYLAYER
  2
*D1
 70
65
 10
0.0
 20
0.0
  0
TEXT
  8
AP0054
 62
3
  6
BYLAYER
 10
182.5390014849
 20
299.4831341515
  7
STANDARD
 40
7.0
  1
205,1
 41
0.85
 72
1
 11
197.4140014849
 21
299.4831341515
  0
LINE
  8
AP0054
 62
3
  6
BYLAYER
 10
94.8640014849
 20
286.3144457176
 11
94.8640014849
 21
300.7331341515
  0
LINE
  8
AP0054
 62
3
  6
BYLAYER
 10
299.9640014849
 20
286.3144457176
 11
299.9640014849
 21
300.7331341515
  0
LINE
  8
AP0054
 62
3
  6
BYLAYER
 10
94.8640014849
 20
297.7331341515
 11
197.4140014849
 21
297.7331341515
  0
LINE
  8
AP0054
 62
3
  6
BYLAYER
 10
299.9640014849
 20
297.7331341515
 11
197.4140014849
 21
297.7331341515
  0
INSERT
  8
AP0054
 62
3
  6
BYLAYER
  2
_FILLED
 10
94.8640014849
 20
297.7331341515
 41
7.0
 42
7.0
 43
7.0
 50
180.0
  0
INSERT
  8
AP0054
 62
3
  6
BYLAYER
  2
_FILLED
 10
299.9640014849
 20
297.7331341515
 41
7.0
 42
7.0
 43
7.0
  0
ENDBLK
  8
0
  6
BYBLOCK
 62
0
  0
BLOCK
  8
AP0054
 62
3
  6
BYLAYER
  2
*D2
 70
65
 10
0.0
 20
0.0
  0
TEXT
  8
AP0054
 62
3
  6
BYLAYER
 10
375.2119804168
 20
299.3523108193
  7
STANDARD
 40
7.0
  1
8,8
 41
0.85
 72
2
 11
393.0619804168
 21
299.3523108193
  0
LINE
  8
AP0054
 62
3
  6
BYLAYER
 10
412.3141279842
 20
278.5022021507
 11
412.3141279842
 21
300.6023108193
  0
LINE
  8
AP0054
 62
3
  6
BYLAYER
 10
403.514693909
 20
285.5709087424
 11
403.514693909
 21
300.6023108193
  0
LINE
  8
AP0054
 62
3
  6
BYLAYER
 10
412.3141279842
 20
297.6023108193
 11
422.3141279842
 21
297.6023108193
  0
LINE
  8
AP0054
 62
3
  6
BYLAYER
 10
422.3141279842
 20
297.6023108193
 11
407.9144109466
 21
297.6023108193
  0
LINE
  8
AP0054
 62
3
  6
BYLAYER
 10
403.514693909
 20
297.6023108193
 11
375.2119804168
 21
297.6023108193
  0
LINE
  8
AP0054
 62
3
  6
BYLAYER
 10
375.2119804168
 20
297.6023108193
 11
407.9144109466
 21
297.6023108193
  0
INSERT
  8
AP0054
 62
3
  6
BYLAYER
  2
_FILLED
 10
412.3141279842
 20
297.6023108193
 41
7.0
 42
7.0
 43
7.0
 50
180.0
  0
INSERT
  8
AP0054
 62
3
  6
BYLAYER
  2
_FILLED
 10
403.514693909
 20
297.6023108193
 41
7.0
 42
7.0
 43
7.0
 50
0.0
  0
ENDBLK
  8
0
  6
BYBLOCK
 62
0
  0
ENDSEC
  0
SECTION
  2
ENTITIES
  0
TEXT
  8
AP0059
 62
7
  6
BYLAYER
 10
572.999999691
 20
349.999989553
  7
TEXTSTYLE_2
 40
5.00002
  1
D
 41
0.9047619048
 72
0
  0
TEXT
  8
AP0059
 62
7
  6
BYLAYER
 10
573.0000004115
 20
254.9999893556
  7
TEXTSTYLE_2
 40
5.00002
  1
C
 50
180.0
 41
0.8333333333
 71
2
 72
2
 11
577.1666837448
 21
254.9999893556
  0
TEXT
  8
AP0059
 62
7
  6
BYLAYER
 10
572.9999993041
 20
159.9999895884
  7
TEXTSTYLE_2
 40
5.00002
  1
B
 41
0.7857142857
 72
0
  0
TEXT
  8
AP0059
 62
7
  6
BYLAYER
 10
18.476172381
 20
349.99999
  7
TEXTSTYLE_2
 40
5.00002
  1
D
 41
0.9047619048
 72
2
 11
23.0
 21
349.99999
  0
TEXT
  8
AP0059
 62
7
  6
BYLAYER
 10
18.8333159462
 20
254.9999898026
  7
TEXTSTYLE_2
 40
5.00002
  1
C
 41
0.8333333333
 72
2
 11
22.9999992795
 21
254.9999898026
  0
TEXT
  8
AP0059
 62
7
  6
BYLAYER
 10
18.7142690482
 20
64.9999901513
  7
TEXTSTYLE_2
 40
5.00002
  1
A
 41
0.8571428571
 72
2
 11
23.0000004768
 21
64.9999901513
  0
TEXT
  8
AP0059
 62
7
  6
BYLAYER
 10
19.0714132441
 20
159.9999900354
  7
TEXTSTYLE_2
 40
5.00002
  1
B
 41
0.7857142857
 72
2
 11
23.0000003869
 21
159.9999900354
  0
TEXT
  8
AP0059
 62
7
  6
BYLAYER
 10
526.365869029
 20
398.6585574213
  7
TEXTSTYLE_2
 40
5.00002
  1
1
 41
0.5714285714
 72
0
  0
TEXT
  8
AP0059
 62
7
  6
BYLAYER
 10
433.0388762387
 20
398.6585574213
  7
TEXTSTYLE_2
 40
5.00002
  1
2
 41
0.7857142857
 72
2
 11
436.9674633816
 21
398.6585574213
  0
TEXT
  8
AP0059
 62
7
  6
BYLAYER
 10
341.6992023623
 20
398.6585574213
  7
TEXTSTYLE_2
 40
5.00002
  1
3
 41
0.7142857143
 72
0
  0
TEXT
  8
AP0059
 62
7
  6
BYLAYER
 10
248.372209572
 20
398.6585574213
  7
TEXTSTYLE_2
 40
5.00002
  1
4
 41
0.7857142857
 72
2
 11
252.3007967149
 21
398.6585574213
  0
TEXT
  8
AP0059
 62
7
  6
BYLAYER
 10
157.0325356957
 20
398.6585574213
  7
TEXTSTYLE_2
 40
5.00002
  1
5
 41
0.7142857143
 72
0
  0
TEXT
  8
AP0059
 62
7
  6
BYLAYER
 10
63.7055429054
 20
398.6585574213
  7
TEXTSTYLE_2
 40
5.00002
  1
6
 41
0.7857142857
 72
2
 11
67.6341300482
 21
398.6585574213
  0
TEXT
  8
AP0059
 62
7
  6
BYLAYER
 10
157.0325366451
 20
16.6585561499
  7
TEXTSTYLE_2
 40
5.00002
  1
5
 41
0.7142857143
 72
0
  0
TEXT
  8
AP0059
 62
7
  6
BYLAYER
 10
63.7055438548
 20
16.6585561499
  7
TEXTSTYLE_2
 40
5.00002
  1
6
 41
0.7857142857
 72
2
 11
67.6341309977
 21
16.6585561499
  0
INSERT
  8
AP0059
 62
7
  6
BYLAYER
  2
SYMBOL_283_BL0
 10
374.7813345799
 20
34.864330558
  0
DIMENSION
  8
AP0054
 62
3
  6
BYLAYER
  2
*D0
 10
73.0303583645
 20
245.6316804752
 11
74.4454534044
 21
251.9227083838
 70
128
 13
93.3640014849
 23
284.8101370344
 14
93.3640014849
 24
245.6316804752
 50
270.0
  0
DIMENSION
  8
AP0054
 62
3
  6
BYLAYER
  2
*D1
 10
299.9640014849
 20
297.7331341515
 11
182.5390014849
 21
302.9831341515
 70
128
 13
94.8640014849
 23
286.3144457176
 14
299.9640014849
 24
286.3144457176
  0
DIMENSION
  8
AP0054
 62
3
  6
BYLAYER
  2
*D2
 10
403.514693909
 20
297.6023108193
 11
366.2869804168
 21
302.8523108193
 70
128
 13
412.3141279842
 23
278.5022021507
 14
403.514693909
 24
285.5709087424
 50
180.0
  0
LINE
  8
AP0059
 62
3
  6
BYLAYER
 10
205.599999691
 20
124.4999990927
 11
579.999999691
 21
124.4999990927
  0
LINE
  8
AP0059
 62
3
  6
BYLAYER
 10
205.599999691
 20
124.4999990927
 11
205.599999691
 21
13.9999990927
  0
LINE
  8
AP0059
 62
3
  6
BYLAYER
 10
419.199999691
 20
107.4999990927
 11
579.999999691
 21
107.4999990927
  0
LINE
  8
AP0059
 62
3
  6
BYLAYER
 10
205.599999691
 20
90.4999990927
 11
579.999999691
 21
90.4999990927
  0
LINE
  8
AP0059
 62
3
  6
BYLAYER
 10
205.599999691
 20
81.9999990927
 11
314.799999691
 21
81.9999990927
  0
LINE
  8
AP0059
 62
3
  6
BYLAYER
 10
330.799999691
 20
81.9999990927
 11
419.199999691
 21
81.9999990927
  0
LINE
  8
AP0059
 62
3
  6
BYLAYER
 10
205.599999691
 20
73.4999990927
 11
314.799999691
 21
73.4999990927
  0
LINE
  8
AP0059
 62
3
  6
BYLAYER
 10
330.799999691
 20
73.4999990927
 11
419.199999691
 21
73.4999990927
  0
LINE
  8
AP0059
 62
3
  6
BYLAYER
 10
205.599999691
 20
64.9999990927
 11
314.799999691
 21
64.9999990927
  0
LINE
  8
AP0059
 62
3
  6
BYLAYER
 10
330.799999691
 20
64.9999990927
 11
579.999999691
 21
64.9999990927
  0
LINE
  8
AP0059
 62
3
  6
BYLAYER
 10
205.599999691
 20
56.4999990927
 11
314.799999691
 21
56.4999990927
  0
LINE
  8
AP0059
 62
3
  6
BYLAYER
 10
330.799999691
 20
56.4999990927
 11
419.199999691
 21
56.4999990927
  0
LINE
  8
AP0059
 62
3
  6
BYLAYER
 10
205.599999691
 20
47.9999990927
 11
314.799999691
 21
47.9999990927
  0
LINE
  8
AP0059
 62
3
  6
BYLAYER
 10
419.199999691
 20
47.9999990927
 11
579.999999691
 21
47.9999990927
  0
LINE
  8
AP0059
 62
3
  6
BYLAYER
 10
205.599999691
 20
39.4999990927
 11
314.799999691
 21
39.4999990927
  0
LINE
  8
AP0059
 62
3
  6
BYLAYER
 10
205.599999691
 20
30.9999990927
 11
314.799999691
 21
30.9999990927
  0
LINE
  8
AP0059
 62
3
  6
BYLAYER
 10
419.199999691
 20
30.9999990927
 11
553.199999691
 21
30.9999990927
  0
LINE
  8
AP0059
 62
3
  6
BYLAYER
 10
205.599999691
 20
22.4999990927
 11
314.799999691
 21
22.4999990927
  0
LINE
  8
AP0059
 62
3
  6
BYLAYER
 10
205.599999691
 20
13.9999990927
 11
579.999999691
 21
13.9999990927
  0
LINE
  8
AP0059
 62
3
  6
BYLAYER
 10
221.199999691
 20
90.4999990927
 11
221.199999691
 21
13.9999990927
  0
LINE
  8
AP0059
 62
3
  6
BYLAYER
 10
273.199999691
 20
90.4999990927
 11
273.199999691
 21
13.9999990927
  0
LINE
  8
AP0059
 62
3
  6
BYLAYER
 10
299.199999691
 20
90.4999990927
 11
299.199999691
 21
13.9999990927
  0
LINE
  8
AP0059
 62
3
  6
BYLAYER
 10
314.799999691
 20
90.4999990927
 11
314.799999691
 21
13.9999990927
  0
LINE
  8
AP0059
 62
3
  6
BYLAYER
 10
330.799999691
 20
124.4999990927
 11
330.799999691
 21
13.9999990927
  0
LINE
  8
AP0059
 62
3
  6
BYLAYER
 10
358.799999691
 20
90.4999990927
 11
358.799999691
 21
56.4999990927
  0
LINE
  8
AP0059
 62
3
  6
BYLAYER
 10
389.199999691
 20
124.4999990927
 11
389.199999691
 21
56.4999990927
  0
LINE
  8
AP0059
 62
3
  6
BYLAYER
 10
419.199999691
 20
124.4999990927
 11
419.199999691
 21
13.9999990927
  0
LINE
  8
AP0059
 62
3
  6
BYLAYER
 10
459.199999691
 20
124.4999990927
 11
459.199999691
 21
107.4999990927
  0
LINE
  8
AP0059
 62
3
  6
BYLAYER
 10
529.199999691
 20
124.4999990927
 11
529.199999691
 21
90.4999990927
  0
LINE
  8
AP0059
 62
3
  6
BYLAYER
 10
553.199999691
 20
64.9999990927
 11
553.199999691
 21
13.9999990927
  0
LINE
  8
AP0059
 62
3
  6
BYLAYER
 10
579.999999691
 20
124.4999990927
 11
579.999999691
 21
13.9999990927
  0
TEXT
  8
AP0059
 62
3
  6
BYLAYER
 10
207.474999691
 20
120.6999990927
  7
TEXTSTYLE_3
 40
2.4
  1
THE TECHNICAL INFORMATION AND DESIGN DATA DISCLOSED ON THIS
 41
0.786117837
 72
0
  0
TEXT
  8
AP0059
 62
3
  6
BYLAYER
 10
207.474999691
 20
117.0999990927
  7
TEXTSTYLE_3
 40
2.4
  1
DOCUMENT HEREIN CONSTITUTES TRADE SECRETS AND IS THE PROPERTY
 41
0.7903981265
 72
0
  0
TEXT
  8
AP0059
 62
3
  6
BYLAYER
 10
207.474999691
 20
113.4999990927
  7
TEXTSTYLE_3
 40
2.4
  1
OF "DENGTEC" AND ARE TO BE MAINTAINED IN STRICT CONFIDENCE BY
 41
0.7825917252
 72
0
  0
TEXT
  8
AP0059
 62
3
  6
BYLAYER
 10
207.474999691
 20
109.8999990927
  7
TEXTSTYLE_3
 40
2.4
  1
THE RECIPIENT HEREOF AND IS LOANED UPON EXPRESS CONDITIONS THAT
 41
0.7792894936
 72
0
  0
TEXT
  8
AP0059
 62
3
  6
BYLAYER
 10
207.474999691
 20
106.2999990927
  7
TEXTSTYLE_3
 40
2.4
  1
IT WILL NOT BE USED DIRECTLY OR INDIRECTLY IN ANY MANNER 
 41
0.7848788638
 72
0
  0
TEXT
  8
AP0059
 62
3
  6
BYLAYER
 10
207.474999691
 20
102.6999990927
  7
TEXTSTYLE_3
 40
2.4
  1
DETRIMENTAL TO OUR INTRESTS AND SHALL BE USED ONLY IN CONNECTION 
 41
0.7805860806
 72
0
  0
TEXT
  8
AP0059
 62
3
  6
BYLAYER
 10
207.474999691
 20
99.0999990927
  7
TEXTSTYLE_3
 40
2.4
  1
WITH MATERIALS AND/OR TECHNICAL INFORMATION AND/OR DESIGN DATA
 41
0.7976190476
 72
0
  0
TEXT
  8
AP0059
 62
3
  6
BYLAYER
 10
207.474999691
 20
95.4999990927
  7
TEXTSTYLE_3
 40
2.4
  1
FURNISHED BY "DENGTEC" OR ITS AFFILIATES OR AGENTS. ALL SAID
 41
0.7674603175
 72
0
  0
TEXT
  8
AP0059
 62
3
  6
BYLAYER
 10
207.474999691
 20
91.8999990927
  7
TEXTSTYLE_3
 40
2.4
  1
MATERIALS ARE SUBJECT TO RETURN UPON DEMAND.
 41
0.7857142857
 72
0
  0
TEXT
  8
AP0059
 62
3
  6
BYLAYER
 10
332.674999691
 20
114.4999990927
  7
TEXTSTYLE_4
 40
4.0
  1
General Tolerance
 41
0.6932773109
 72
0
  0
TEXT
  8
AP0059
 62
3
  6
BYLAYER
 10
332.674999691
 20
108.4999990927
  7
TEXTSTYLE_4
 40
4.0
  1
DIN ISO 2768
 41
0.7718253968
 72
0
  0
TEXT
  8
AP0059
 62
3
  6
BYLAYER
 10
332.674999691
 20
102.4999990927
  7
TEXTSTYLE_4
 40
4.0
  1
Edges of workpieces
 41
0.7117794486
 72
0
  0
TEXT
  8
AP0059
 62
3
  6
BYLAYER
 10
332.674999691
 20
96.4999990927
  7
TEXTSTYLE_4
 40
4.0
  1
DIN 6784
 41
0.7827380952
 72
0
  0
TEXT
  8
AP0059
 62
3
  6
BYLAYER
 10
394.1285711196
 20
112.9999990927
  7
TEXTSTYLE_5
 40
6.0
  1
Scale
 41
0.6714285714
 72
1
 11
404.199999691
 21
112.9999990927
  0
TEXT
  8
AP0059
 62
3
  6
BYLAYER
 10
421.074999691
 20
117.2499990927
  7
TEXTSTYLE_5
 40
5.0
  1
Drawing
 41
0.7448979592
 72
0
  0
TEXT
  8
AP0059
 62
3
  6
BYLAYER
 10
421.074999691
 20
109.7499990927
  7
TEXTSTYLE_5
 40
5.0
  1
Type 
 41
0.7380952381
 72
0
  0
TEXT
  8
AP0059
 62
3
  6
BYLAYER
 10
461.074999691
 20
111.9999990927
  7
TEXTSTYLE_5
 40
8.0
  1
ASSEM
 41
0.8
 72
0
  0
TEXT
  8
AP0059
 62
3
  6
BYLAYER
 10
493.074999691
 20
111.9999990927
  7
TEXTSTYLE_5
 40
8.0
  1
 
 41
0.7857142857
 72
0
  0
TEXT
  8
AP0059
 62
3
  6
BYLAYER
 10
531.074999691
 20
117.9499990927
  7
TEXTSTYLE_5
 40
4.6
  1
Weight 
 41
0.768707483
 72
0
  0
TEXT
  8
AP0059
 62
3
  6
BYLAYER
 10
550.1964282624
 20
109.4499990927
  7
TEXTSTYLE_5
 40
4.6
  1
0,000
 41
0.7428571429
 72
2
 11
567.2821425482
 21
109.4499990927
  0
TEXT
  8
AP0059
 62
3
  6
BYLAYER
 10
567.2821425482
 20
109.4499990927
  7
TEXTSTYLE_5
 40
4.6
  1
 KG
 41
0.7857142857
 72
2
 11
578.124999691
 21
109.4499990927
  0
TEXT
  8
AP0059
 62
3
  6
BYLAYER
 10
393.2714282624
 20
95.9999990927
  7
TEXTSTYLE_5
 40
6.0
  1
0,500
 41
0.7285714286
 72
1
 11
404.199999691
 21
95.9999990927
  0
TEXT
  8
AP0059
 62
3
  6
BYLAYER
 10
421.074999691
 20
100.9499990927
  7
TEXTSTYLE_5
 40
4.6
  1
Material:
 41
0.6216931217
 72
0
  0
TEXT
  8
AP0059
 62
3
  6
BYLAYER
 10
421.074999691
 20
92.4499990927
  7
TEXTSTYLE_5
 40
4.6
  1
Color:
 41
0.626984127
 72
0
  0
TEXT
  8
AP0059
 62
3
  6
BYLAYER
 10
211.5928568339
 20
83.9499990927
  7
TEXTSTYLE_5
 40
4.6
  1
8
 41
0.7857142857
 72
1
 11
213.399999691
 21
83.9499990927
  0
TEXT
  8
AP0059
 62
3
  6
BYLAYER
 10
326.424999691
 20
27.4880943308
  7
TEXTSTYLE_2
 40
10.0
  1
CAD-A4
 50
90.0
 41
0.8253968254
 72
2
 11
326.424999691
 21
77.0119038546
  0
TEXT
  8
AP0059
 62
3
  6
BYLAYER
 10
366.3333330243
 20
83.9499990927
  7
TEXTSTYLE_5
 40
4.6
  1
DATE
 41
0.8333333333
 72
1
 11
373.999999691
 21
83.9499990927
  0
TEXT
  8
AP0059
 62
3
  6
BYLAYER
 10
396.8071425482
 20
83.9499990927
  7
TEXTSTYLE_5
 40
4.6
  1
NAME
 41
0.8035714286
 72
1
 11
404.199999691
 21
83.9499990927
  0
TEXT
  8
AP0059
 62
3
  6
BYLAYER
 10
421.074999691
 20
83.9499990927
  7
TEXTSTYLE_5
 40
4.6
  1
Part Name:
 41
0.7
 72
0
  0
TEXT
  8
AP0059
 62
3
  6
BYLAYER
 10
211.5928568339
 20
75.4499990927
  7
TEXTSTYLE_5
 40
4.6
  1
7
 41
0.7857142857
 72
1
 11
213.399999691
 21
75.4499990927
  0
TEXT
  8
AP0059
 62
3
  6
BYLAYER
 10
332.674999691
 20
75.6499990927
  7
TEXTSTYLE_6
 40
4.2
  1
DESIGNER
 41
0.7648809524
 72
0
  0
TEXT
  8
AP0059
 62
3
  6
BYLAYER
 10
359.0714282624
 20
75.5499990927
  7
TEXTSTYLE_5
 40
4.4
  1
07-Sep-20
 41
0.753968254
 72
1
 11
373.999999691
 21
75.5499990927
  0
TEXT
  8
AP0059
 62
3
  6
BYLAYER
 10
388.9761901672
 20
75.4499990927
  7
TEXTSTYLE_5
 40
4.6
  1
David Cao
 41
0.7354497354
 72
1
 11
404.199999691
 21
75.4499990927
  0
TEXT
  8
AP0059
 62
3
  6
BYLAYER
 10
483.8857139767
 20
69.4999990927
  7
TEXTSTYLE_5
 40
8.0
  1
AP005
 41
0.7857142857
 72
1
 11
499.599999691
 21
69.4999990927
  0
TEXT
  8
AP0059
 62
3
  6
BYLAYER
 10
211.5928568339
 20
66.9499990927
  7
TEXTSTYLE_5
 40
4.6
  1
6
 41
0.7857142857
 72
1
 11
213.399999691
 21
66.9499990927
  0
TEXT
  8
AP0059
 62
3
  6
BYLAYER
 10
332.674999691
 20
67.1499990927
  7
TEXTSTYLE_6
 40
4.2
  1
CHECKER
 41
0.7789115646
 72
0
  0
TEXT
  8
AP0059
 62
3
  6
BYLAYER
 10
211.7571425482
 20
58.4499990927
  7
TEXTSTYLE_5
 40
4.6
  1
5
 41
0.7142857143
 72
1
 11
213.399999691
 21
58.4499990927
  0
TEXT
  8
AP0059
 62
3
  6
BYLAYER
 10
332.674999691
 20
58.6499990927
  7
TEXTSTYLE_6
 40
4.2
  1
APPROVER
 41
0.7916666667
 72
0
  0
TEXT
  8
AP0059
 62
3
  6
BYLAYER
 10
421.074999691
 20
58.4499990927
  7
TEXTSTYLE_5
 40
4.6
  1
Drawing Number:
 41
0.7238095238
 72
0
  0
TEXT
  8
AP0059
 62
3
  6
BYLAYER
 10
555.074999691
 20
58.4499990927
  7
TEXTSTYLE_5
 40
4.6
  1
Rev:
 41
0.6428571429
 72
0
  0
TEXT
  8
AP0059
 62
3
  6
BYLAYER
 10
211.5928568339
 20
49.9499990927
  7
TEXTSTYLE_5
 40
4.6
  1
4
 41
0.7857142857
 72
1
 11
213.399999691
 21
49.9499990927
  0
TEXT
  8
AP0059
 62
3
  6
BYLAYER
 10
466.2714282624
 20
49.2499990927
  7
TEXTSTYLE_5
 40
6.0
  1
ap005.asm
 41
0.7380952381
 72
1
 11
486.199999691
 21
49.2499990927
  0
TEXT
  8
AP0059
 62
3
  6
BYLAYER
 10
569.1440473101
 20
49.9499990927
  7
TEXTSTYLE_8
 40
4.6
  1
A
 41
1.0
 72
2
 11
574.5107139767
 21
49.9499990927
  0
TEXT
  8
AP0059
 62
3
  6
BYLAYER
 10
574.5107139767
 20
49.9499990927
  7
TEXTSTYLE_5
 40
4.6
  1
0
 41
0.7857142857
 72
2
 11
578.124999691
 21
49.9499990927
  0
TEXT
  8
AP0059
 62
3
  6
BYLAYER
 10
211.7571425482
 20
41.4499990927
  7
TEXTSTYLE_5
 40
4.6
  1
3
 41
0.7142857143
 72
1
 11
213.399999691
 21
41.4499990927
  0
TEXT
  8
AP0059
 62
3
  6
BYLAYER
 10
421.074999691
 20
41.4499990927
  7
TEXTSTYLE_5
 40
4.6
  1
Part Number / CSG:
 41
0.7275132275
 72
0
  0
TEXT
  8
AP0059
 62
3
  6
BYLAYER
 10
555.074999691
 20
41.4499990927
  7
TEXTSTYLE_5
 40
4.6
  1
Sheet:
 41
0.6428571429
 72
0
  0
TEXT
  8
AP0059
 62
3
  6
BYLAYER
 10
211.5928568339
 20
32.9499990927
  7
TEXTSTYLE_5
 40
4.6
  1
2
 41
0.7857142857
 72
1
 11
213.399999691
 21
32.9499990927
  0
TEXT
  8
AP0059
 62
3
  6
BYLAYER
 10
565.1714282624
 20
32.7499990927
  7
TEXTSTYLE_5
 40
5.0
  1
1
 41
0.5714285714
 72
1
 11
566.599999691
 21
32.7499990927
  0
TEXT
  8
AP0059
 62
3
  6
BYLAYER
 10
212.0857139767
 20
24.4499990927
  7
TEXTSTYLE_5
 40
4.6
  1
1
 41
0.5714285714
 72
1
 11
213.399999691
 21
24.4499990927
  0
TEXT
  8
AP0059
 62
3
  6
BYLAYER
 10
421.074999691
 20
24.4499990927
  7
TEXTSTYLE_5
 40
4.6
  1
Project Number:
 41
0.680952381
 72
0
  0
TEXT
  8
AP0059
 62
3
  6
BYLAYER
 10
563.149999691
 20
24.4499990927
  7
TEXTSTYLE_5
 40
4.6
  1
OF
 41
0.75
 72
1
 11
566.599999691
 21
24.4499990927
  0
TEXT
  8
AP0059
 62
3
  6
BYLAYER
 10
208.6357139767
 20
15.9499990927
  7
TEXTSTYLE_5
 40
4.6
  1
No.
 41
0.6904761905
 72
1
 11
213.399999691
 21
15.9499990927
  0
TEXT
  8
AP0059
 62
3
  6
BYLAYER
 10
232.4690473101
 20
15.9499990927
  7
TEXTSTYLE_5
 40
4.6
  1
CONTENTS
 41
0.8005952381
 72
1
 11
247.199999691
 21
15.9499990927
  0
TEXT
  8
AP0059
 62
3
  6
BYLAYER
 10
278.5333330243
 20
15.9499990927
  7
TEXTSTYLE_5
 40
4.6
  1
DATE
 41
0.8333333333
 72
1
 11
286.199999691
 21
15.9499990927
  0
TEXT
  8
AP0059
 62
3
  6
BYLAYER
 10
299.6071425482
 20
15.9499990927
  7
TEXTSTYLE_5
 40
4.6
  1
NAME
 41
0.8035714286
 72
1
 11
306.999999691
 21
15.9499990927
  0
TEXT
  8
AP0059
 62
3
  6
BYLAYER
 10
565.1714282624
 20
15.7499990927
  7
TEXTSTYLE_5
 40
5.0
  1
1
 41
0.5714285714
 72
1
 11
566.599999691
 21
15.7499990927
  0
LINE
  8
AP0059
 62
7
  6
BYLAYER
 10
14.0000006067
 20
13.9999990927
 11
14.0000006067
 21
406.0000003641
  0
LINE
  8
AP0059
 62
7
  6
BYLAYER
 10
24.0000006067
 20
23.9999990927
 11
24.0000006067
 21
396.0000003641
  0
LINE
  8
AP0059
 62
7
  6
BYLAYER
 10
112.3333338214
 20
23.9999990927
 11
112.3333338214
 21
13.9999990927
  0
LINE
  8
AP0059
 62
7
  6
BYLAYER
 10
112.333332872
 20
396.0000003641
 11
112.333332872
 21
406.0000003641
  0
LINE
  8
AP0059
 62
7
  6
BYLAYER
 10
14.0000006067
 20
13.9999990927
 11
579.999999691
 21
13.9999990927
  0
LINE
  8
AP0059
 62
7
  6
BYLAYER
 10
24.0000006067
 20
23.9999990927
 11
205.599999691
 21
23.9999990927
  0
LINE
  8
AP0059
 62
3
  6
BYLAYER
 10
558.9933755672
 20
102.122412422
 11
568.9933755672
 21
104.622412422
  0
LINE
  8
AP0059
 62
3
  6
BYLAYER
 10
570.6039986105
 20
99.5528219353
 11
557.3015137013
 21
99.5528219353
  0
LINE
  8
AP0059
 62
3
  6
BYLAYER
 10
548.4331904285
 20
99.5528219353
 11
534.7275999161
 21
99.5528219353
  0
LINE
  8
AP0059
 62
7
  6
BYLAYER
 10
204.6666671547
 20
23.9999990927
 11
204.6666671547
 21
13.9999990927
  0
LINE
  8
AP0059
 62
7
  6
BYLAYER
 10
204.6666662053
 20
396.0000003641
 11
204.6666662053
 21
406.0000003641
  0
LINE
  8
AP0059
 62
7
  6
BYLAYER
 10
24.0000006067
 20
115.0000006292
 11
14.0000006067
 21
115.0000006292
  0
LINE
  8
AP0059
 62
3
  6
BYLAYER
 10
558.9933755672
 20
97.122412422
 11
568.9933755672
 21
94.622412422
  0
LINE
  8
AP0059
 62
7
  6
BYLAYER
 10
296.9999995386
 20
396.0000003641
 11
296.9999995386
 21
406.0000003641
  0
LINE
  8
AP0059
 62
7
  6
BYLAYER
 10
569.999999691
 20
209.999999553
 11
579.999999691
 21
209.999999553
  0
LINE
  8
AP0059
 62
7
  6
BYLAYER
 10
24.0000006067
 20
210.0000006292
 11
14.0000006067
 21
210.0000006292
  0
LINE
  8
AP0059
 62
7
  6
BYLAYER
 10
389.3333330107
 20
406.0000002786
 11
389.3333330107
 21
396.0000002786
  0
LINE
  8
AP0059
 62
7
  6
BYLAYER
 10
24.0000006067
 20
305.0000006292
 11
14.0000006067
 21
305.0000006292
  0
LINE
  8
AP0059
 62
7
  6
BYLAYER
 10
569.999999691
 20
304.999999553
 11
579.999999691
 21
304.999999553
  0
LINE
  8
AP0059
 62
7
  6
BYLAYER
 10
481.6666662053
 20
396.0000003641
 11
481.6666662053
 21
406.0000003641
  0
LINE
  8
AP0059
 62
7
  6
BYLAYER
 10
24.0000006067
 20
396.0000003641
 11
569.999999691
 21
396.0000003641
  0
LINE
  8
AP0059
 62
7
  6
BYLAYER
 10
14.0000006067
 20
406.0000003641
 11
579.999999691
 21
406.0000003641
  0
LINE
  8
AP0059
 62
3
  6
BYLAYER
 10
541.4302006336
 20
92.8252448971
 11
541.398624028
 21
105.9611128236
  0
LINE
  8
AP0059
 62
3
  6
BYLAYER
 10
558.9933755672
 20
102.122412422
 11
558.9933755672
 21
97.122412422
  0
LINE
  8
AP0059
 62
3
  6
BYLAYER
 10
568.9933755672
 20
104.622412422
 11
568.9933755672
 21
94.622412422
  0
LINE
  8
AP0059
 62
7
  6
BYLAYER
 10
569.999999691
 20
124.4999990927
 11
569.999999691
 21
396.0000003641
  0
LINE
  8
AP0059
 62
7
  6
BYLAYER
 10
579.999999691
 20
13.9999990927
 11
579.999999691
 21
406.0000003641
  0
POLYLINE
  8
AP005-ENDCAP-02
 62
7
  6
BYLAYER
 66
1
 70
0
  0
VERTEX
  8
AP005-ENDCAP-02
 62
7
  6
BYLAYER
 10
94.8640014849
 20
246.127371792
  0
VERTEX
  8
AP005-ENDCAP-02
 62
7
  6
BYLAYER
 10
94.8701573146
 20
246.049828586
  0
VERTEX
  8
AP005-ENDCAP-02
 62
7
  6
BYLAYER
 10
94.8884732268
 20
245.9741947511
  0
VERTEX
  8
AP005-ENDCAP-02
 62
7
  6
BYLAYER
 10
94.9184982228
 20
245.9023326434
  0
VERTEX
  8
AP005-ENDCAP-02
 62
7
  6
BYLAYER
 10
94.9594929877
 20
245.8360117463
  0
VERTEX
  8
AP005-ENDCAP-02
 62
7
  6
BYLAYER
 10
95.0104480943
 20
245.7768651005
  0
VERTEX
  8
AP005-ENDCAP-02
 62
7
  6
BYLAYER
 10
95.0701088588
 20
245.7263490928
  0
VERTEX
  8
AP005-ENDCAP-02
 62
7
  6
BYLAYER
 10
95.1370062351
 20
245.6857075948
  0
VERTEX
  8
AP005-ENDCAP-02
 62
7
  6
BYLAYER
 10
95.2094929877
 20
245.6559413351
  0
VERTEX
  8
AP005-ENDCAP-02
 62
7
  6
BYLAYER
 10
95.2857842524
 20
245.6377832579
  0
VERTEX
  8
AP005-ENDCAP-02
 62
7
  6
BYLAYER
 10
95.3640014849
 20
245.6316804752
  0
SEQEND
  0
POLYLINE
  8
AP005-ENDCAP-02
 62
7
  6
BYLAYER
 66
1
 70
0
  0
VERTEX
  8
AP005-ENDCAP-02
 62
7
  6
BYLAYER
 10
94.8640014849
 20
284.3144457176
  0
VERTEX
  8
AP005-ENDCAP-02
 62
7
  6
BYLAYER
 10
94.8701573146
 20
284.3919889236
  0
VERTEX
  8
AP005-ENDCAP-02
 62
7
  6
BYLAYER
 10
94.8884732268
 20
284.4676227585
  0
VERTEX
  8
AP005-ENDCAP-02
 62
7
  6
BYLAYER
 10
94.9184982228
 20
284.5394848662
  0
VERTEX
  8
AP005-ENDCAP-02
 62
7
  6
BYLAYER
 10
94.9594929877
 20
284.6058057633
  0
VERTEX
  8
AP005-ENDCAP-02
 62
7
  6
BYLAYER
 10
95.0104480943
 20
284.6649524091
  0
VERTEX
  8
AP005-ENDCAP-02
 62
7
  6
BYLAYER
 10
95.0701088588
 20
284.7154684169
  0
VERTEX
  8
AP005-ENDCAP-02
 62
7
  6
BYLAYER
 10
95.137006235
 20
284.7561099149
  0
VERTEX
  8
AP005-ENDCAP-02
 62
7
  6
BYLAYER
 10
95.2094929877
 20
284.7858761745
  0
VERTEX
  8
AP005-ENDCAP-02
 62
7
  6
BYLAYER
 10
95.2857842524
 20
284.8040342518
  0
VERTEX
  8
AP005-ENDCAP-02
 62
7
  6
BYLAYER
 10
95.3640014849
 20
284.8101370344
  0
SEQEND
  0
LINE
  8
AP005-ENDCAP-02
 62
7
  6
BYLAYER
 10
94.8640014849
 20
246.1209064666
 11
94.8640014849
 21
284.3209110229
  0
LINE
  8
AP005-ENDCAP-02
 62
7
  6
BYLAYER
 10
95.3640014849
 20
245.6209087672
 11
95.3640014849
 21
284.8209087424
  0
LINE
  8
AP005-ENDCAP-02
 62
7
  6
BYLAYER
 10
97.3640014849
 20
245.6209091099
 11
97.3640014849
 21
254.3454018582
  0
LINE
  8
AP005-ENDCAP-03
 62
8
  6
HIDDEN
 10
97.3640014849
 20
254.3454018582
 11
97.3640014849
 21
260.6209087673
  0
LINE
  8
AP005-ENDCAP-03
 62
8
  6
HIDDEN
 10
97.3640014849
 20
269.8209087548
 11
97.3640014849
 21
276.0964156514
  0
LINE
  8
AP005-ENDCAP-02
 62
7
  6
BYLAYER
 10
97.3640014849
 20
276.0964156514
 11
97.3640014849
 21
284.8209083996
  0
LINE
  8
AP005-BASE2
 62
7
  6
BYLAYER
 10
97.4140014849
 20
284.8209083997
 11
97.4140014849
 21
276.1964156514
  0
LINE
  8
AP005-BASE3
 62
8
  6
HIDDEN
 10
97.4140014849
 20
276.1964156514
 11
97.4140014849
 21
254.2454018582
  0
LINE
  8
AP005-BASE2
 62
7
  6
BYLAYER
 10
97.4140014849
 20
254.2454018582
 11
97.4140014849
 21
245.62090911
  0
POLYLINE
  8
AP005-ENDCAP-03
 62
8
  6
HIDDEN
 66
1
 70
0
  0
VERTEX
  8
AP005-ENDCAP-03
 62
8
  6
HIDDEN
 10
102.3640014849
 20
249.7480207555
  0
VERTEX
  8
AP005-ENDCAP-03
 62
8
  6
HIDDEN
 10
102.3586534022
 20
249.8036252662
  0
VERTEX
  8
AP005-ENDCAP-03
 62
8
  6
HIDDEN
 10
102.342795722
 20
249.8572574632
  0
VERTEX
  8
AP005-ENDCAP-03
 62
8
  6
HIDDEN
 10
102.3169990305
 20
249.9069857221
  0
VERTEX
  8
AP005-ENDCAP-03
 62
8
  6
HIDDEN
 10
102.2821531105
 20
249.9510754407
  0
VERTEX
  8
AP005-ENDCAP-03
 62
8
  6
HIDDEN
 10
102.2405100351
 20
249.9872054284
  0
VERTEX
  8
AP005-ENDCAP-03
 62
8
  6
HIDDEN
 10
102.1974573363
 20
250.0129419333
  0
VERTEX
  8
AP005-ENDCAP-03
 62
8
  6
HIDDEN
 10
102.1541577328
 20
250.030149189
  0
VERTEX
  8
AP005-ENDCAP-03
 62
8
  6
HIDDEN
 10
102.109804855
 20
250.040354573
  0
VERTEX
  8
AP005-ENDCAP-03
 62
8
  6
HIDDEN
 10
102.0640014849
 20
250.0438225522
  0
SEQEND
  0
POLYLINE
  8
AP005-ENDCAP-03
 62
8
  6
HIDDEN
 66
1
 70
0
  0
VERTEX
  8
AP005-ENDCAP-03
 62
8
  6
HIDDEN
 10
102.3640014849
 20
283.1926484124
  0
VERTEX
  8
AP005-ENDCAP-03
 62
8
  6
HIDDEN
 10
102.3594438108
 20
283.2433233942
  0
VERTEX
  8
AP005-ENDCAP-03
 62
8
  6
HIDDEN
 10
102.3459092712
 20
283.2924586424
  0
VERTEX
  8
AP005-ENDCAP-03
 62
8
  6
HIDDEN
 10
102.3238091061
 20
283.3385612072
  0
VERTEX
  8
AP005-ENDCAP-03
 62
8
  6
HIDDEN
 10
102.2938148179
 20
283.3802302858
  0
VERTEX
  8
AP005-ENDCAP-03
 62
8
  6
HIDDEN
 10
102.2568377677
 20
283.416199784
  0
VERTEX
  8
AP005-ENDCAP-03
 62
8
  6
HIDDEN
 10
102.2140014847
 20
283.4453767869
  0
VERTEX
  8
AP005-ENDCAP-03
 62
8
  6
HIDDEN
 10
102.1666075277
 20
283.4668747659
  0
VERTEX
  8
AP005-ENDCAP-03
 62
8
  6
HIDDEN
 10
102.1160959381
 20
283.4800405159
  0
VERTEX
  8
AP005-ENDCAP-03
 62
8
  6
HIDDEN
 10
102.0640014849
 20
283.4844740023
  0
SEQEND
  0
POLYLINE
  8
AP005-ENDCAP-03
 62
8
  6
HIDDEN
 66
1
 70
0
  0
VERTEX
  8
AP005-ENDCAP-03
 62
8
  6
HIDDEN
 10
102.3640014849
 20
249.0708885209
  0
VERTEX
  8
AP005-ENDCAP-03
 62
8
  6
HIDDEN
 10
102.3594403973
 20
249.1225508015
  0
VERTEX
  8
AP005-ENDCAP-03
 62
8
  6
HIDDEN
 10
102.3458958794
 20
249.1726420251
  0
VERTEX
  8
AP005-ENDCAP-03
 62
8
  6
HIDDEN
 10
102.3237796619
 20
249.2196394264
  0
VERTEX
  8
AP005-ENDCAP-03
 62
8
  6
HIDDEN
 10
102.2937652153
 20
249.2621126055
  0
VERTEX
  8
AP005-ENDCAP-03
 62
8
  6
HIDDEN
 10
102.2567630431
 20
249.2987728277
  0
VERTEX
  8
AP005-ENDCAP-03
 62
8
  6
HIDDEN
 10
102.2139050353
 20
249.3285002788
  0
VERTEX
  8
AP005-ENDCAP-03
 62
8
  6
HIDDEN
 10
102.1664864358
 20
249.3503974459
  0
VERTEX
  8
AP005-ENDCAP-03
 62
8
  6
HIDDEN
 10
102.115973614
 20
249.3637924122
  0
VERTEX
  8
AP005-ENDCAP-03
 62
8
  6
HIDDEN
 10
102.0640014849
 20
249.3682892411
  0
SEQEND
  0
LINE
  8
AP005-ENDCAP-03
 62
8
  6
HIDDEN
 10
102.0640014849
 20
283.4953732158
 11
102.0640014849
 21
280.3182290952
  0
LINE
  8
AP005-ENDCAP-03
 62
8
  6
HIDDEN
 10
102.0640014849
 20
250.123588403
 11
102.0640014849
 21
246.9464442938
  0
LINE
  8
AP005-ENDCAP-03
 62
8
  6
HIDDEN
 10
102.3640014849
 20
283.195372696
 11
102.3640014849
 21
280.6182267048
  0
LINE
  8
AP005-ENDCAP-03
 62
8
  6
HIDDEN
 10
102.3640014849
 20
249.8235652471
 11
102.3640014849
 21
247.247249468
  0
POLYLINE
  8
AP005-ENDCAP-03
 62
8
  6
HIDDEN
 66
1
 70
0
  0
VERTEX
  8
AP005-ENDCAP-03
 62
8
  6
HIDDEN
 10
102.3640014849
 20
281.3709289887
  0
VERTEX
  8
AP005-ENDCAP-03
 62
8
  6
HIDDEN
 10
102.3594403973
 20
281.319266708
  0
VERTEX
  8
AP005-ENDCAP-03
 62
8
  6
HIDDEN
 10
102.3458958794
 20
281.2691754843
  0
VERTEX
  8
AP005-ENDCAP-03
 62
8
  6
HIDDEN
 10
102.3237796617
 20
281.2221780829
  0
VERTEX
  8
AP005-ENDCAP-03
 62
8
  6
HIDDEN
 10
102.293765215
 20
281.1797049039
  0
VERTEX
  8
AP005-ENDCAP-03
 62
8
  6
HIDDEN
 10
102.2567630427
 20
281.1430446816
  0
VERTEX
  8
AP005-ENDCAP-03
 62
8
  6
HIDDEN
 10
102.2139050348
 20
281.1133172306
  0
VERTEX
  8
AP005-ENDCAP-03
 62
8
  6
HIDDEN
 10
102.1664864351
 20
281.0914200635
  0
VERTEX
  8
AP005-ENDCAP-03
 62
8
  6
HIDDEN
 10
102.1159736135
 20
281.0780250974
  0
VERTEX
  8
AP005-ENDCAP-03
 62
8
  6
HIDDEN
 10
102.0640014849
 20
281.0735282685
  0
SEQEND
  0
POLYLINE
  8
AP005-ENDCAP-03
 62
8
  6
HIDDEN
 66
1
 70
0
  0
VERTEX
  8
AP005-ENDCAP-03
 62
8
  6
HIDDEN
 10
102.3640014849
 20
247.2491690972
  0
VERTEX
  8
AP005-ENDCAP-03
 62
8
  6
HIDDEN
 10
102.3594438112
 20
247.1984941172
  0
VERTEX
  8
AP005-ENDCAP-03
 62
8
  6
HIDDEN
 10
102.3459092724
 20
247.1493588705
  0
VERTEX
  8
AP005-ENDCAP-03
 62
8
  6
HIDDEN
 10
102.3238091081
 20
247.1032563057
  0
VERTEX
  8
AP005-ENDCAP-03
 62
8
  6
HIDDEN
 10
102.2938148189
 20
247.061587225
  0
VERTEX
  8
AP005-ENDCAP-03
 62
8
  6
HIDDEN
 10
102.2568377659
 20
247.0256177241
  0
VERTEX
  8
AP005-ENDCAP-03
 62
8
  6
HIDDEN
 10
102.2140014807
 20
246.9964407205
  0
VERTEX
  8
AP005-ENDCAP-03
 62
8
  6
HIDDEN
 10
102.1666075238
 20
246.9749427424
  0
VERTEX
  8
AP005-ENDCAP-03
 62
8
  6
HIDDEN
 10
102.1160959359
 20
246.9617769933
  0
VERTEX
  8
AP005-ENDCAP-03
 62
8
  6
HIDDEN
 10
102.0640014849
 20
246.9573435073
  0
SEQEND
  0
POLYLINE
  8
AP005-ENDCAP-03
 62
8
  6
HIDDEN
 66
1
 70
0
  0
VERTEX
  8
AP005-ENDCAP-03
 62
8
  6
HIDDEN
 10
102.3640014849
 20
280.6937967541
  0
VERTEX
  8
AP005-ENDCAP-03
 62
8
  6
HIDDEN
 10
102.3586534024
 20
280.6381922444
  0
VERTEX
  8
AP005-ENDCAP-03
 62
8
  6
HIDDEN
 10
102.3427957228
 20
280.5845600484
  0
VERTEX
  8
AP005-ENDCAP-03
 62
8
  6
HIDDEN
 10
102.3169990322
 20
280.53483179
  0
VERTEX
  8
AP005-ENDCAP-03
 62
8
  6
HIDDEN
 10
102.282153114
 20
280.4907420725
  0
VERTEX
  8
AP005-ENDCAP-03
 62
8
  6
HIDDEN
 10
102.2405100426
 20
280.4546120865
  0
VERTEX
  8
AP005-ENDCAP-03
 62
8
  6
HIDDEN
 10
102.1974573494
 20
280.4288755827
  0
VERTEX
  8
AP005-ENDCAP-03
 62
8
  6
HIDDEN
 10
102.1541577428
 20
280.4116683237
  0
VERTEX
  8
AP005-ENDCAP-03
 62
8
  6
HIDDEN
 10
102.1098048615
 20
280.4014629376
  0
VERTEX
  8
AP005-ENDCAP-03
 62
8
  6
HIDDEN
 10
102.0640014849
 20
280.3979949573
  0
SEQEND
  0
POLYLINE
  8
AP005-ENDCAP-03
 62
8
  6
HIDDEN
 66
1
 70
0
  0
VERTEX
  8
AP005-ENDCAP-03
 62
8
  6
HIDDEN
 10
102.3640014849
 20
249.7480207555
  0
VERTEX
  8
AP005-ENDCAP-03
 62
8
  6
HIDDEN
 10
102.3586534024
 20
249.713295039
  0
VERTEX
  8
AP005-ENDCAP-03
 62
8
  6
HIDDEN
 10
102.3427957228
 20
249.6798010571
  0
VERTEX
  8
AP005-ENDCAP-03
 62
8
  6
HIDDEN
 10
102.3169990322
 20
249.6487451336
  0
VERTEX
  8
AP005-ENDCAP-03
 62
8
  6
HIDDEN
 10
102.282153114
 20
249.6212105497
  0
VERTEX
  8
AP005-ENDCAP-03
 62
8
  6
HIDDEN
 10
102.2405100423
 20
249.5986469183
  0
VERTEX
  8
AP005-ENDCAP-03
 62
8
  6
HIDDEN
 10
102.1974573486
 20
249.5825741473
  0
VERTEX
  8
AP005-ENDCAP-03
 62
8
  6
HIDDEN
 10
102.1541577422
 20
249.5718279976
  0
VERTEX
  8
AP005-ENDCAP-03
 62
8
  6
HIDDEN
 10
102.1098048611
 20
249.5654546055
  0
VERTEX
  8
AP005-ENDCAP-03
 62
8
  6
HIDDEN
 10
102.0640014849
 20
249.5632888082
  0
SEQEND
  0
POLYLINE
  8
AP005-ENDCAP-03
 62
8
  6
HIDDEN
 66
1
 70
0
  0
VERTEX
  8
AP005-ENDCAP-03
 62
8
  6
HIDDEN
 10
102.3640014849
 20
280.6937967541
  0
VERTEX
  8
AP005-ENDCAP-03
 62
8
  6
HIDDEN
 10
102.3586534025
 20
280.7285224701
  0
VERTEX
  8
AP005-ENDCAP-03
 62
8
  6
HIDDEN
 10
102.3427957232
 20
280.7620164519
  0
VERTEX
  8
AP005-ENDCAP-03
 62
8
  6
HIDDEN
 10
102.3169990339
 20
280.7930723745
  0
VERTEX
  8
AP005-ENDCAP-03
 62
8
  6
HIDDEN
 10
102.2821531154
 20
280.820606959
  0
VERTEX
  8
AP005-ENDCAP-03
 62
8
  6
HIDDEN
 10
102.2405100418
 20
280.8431705917
  0
VERTEX
  8
AP005-ENDCAP-03
 62
8
  6
HIDDEN
 10
102.1974573435
 20
280.8592433639
  0
VERTEX
  8
AP005-ENDCAP-03
 62
8
  6
HIDDEN
 10
102.1541577383
 20
280.8699895129
  0
VERTEX
  8
AP005-ENDCAP-03
 62
8
  6
HIDDEN
 10
102.109804858
 20
280.8763629045
  0
VERTEX
  8
AP005-ENDCAP-03
 62
8
  6
HIDDEN
 10
102.0640014849
 20
280.8785287015
  0
SEQEND
  0
LINE
  8
AP005-ENDCAP-02
 62
7
  6
BYLAYER
 10
112.3640014849
 20
276.1964156508
 11
112.3640014849
 21
254.2454018964
  0
LINE
  8
AP005-DIFFUSE2
 62
7
  6
BYLAYER
 10
112.4140014849
 20
276.1964156132
 11
112.4140014849
 21
254.2454018964
  0
POLYLINE
  8
AP005-ENDCAP-13
 62
8
  6
HIDDEN
 66
1
 70
0
  0
VERTEX
  8
AP005-ENDCAP-13
 62
8
  6
HIDDEN
 10
292.7640014849
 20
249.598502534
  0
VERTEX
  8
AP005-ENDCAP-13
 62
8
  6
HIDDEN
 10
292.7119152977
 20
249.5945117253
  0
VERTEX
  8
AP005-ENDCAP-13
 62
8
  6
HIDDEN
 10
292.6614089753
 20
249.5823674175
  0
VERTEX
  8
AP005-ENDCAP-13
 62
8
  6
HIDDEN
 10
292.6140170276
 20
249.562444728
  0
VERTEX
  8
AP005-ENDCAP-13
 62
8
  6
HIDDEN
 10
292.5711798226
 20
249.5353534709
  0
VERTEX
  8
AP005-ENDCAP-13
 62
8
  6
HIDDEN
 10
292.5341997287
 20
249.5019202257
  0
VERTEX
  8
AP005-ENDCAP-13
 62
8
  6
HIDDEN
 10
292.5042013871
 20
249.4631637744
  0
VERTEX
  8
AP005-ENDCAP-13
 62
8
  6
HIDDEN
 10
292.4820973421
 20
249.4202646195
  0
VERTEX
  8
AP005-ENDCAP-13
 62
8
  6
HIDDEN
 10
292.4685600981
 20
249.3745294796
  0
VERTEX
  8
AP005-ENDCAP-13
 62
8
  6
HIDDEN
 10
292.4640014849
 20
249.3273518229
  0
SEQEND
  0
POLYLINE
  8
AP005-ENDCAP-03
 62
8
  6
HIDDEN
 66
1
 70
0
  0
VERTEX
  8
AP005-ENDCAP-03
 62
8
  6
HIDDEN
 10
102.0640014849
 20
249.5985025348
  0
VERTEX
  8
AP005-ENDCAP-03
 62
8
  6
HIDDEN
 10
102.1160886253
 20
249.5942659312
  0
VERTEX
  8
AP005-ENDCAP-03
 62
8
  6
HIDDEN
 10
102.1665955572
 20
249.5819602458
  0
VERTEX
  8
AP005-ENDCAP-03
 62
8
  6
HIDDEN
 10
102.2139877496
 20
249.5619504615
  0
VERTEX
  8
AP005-ENDCAP-03
 62
8
  6
HIDDEN
 10
102.2568248677
 20
249.5348366292
  0
VERTEX
  8
AP005-ENDCAP-03
 62
8
  6
HIDDEN
 10
102.2938046224
 20
249.5014357586
  0
VERTEX
  8
AP005-ENDCAP-03
 62
8
  6
HIDDEN
 10
102.32380249
 20
249.4627570717
  0
VERTEX
  8
AP005-ENDCAP-03
 62
8
  6
HIDDEN
 10
102.3459060672
 20
249.4199713441
  0
VERTEX
  8
AP005-ENDCAP-03
 62
8
  6
HIDDEN
 10
102.3594429827
 20
249.3743752536
  0
VERTEX
  8
AP005-ENDCAP-03
 62
8
  6
HIDDEN
 10
102.3640014849
 20
249.3273518236
  0
SEQEND
  0
POLYLINE
  8
AP005-ENDCAP-12
 62
7
  6
BYLAYER
 66
1
 70
0
  0
VERTEX
  8
AP005-ENDCAP-12
 62
7
  6
BYLAYER
 10
299.9395274216
 20
253.9424593291
  0
VERTEX
  8
AP005-ENDCAP-12
 62
7
  6
BYLAYER
 10
299.9578450459
 20
253.9428151724
  0
VERTEX
  8
AP005-ENDCAP-12
 62
7
  6
BYLAYER
 10
299.9640014849
 20
253.9431631284
  0
SEQEND
  0
LINE
  8
AP005-ENDCAP-02
 62
7
  6
BYLAYER
 10
97.3640014849
 20
245.6209087672
 11
95.3640014849
 21
245.6209087672
  0
LINE
  8
AP005-BASE2
 62
7
  6
BYLAYER
 10
97.4140014849
 20
245.6209087672
 11
297.4140014849
 21
245.6209087672
  0
LINE
  8
AP005-ENDCAP-12
 62
7
  6
BYLAYER
 10
297.4640014849
 20
245.6209087672
 11
299.4640014849
 21
245.6209087672
  0
LINE
  8
AP005-ENDCAP-02
 62
7
  6
BYLAYER
 10
97.3640014849
 20
245.6316804751
 11
95.3640014849
 21
245.6316804752
  0
LINE
  8
AP005-BASE2
 62
7
  6
BYLAYER
 10
97.4140014849
 20
245.6316804752
 11
297.4140014849
 21
245.6316804752
  0
LINE
  8
AP005-ENDCAP-12
 62
7
  6
BYLAYER
 10
297.4640014849
 20
245.6316804752
 11
299.4640014849
 21
245.6316804752
  0
LINE
  8
AP005-BASE3
 62
8
  6
HIDDEN
 10
97.4140014849
 20
246.4957492712
 11
297.4140014849
 21
246.4957492712
  0
LINE
  8
AP005-BASE3
 62
8
  6
HIDDEN
 10
97.4140014849
 20
246.5457511117
 11
297.4140014849
 21
246.5457511117
  0
LINE
  8
AP005-BASE3
 62
8
  6
HIDDEN
 10
97.4140014849
 20
246.8709547782
 11
297.4140014849
 21
246.8709547782
  0
LINE
  8
AP005-ENDCAP-03
 62
8
  6
HIDDEN
 10
97.3640014849
 20
246.8709547775
 11
94.8640014849
 21
246.8709087672
  0
LINE
  8
AP005-ENDCAP-13
 62
8
  6
HIDDEN
 10
297.4640014849
 20
246.8709547782
 11
299.9640014849
 21
246.8709087672
  0
LINE
  8
AP005-ENDCAP-12
 62
7
  6
BYLAYER
 10
297.4640014849
 20
246.9464442938
 11
297.4140014849
 21
246.9464442938
  0
LINE
  8
AP005-ENDCAP-13
 62
8
  6
HIDDEN
 10
297.4140014849
 20
246.9464442938
 11
292.7640014849
 21
246.9464442938
  0
LINE
  8
AP005-ENDCAP-03
 62
8
  6
HIDDEN
 10
97.4140014849
 20
246.9464442938
 11
102.0640014849
 21
246.9464442938
  0
LINE
  8
AP005-ENDCAP-02
 62
7
  6
BYLAYER
 10
97.3640014849
 20
246.9464442938
 11
97.4140014849
 21
246.9464442938
  0
LINE
  8
AP005-ENDCAP-12
 62
7
  6
BYLAYER
 10
297.4640014849
 20
246.9573435073
 11
297.4140014849
 21
246.9573435073
  0
LINE
  8
AP005-ENDCAP-13
 62
8
  6
HIDDEN
 10
297.4140014849
 20
246.9573435073
 11
292.7640014849
 21
246.9573435073
  0
LINE
  8
AP005-ENDCAP-03
 62
8
  6
HIDDEN
 10
97.4140014849
 20
246.9573435073
 11
102.0640014849
 21
246.9573435073
  0
LINE
  8
AP005-ENDCAP-02
 62
7
  6
BYLAYER
 10
97.3640014849
 20
246.9573435073
 11
97.4140014849
 21
246.9573435073
  0
LINE
  8
AP005-ENDCAP-13
 62
8
  6
HIDDEN
 10
297.4640014849
 20
247.3464590173
 11
292.4640014849
 21
247.3464479746
  0
LINE
  8
AP005-ENDCAP-03
 62
8
  6
HIDDEN
 10
97.3640014849
 20
247.3464590173
 11
102.3640014849
 21
247.3464479747
  0
LINE
  8
AP005-BASE3
 62
8
  6
HIDDEN
 10
97.4140014849
 20
247.7709179688
 11
297.4140014849
 21
247.7709179688
  0
LINE
  8
AP005-BASE3
 62
8
  6
HIDDEN
 10
97.4140014849
 20
247.8709216496
 11
297.4140014849
 21
247.8709216496
  0
LINE
  8
AP005-ENDCAP-13
 62
8
  6
HIDDEN
 10
297.4640014849
 20
249.0708995635
 11
292.4640014849
 21
249.0708885209
  0
LINE
  8
AP005-ENDCAP-03
 62
8
  6
HIDDEN
 10
97.3640014849
 20
249.0708995635
 11
102.3640014849
 21
249.0708885209
  0
LINE
  8
AP005-ENDCAP-13
 62
8
  6
HIDDEN
 10
297.4640014849
 20
249.3682892411
 11
292.7640014849
 21
249.3682892411
  0
LINE
  8
AP005-ENDCAP-03
 62
8
  6
HIDDEN
 10
97.3640014849
 20
249.3682892411
 11
102.0640014849
 21
249.3682892411
  0
LINE
  8
AP005-BASE3
 62
8
  6
HIDDEN
 10
97.4140014849
 20
249.5181030147
 11
297.4140014849
 21
249.5181030147
  0
LINE
  8
AP005-ENDCAP-12
 62
7
  6
BYLAYER
 10
297.4640014849
 20
249.5632888081
 11
297.4140014849
 21
249.5632888081
  0
LINE
  8
AP005-ENDCAP-13
 62
8
  6
HIDDEN
 10
297.4140014849
 20
249.5632888081
 11
292.7640014849
 21
249.5632888081
  0
LINE
  8
AP005-ENDCAP-03
 62
8
  6
HIDDEN
 10
97.4140014849
 20
249.5632888082
 11
102.0640014849
 21
249.5632888082
  0
LINE
  8
AP005-ENDCAP-02
 62
7
  6
BYLAYER
 10
97.3640014849
 20
249.5632888082
 11
97.4140014849
 21
249.5632888082
  0
LINE
  8
AP005-ENDCAP-13
 62
8
  6
HIDDEN
 10
297.4640014849
 20
249.598502534
 11
292.7640014849
 21
249.598502534
  0
LINE
  8
AP005-ENDCAP-03
 62
8
  6
HIDDEN
 10
97.3640014849
 20
249.5985025341
 11
102.0640014849
 21
249.5985025348
  0
LINE
  8
AP005-BASE3
 62
8
  6
HIDDEN
 10
97.4140014849
 20
249.8708814018
 11
297.4140014849
 21
249.8708814018
  0
LINE
  8
AP005-BASE3
 62
8
  6
HIDDEN
 10
97.4140014849
 20
250.009058155
 11
297.4140014849
 21
250.009058155
  0
LINE
  8
AP005-ENDCAP-12
 62
7
  6
BYLAYER
 10
297.4640014849
 20
250.0438225523
 11
297.4140014849
 21
250.0438225523
  0
LINE
  8
AP005-ENDCAP-13
 62
8
  6
HIDDEN
 10
297.4140014849
 20
250.0438225523
 11
292.7640014849
 21
250.0438225522
  0
LINE
  8
AP005-ENDCAP-03
 62
8
  6
HIDDEN
 10
97.4140014849
 20
250.0438225523
 11
102.0640014849
 21
250.0438225523
  0
LINE
  8
AP005-ENDCAP-02
 62
7
  6
BYLAYER
 10
97.3640014849
 20
250.0438225523
 11
97.4140014849
 21
250.0438225523
  0
LINE
  8
AP005-BASE3
 62
8
  6
HIDDEN
 10
97.4140014849
 20
250.0709106055
 11
297.4140014849
 21
250.0709106055
  0
LINE
  8
AP005-ENDCAP-12
 62
7
  6
BYLAYER
 10
297.4640014849
 20
250.1235884144
 11
297.4140014849
 21
250.1235884144
  0
LINE
  8
AP005-ENDCAP-13
 62
8
  6
HIDDEN
 10
297.4140014849
 20
250.1235884144
 11
292.7640014849
 21
250.1235884144
  0
LINE
  8
AP005-ENDCAP-03
 62
8
  6
HIDDEN
 10
97.4140014849
 20
250.1235884144
 11
102.0640014849
 21
250.1235884144
  0
LINE
  8
AP005-ENDCAP-02
 62
7
  6
BYLAYER
 10
97.3640014849
 20
250.1235884144
 11
97.4140014849
 21
250.1235884144
  0
LINE
  8
AP005-BASE3
 62
8
  6
HIDDEN
 10
97.4140014849
 20
250.3071016993
 11
297.4140014849
 21
250.3071016993
  0
LINE
  8
AP005-BASE3
 62
8
  6
HIDDEN
 10
97.4140014849
 20
250.4235884143
 11
297.4140014849
 21
250.4235884143
  0
LINE
  8
AP005-BASE3
 62
8
  6
HIDDEN
 10
97.4140014849
 20
251.5958296251
 11
297.4140014849
 21
251.5958296251
  0
LINE
  8
AP005-BASE3
 62
8
  6
HIDDEN
 10
97.4140014849
 20
251.6707928143
 11
297.4140014849
 21
251.6707928143
  0
LINE
  8
AP005-ENDCAP-12
 62
7
  6
BYLAYER
 10
299.868502502
 20
253.9417413857
 11
299.9395274216
 21
253.9424593291
  0
LINE
  8
AP005-ENDCAP-12
 62
7
  6
BYLAYER
 10
299.4640014849
 20
253.9396153589
 11
299.868502502
 21
253.9417413857
  0
LINE
  8
AP005-BASE3
 62
8
  6
HIDDEN
 10
97.4140014849
 20
252.3707928157
 11
297.4140014849
 21
252.3707928157
  0
LINE
  8
AP005-BASE3
 62
8
  6
HIDDEN
 10
97.4140014849
 20
252.6708038582
 11
297.4140014849
 21
252.6708038582
  0
LINE
  8
AP005-ENDCAP-02
 62
7
  6
BYLAYER
 10
97.3640014849
 20
253.9396153658
 11
95.2095001651
 21
253.9392211421
  0
LINE
  8
AP005-BASE2
 62
7
  6
BYLAYER
 10
97.4140014849
 20
253.9396153589
 11
297.4140014849
 21
253.9396153589
  0
LINE
  8
AP005-ENDCAP-12
 62
7
  6
BYLAYER
 10
297.4640014849
 20
253.9396153589
 11
299.4640014849
 21
253.9396153589
  0
LINE
  8
AP005-BASE2
 62
7
  6
BYLAYER
 10
97.4140014849
 20
254.1161390086
 11
297.4140014849
 21
254.1161390086
  0
LINE
  8
AP005-ENDCAP-12
 62
7
  6
BYLAYER
 10
297.4640014849
 20
254.2454018582
 11
282.4640014849
 21
254.2454018582
  0
LINE
  8
AP005-ENDCAP-02
 62
7
  6
BYLAYER
 10
97.3640014849
 20
254.2454018582
 11
112.3640014849
 21
254.2454018582
  0
LINE
  8
AP005-DIFFUSE2
 62
7
  6
BYLAYER
 10
112.4140014849
 20
254.2454018582
 11
282.4140014849
 21
254.2454018582
  0
LINE
  8
AP005-ENDCAP-03
 62
8
  6
HIDDEN
 10
97.3640014849
 20
254.2585378898
 11
112.3640014849
 21
254.2585378898
  0
LINE
  8
AP005-DIFFUSE3
 62
8
  6
HIDDEN
 10
112.4140014849
 20
254.2585378898
 11
282.4140014849
 21
254.2585378898
  0
LINE
  8
AP005-ENDCAP-13
 62
8
  6
HIDDEN
 10
297.4640014849
 20
254.259539257
 11
282.4640014849
 21
254.259539257
  0
LINE
  8
AP005-ENDCAP-12
 62
7
  6
BYLAYER
 10
297.4640014849
 20
254.3454018582
 11
282.4640014849
 21
254.3454018582
  0
LINE
  8
AP005-ENDCAP-02
 62
7
  6
BYLAYER
 10
97.3640014849
 20
254.3454018582
 11
112.3640014849
 21
254.3454018582
  0
LINE
  8
AP005-DIFFUSE2
 62
7
  6
BYLAYER
 10
112.4140014849
 20
254.3454018582
 11
282.4140014849
 21
254.3454018582
  0
LINE
  8
AP005-DIFFUSE3
 62
8
  6
HIDDEN
 10
112.4140014849
 20
254.5659087548
 11
282.4140014849
 21
254.5659087548
  0
LINE
  8
AP005-BASE3
 62
8
  6
HIDDEN
 10
97.4140014849
 20
254.5992739799
 11
297.4140014849
 21
254.5992739799
  0
LINE
  8
AP005-DIFFUSE3
 62
8
  6
HIDDEN
 10
112.4140014849
 20
254.7357839765
 11
282.4140014849
 21
254.7357839765
  0
LINE
  8
AP005-BASE3
 62
8
  6
HIDDEN
 10
97.4140014849
 20
254.779387135
 11
112.3640014849
 21
254.779387135
  0
LINE
  8
AP005-BASE3
 62
8
  6
HIDDEN
 10
112.4140014849
 20
254.779387135
 11
282.4140014849
 21
254.779387135
  0
LINE
  8
AP005-BASE2
 62
7
  6
BYLAYER
 10
112.3640014849
 20
254.779387135
 11
112.4140014849
 21
254.779387135
  0
LINE
  8
AP005-BASE3
 62
8
  6
HIDDEN
 10
282.4640014849
 20
254.779387135
 11
297.4140014849
 21
254.779387135
  0
LINE
  8
AP005-BASE2
 62
7
  6
BYLAYER
 10
282.4140014849
 20
254.779387135
 11
282.4640014849
 21
254.779387135
  0
LINE
  8
AP005-BASE3
 62
8
  6
HIDDEN
 10
97.4140014849
 20
254.8056591981
 11
112.3640014849
 21
254.8056591981
  0
LINE
  8
AP005-BASE3
 62
8
  6
HIDDEN
 10
112.4140014849
 20
254.8056591981
 11
282.4140014849
 21
254.8056591981
  0
LINE
  8
AP005-BASE2
 62
7
  6
BYLAYER
 10
112.3640014849
 20
254.8056591981
 11
112.4140014849
 21
254.8056591981
  0
LINE
  8
AP005-BASE3
 62
8
  6
HIDDEN
 10
282.4640014849
 20
254.8056591981
 11
297.4140014849
 21
254.8056591981
  0
LINE
  8
AP005-BASE2
 62
7
  6
BYLAYER
 10
282.4140014849
 20
254.8056591981
 11
282.4640014849
 21
254.8056591981
  0
LINE
  8
AP005-DIFFUSE3
 62
8
  6
HIDDEN
 10
112.4140014849
 20
254.8659087548
 11
282.4140014849
 21
254.8659087548
  0
LINE
  8
AP005-DIFFUSE3
 62
8
  6
HIDDEN
 10
112.4140014849
 20
254.9056591982
 11
282.4140014849
 21
254.9056591982
  0
LINE
  8
AP005-ENDCAP-03
 62
8
  6
HIDDEN
 10
97.3640014849
 20
254.9419125481
 11
112.3640014849
 21
254.9419125481
  0
LINE
  8
AP005-ENDCAP-13
 62
8
  6
HIDDEN
 10
297.4640014849
 20
254.9423691463
 11
282.4640014849
 21
254.9423691463
  0
LINE
  8
AP005-ENDCAP-03
 62
8
  6
HIDDEN
 10
97.3640014849
 20
255.3762507945
 11
112.3640014849
 21
255.3762507945
  0
LINE
  8
AP005-ENDCAP-13
 62
8
  6
HIDDEN
 10
297.4640014849
 20
255.3766888195
 11
282.4640014849
 21
255.3766888195
  0
LINE
  8
AP005-DIFFUSE3
 62
8
  6
HIDDEN
 10
112.4140014849
 20
255.5209087548
 11
282.4140014849
 21
255.5209087548
  0
LINE
  8
AP005-DIFFUSE3
 62
8
  6
HIDDEN
 10
112.4140014849
 20
255.8209087548
 11
282.4140014849
 21
255.8209087548
  0
LINE
  8
AP005-DIFFUSE3
 62
8
  6
HIDDEN
 10
112.4140014849
 20
256.1209087548
 11
282.4140014849
 21
256.1209087548
  0
LINE
  8
AP005-ENDCAP-02
 62
7
  6
BYLAYER
 10
95.2095001651
 20
253.9392211421
 11
95.0701153321
 21
253.9395069168
  0
POLYLINE
  8
AP005-ENDCAP-02
 62
7
  6
BYLAYER
 66
1
 70
0
  0
VERTEX
  8
AP005-ENDCAP-02
 62
7
  6
BYLAYER
 10
95.0701153321
 20
253.9395069168
  0
VERTEX
  8
AP005-ENDCAP-02
 62
7
  6
BYLAYER
 10
94.9594960841
 20
253.9403583976
  0
VERTEX
  8
AP005-ENDCAP-02
 62
7
  6
BYLAYER
 10
94.9184998706
 20
253.9409524666
  0
VERTEX
  8
AP005-ENDCAP-02
 62
7
  6
BYLAYER
 10
94.8884738841
 20
253.9416323019
  0
VERTEX
  8
AP005-ENDCAP-02
 62
7
  6
BYLAYER
 10
94.8701574545
 20
253.9423765774
  0
VERTEX
  8
AP005-ENDCAP-02
 62
7
  6
BYLAYER
 10
94.8640014849
 20
253.9431631352
  0
SEQEND
  0
LINE
  8
AP005-ENDCAP-03
 62
8
  6
HIDDEN
 10
94.8640014849
 20
260.3209087548
 11
97.3640014849
 21
260.3209087548
  0
LINE
  8
AP005-ENDCAP-03
 62
8
  6
HIDDEN
 10
95.1640014849
 20
260.6209087548
 11
97.3640014849
 21
260.6209087548
  0
LINE
  8
AP005-ENDCAP-03
 62
8
  6
HIDDEN
 10
95.1640014849
 20
269.8209087548
 11
97.3640014849
 21
269.8209087548
  0
LINE
  8
AP005-ENDCAP-03
 62
8
  6
HIDDEN
 10
97.3640014849
 20
270.1209087548
 11
94.8640014849
 21
270.1209087548
  0
POLYLINE
  8
AP005-ENDCAP-02
 62
7
  6
BYLAYER
 66
1
 70
0
  0
VERTEX
  8
AP005-ENDCAP-02
 62
7
  6
BYLAYER
 10
94.8884755482
 20
276.4993581805
  0
VERTEX
  8
AP005-ENDCAP-02
 62
7
  6
BYLAYER
 10
94.8701579239
 20
276.4990023372
  0
VERTEX
  8
AP005-ENDCAP-02
 62
7
  6
BYLAYER
 10
94.8640014849
 20
276.4986543811
  0
SEQEND
  0
LINE
  8
AP005-ENDCAP-02
 62
7
  6
BYLAYER
 10
94.9595004678
 20
276.5000761239
 11
94.8884755482
 21
276.4993581805
  0
LINE
  8
AP005-ENDCAP-02
 62
7
  6
BYLAYER
 10
95.3640014849
 20
276.5022021507
 11
94.9595004678
 21
276.5000761239
  0
LINE
  8
AP005-DIFFUSE3
 62
8
  6
HIDDEN
 10
112.4140014849
 20
274.3209087548
 11
282.4140014849
 21
274.3209087548
  0
LINE
  8
AP005-DIFFUSE3
 62
8
  6
HIDDEN
 10
112.4140014849
 20
274.6209087548
 11
282.4140014849
 21
274.6209087548
  0
LINE
  8
AP005-DIFFUSE3
 62
8
  6
HIDDEN
 10
112.4140014849
 20
274.9209087548
 11
282.4140014849
 21
274.9209087548
  0
LINE
  8
AP005-ENDCAP-03
 62
8
  6
HIDDEN
 10
97.3640014849
 20
275.0651286901
 11
112.3640014849
 21
275.0651286901
  0
LINE
  8
AP005-ENDCAP-13
 62
8
  6
HIDDEN
 10
297.4640014849
 20
275.0655667151
 11
282.4640014849
 21
275.0655667151
  0
LINE
  8
AP005-ENDCAP-03
 62
8
  6
HIDDEN
 10
97.3640014849
 20
275.4994483633
 11
112.3640014849
 21
275.4994483633
  0
LINE
  8
AP005-ENDCAP-13
 62
8
  6
HIDDEN
 10
297.4640014849
 20
275.4999049615
 11
282.4640014849
 21
275.4999049615
  0
LINE
  8
AP005-DIFFUSE3
 62
8
  6
HIDDEN
 10
112.4140014849
 20
275.5361583114
 11
282.4140014849
 21
275.5361583114
  0
LINE
  8
AP005-DIFFUSE3
 62
8
  6
HIDDEN
 10
112.4140014849
 20
275.5755664061
 11
282.4140014849
 21
275.5755664061
  0
LINE
  8
AP005-BASE3
 62
8
  6
HIDDEN
 10
97.4140014849
 20
275.6361583114
 11
112.3640014849
 21
275.6361583114
  0
LINE
  8
AP005-BASE3
 62
8
  6
HIDDEN
 10
112.4140014849
 20
275.6361583114
 11
282.4140014849
 21
275.6361583114
  0
LINE
  8
AP005-BASE2
 62
7
  6
BYLAYER
 10
112.3640014849
 20
275.6361583114
 11
112.4140014849
 21
275.6361583114
  0
LINE
  8
AP005-BASE3
 62
8
  6
HIDDEN
 10
282.4640014849
 20
275.6361583114
 11
297.4140014849
 21
275.6361583114
  0
LINE
  8
AP005-BASE2
 62
7
  6
BYLAYER
 10
282.4140014849
 20
275.6361583114
 11
282.4640014849
 21
275.6361583114
  0
LINE
  8
AP005-BASE3
 62
8
  6
HIDDEN
 10
97.4140014849
 20
275.6624303746
 11
112.3640014849
 21
275.6624303746
  0
LINE
  8
AP005-BASE3
 62
8
  6
HIDDEN
 10
112.4140014849
 20
275.6624303746
 11
282.4140014849
 21
275.6624303746
  0
LINE
  8
AP005-BASE2
 62
7
  6
BYLAYER
 10
112.3640014849
 20
275.6624303746
 11
112.4140014849
 21
275.6624303746
  0
LINE
  8
AP005-BASE3
 62
8
  6
HIDDEN
 10
282.4640014849
 20
275.6624303746
 11
297.4140014849
 21
275.6624303746
  0
LINE
  8
AP005-BASE2
 62
7
  6
BYLAYER
 10
282.4140014849
 20
275.6624303746
 11
282.4640014849
 21
275.6624303746
  0
LINE
  8
AP005-DIFFUSE3
 62
8
  6
HIDDEN
 10
112.4140014849
 20
275.7060335331
 11
282.4140014849
 21
275.7060335331
  0
LINE
  8
AP005-BASE3
 62
8
  6
HIDDEN
 10
97.4140014849
 20
275.8425435297
 11
297.4140014849
 21
275.8425435297
  0
LINE
  8
AP005-DIFFUSE3
 62
8
  6
HIDDEN
 10
112.4140014849
 20
275.8759087548
 11
282.4140014849
 21
275.8759087548
  0
LINE
  8
AP005-ENDCAP-12
 62
7
  6
BYLAYER
 10
297.4640014849
 20
276.0964156514
 11
282.4640014849
 21
276.0964156514
  0
LINE
  8
AP005-ENDCAP-02
 62
7
  6
BYLAYER
 10
97.3640014849
 20
276.0964156514
 11
112.3640014849
 21
276.0964156514
  0
LINE
  8
AP005-DIFFUSE2
 62
7
  6
BYLAYER
 10
112.4140014849
 20
276.0964156514
 11
282.4140014849
 21
276.0964156514
  0
LINE
  8
AP005-ENDCAP-03
 62
8
  6
HIDDEN
 10
97.3640014849
 20
276.1822782526
 11
112.3640014849
 21
276.1822782526
  0
LINE
  8
AP005-ENDCAP-13
 62
8
  6
HIDDEN
 10
297.4640014849
 20
276.1832796198
 11
282.4640014849
 21
276.1832796198
  0
LINE
  8
AP005-DIFFUSE3
 62
8
  6
HIDDEN
 10
112.4140014849
 20
276.1832796198
 11
282.4140014849
 21
276.1832796198
  0
LINE
  8
AP005-ENDCAP-12
 62
7
  6
BYLAYER
 10
297.4640014849
 20
276.1964156514
 11
282.4640014849
 21
276.1964156514
  0
LINE
  8
AP005-ENDCAP-02
 62
7
  6
BYLAYER
 10
97.3640014849
 20
276.1964156514
 11
112.3640014849
 21
276.1964156514
  0
LINE
  8
AP005-DIFFUSE2
 62
7
  6
BYLAYER
 10
112.4140014849
 20
276.1964156514
 11
282.4140014849
 21
276.1964156514
  0
LINE
  8
AP005-BASE2
 62
7
  6
BYLAYER
 10
97.4140014849
 20
276.325678501
 11
297.4140014849
 21
276.325678501
  0
LINE
  8
AP005-ENDCAP-02
 62
7
  6
BYLAYER
 10
97.3640014849
 20
276.5022021507
 11
95.3640014849
 21
276.5022021507
  0
LINE
  8
AP005-BASE2
 62
7
  6
BYLAYER
 10
97.4140014849
 20
276.5022021437
 11
297.4140014849
 21
276.5022021437
  0
LINE
  8
AP005-ENDCAP-12
 62
7
  6
BYLAYER
 10
297.4640014849
 20
276.5022021437
 11
299.6185028048
 21
276.5025963675
  0
LINE
  8
AP005-BASE3
 62
8
  6
HIDDEN
 10
97.4140014849
 20
277.7709989277
 11
297.4140014849
 21
277.7709989277
  0
LINE
  8
AP005-BASE3
 62
8
  6
HIDDEN
 10
97.4140014849
 20
278.0709878851
 11
297.4140014849
 21
278.0709878851
  0
LINE
  8
AP005-BASE3
 62
8
  6
HIDDEN
 10
97.4140014849
 20
278.7710246954
 11
297.4140014849
 21
278.7710246954
  0
LINE
  8
AP005-BASE3
 62
8
  6
HIDDEN
 10
97.4140014849
 20
278.8459878845
 11
297.4140014849
 21
278.8459878845
  0
LINE
  8
AP005-BASE3
 62
8
  6
HIDDEN
 10
97.4140014849
 20
280.0182290952
 11
297.4140014849
 21
280.0182290952
  0
LINE
  8
AP005-ENDCAP-12
 62
7
  6
BYLAYER
 10
299.6185028048
 20
276.5025963675
 11
299.7578876377
 21
276.5023105928
  0
POLYLINE
  8
AP005-ENDCAP-12
 62
7
  6
BYLAYER
 66
1
 70
0
  0
VERTEX
  8
AP005-ENDCAP-12
 62
7
  6
BYLAYER
 10
299.7578876377
 20
276.5023105928
  0
VERTEX
  8
AP005-ENDCAP-12
 62
7
  6
BYLAYER
 10
299.8685068857
 20
276.501459112
  0
VERTEX
  8
AP005-ENDCAP-12
 62
7
  6
BYLAYER
 10
299.9095030993
 20
276.500865043
  0
VERTEX
  8
AP005-ENDCAP-12
 62
7
  6
BYLAYER
 10
299.9395290857
 20
276.5001852077
  0
VERTEX
  8
AP005-ENDCAP-12
 62
7
  6
BYLAYER
 10
299.9578455153
 20
276.4994409322
  0
VERTEX
  8
AP005-ENDCAP-12
 62
7
  6
BYLAYER
 10
299.9640014849
 20
276.4986543744
  0
SEQEND
  0
LINE
  8
AP005-BASE3
 62
8
  6
HIDDEN
 10
97.4140014849
 20
280.1347158102
 11
297.4140014849
 21
280.1347158102
  0
LINE
  8
AP005-ENDCAP-12
 62
7
  6
BYLAYER
 10
297.4640014849
 20
280.3182290952
 11
297.4140014849
 21
280.3182290952
  0
LINE
  8
AP005-ENDCAP-13
 62
8
  6
HIDDEN
 10
297.4140014849
 20
280.3182290952
 11
292.7640014849
 21
280.3182290952
  0
LINE
  8
AP005-ENDCAP-03
 62
8
  6
HIDDEN
 10
97.4140014849
 20
280.3182290952
 11
102.0640014849
 21
280.3182290952
  0
LINE
  8
AP005-ENDCAP-02
 62
7
  6
BYLAYER
 10
97.3640014849
 20
280.3182290952
 11
97.4140014849
 21
280.3182290952
  0
LINE
  8
AP005-BASE3
 62
8
  6
HIDDEN
 10
97.4140014849
 20
280.3709069041
 11
297.4140014849
 21
280.3709069041
  0
LINE
  8
AP005-ENDCAP-12
 62
7
  6
BYLAYER
 10
297.4640014849
 20
280.3979949574
 11
297.4140014849
 21
280.3979949574
  0
LINE
  8
AP005-ENDCAP-13
 62
8
  6
HIDDEN
 10
297.4140014849
 20
280.3979949574
 11
292.7640014849
 21
280.3979949574
  0
LINE
  8
AP005-ENDCAP-03
 62
8
  6
HIDDEN
 10
97.4140014849
 20
280.3979949574
 11
102.0640014849
 21
280.3979949574
  0
LINE
  8
AP005-ENDCAP-02
 62
7
  6
BYLAYER
 10
97.3640014849
 20
280.3979949574
 11
97.4140014849
 21
280.3979949574
  0
LINE
  8
AP005-BASE3
 62
8
  6
HIDDEN
 10
97.4140014849
 20
280.4327593546
 11
297.4140014849
 21
280.4327593546
  0
LINE
  8
AP005-BASE3
 62
8
  6
HIDDEN
 10
97.4140014849
 20
280.5709142657
 11
297.4140014849
 21
280.5709142657
  0
LINE
  8
AP005-ENDCAP-13
 62
8
  6
HIDDEN
 10
297.4640014849
 20
280.8433149755
 11
292.7640014849
 21
280.8433149748
  0
LINE
  8
AP005-ENDCAP-03
 62
8
  6
HIDDEN
 10
97.3640014849
 20
280.8433149756
 11
102.0640014849
 21
280.8433149756
  0
LINE
  8
AP005-ENDCAP-12
 62
7
  6
BYLAYER
 10
297.4640014849
 20
280.8785287014
 11
297.4140014849
 21
280.8785287014
  0
LINE
  8
AP005-ENDCAP-13
 62
8
  6
HIDDEN
 10
297.4140014849
 20
280.8785287014
 11
292.7640014849
 21
280.8785287014
  0
LINE
  8
AP005-ENDCAP-03
 62
8
  6
HIDDEN
 10
97.4140014849
 20
280.8785287015
 11
102.0640014849
 21
280.8785287015
  0
LINE
  8
AP005-ENDCAP-02
 62
7
  6
BYLAYER
 10
97.3640014849
 20
280.8785287015
 11
97.4140014849
 21
280.8785287015
  0
LINE
  8
AP005-BASE3
 62
8
  6
HIDDEN
 10
97.4140014849
 20
280.9237144949
 11
297.4140014849
 21
280.9237144949
  0
LINE
  8
AP005-ENDCAP-13
 62
8
  6
HIDDEN
 10
297.4640014849
 20
281.0735282685
 11
292.7640014849
 21
281.0735282685
  0
LINE
  8
AP005-ENDCAP-03
 62
8
  6
HIDDEN
 10
97.3640014849
 20
281.0735282685
 11
102.0640014849
 21
281.0735282685
  0
LINE
  8
AP005-ENDCAP-03
 62
8
  6
HIDDEN
 10
102.3640014849
 20
281.3709289887
 11
97.3640014849
 21
281.3709179461
  0
LINE
  8
AP005-ENDCAP-13
 62
8
  6
HIDDEN
 10
292.4640014849
 20
281.3709289887
 11
297.4640014849
 21
281.3709179461
  0
LINE
  8
AP005-BASE3
 62
8
  6
HIDDEN
 10
97.4140014849
 20
282.5708664128
 11
297.4140014849
 21
282.5708664128
  0
LINE
  8
AP005-BASE3
 62
8
  6
HIDDEN
 10
97.4140014849
 20
282.670862732
 11
297.4140014849
 21
282.670862732
  0
LINE
  8
AP005-ENDCAP-03
 62
8
  6
HIDDEN
 10
102.3640014849
 20
283.095369535
 11
97.3640014849
 21
283.0953584923
  0
LINE
  8
AP005-ENDCAP-13
 62
8
  6
HIDDEN
 10
292.4640014849
 20
283.0953695349
 11
297.4640014849
 21
283.0953584923
  0
LINE
  8
AP005-ENDCAP-12
 62
7
  6
BYLAYER
 10
297.4640014849
 20
283.4844740023
 11
297.4140014849
 21
283.4844740023
  0
LINE
  8
AP005-ENDCAP-13
 62
8
  6
HIDDEN
 10
297.4140014849
 20
283.4844740023
 11
292.7640014849
 21
283.4844740023
  0
LINE
  8
AP005-ENDCAP-03
 62
8
  6
HIDDEN
 10
97.4140014849
 20
283.4844740024
 11
102.0640014849
 21
283.4844740024
  0
LINE
  8
AP005-ENDCAP-02
 62
7
  6
BYLAYER
 10
97.3640014849
 20
283.4844740024
 11
97.4140014849
 21
283.4844740024
  0
LINE
  8
AP005-ENDCAP-12
 62
7
  6
BYLAYER
 10
297.4640014849
 20
283.4953732158
 11
297.4140014849
 21
283.4953732158
  0
LINE
  8
AP005-ENDCAP-13
 62
8
  6
HIDDEN
 10
297.4140014849
 20
283.4953732158
 11
292.7640014849
 21
283.4953732158
  0
LINE
  8
AP005-ENDCAP-03
 62
8
  6
HIDDEN
 10
97.4140014849
 20
283.4953732158
 11
102.0640014849
 21
283.4953732158
  0
LINE
  8
AP005-ENDCAP-02
 62
7
  6
BYLAYER
 10
97.3640014849
 20
283.4953732158
 11
97.4140014849
 21
283.4953732158
  0
LINE
  8
AP005-BASE3
 62
8
  6
HIDDEN
 10
97.4140014849
 20
283.5708627314
 11
297.4140014849
 21
283.5708627314
  0
LINE
  8
AP005-ENDCAP-13
 62
8
  6
HIDDEN
 10
299.9640014849
 20
283.5709087424
 11
297.4640014849
 21
283.5708627321
  0
LINE
  8
AP005-ENDCAP-03
 62
8
  6
HIDDEN
 10
94.8640014849
 20
283.5709087424
 11
97.3640014849
 21
283.5708627314
  0
LINE
  8
AP005-BASE3
 62
8
  6
HIDDEN
 10
97.4140014849
 20
283.8960663979
 11
297.4140014849
 21
283.8960663979
  0
LINE
  8
AP005-BASE3
 62
8
  6
HIDDEN
 10
97.4140014849
 20
283.9458211098
 11
297.4140014849
 21
283.9458211098
  0
LINE
  8
AP005-ENDCAP-02
 62
7
  6
BYLAYER
 10
97.3640014849
 20
284.8101370344
 11
95.3640014849
 21
284.8101370344
  0
LINE
  8
AP005-BASE2
 62
7
  6
BYLAYER
 10
97.4140014849
 20
284.8101370344
 11
297.4140014849
 21
284.8101370344
  0
LINE
  8
AP005-ENDCAP-12
 62
7
  6
BYLAYER
 10
297.4640014849
 20
284.8101370345
 11
299.4640014849
 21
284.8101370344
  0
LINE
  8
AP005-ENDCAP-02
 62
7
  6
BYLAYER
 10
97.3640014849
 20
284.8209087424
 11
95.3640014849
 21
284.8209087424
  0
LINE
  8
AP005-BASE2
 62
7
  6
BYLAYER
 10
97.4140014849
 20
284.8209087424
 11
297.4140014849
 21
284.8209087424
  0
LINE
  8
AP005-ENDCAP-12
 62
7
  6
BYLAYER
 10
297.4640014849
 20
284.8209087424
 11
299.4640014849
 21
284.8209087424
  0
POLYLINE
  8
AP005-ENDCAP-03
 62
8
  6
HIDDEN
 66
1
 70
0
  0
VERTEX
  8
AP005-ENDCAP-03
 62
8
  6
HIDDEN
 10
102.0640014849
 20
280.8433149756
  0
VERTEX
  8
AP005-ENDCAP-03
 62
8
  6
HIDDEN
 10
102.1160876721
 20
280.8473057843
  0
VERTEX
  8
AP005-ENDCAP-03
 62
8
  6
HIDDEN
 10
102.1665939945
 20
280.8594500921
  0
VERTEX
  8
AP005-ENDCAP-03
 62
8
  6
HIDDEN
 10
102.2139859422
 20
280.8793727816
  0
VERTEX
  8
AP005-ENDCAP-03
 62
8
  6
HIDDEN
 10
102.2568231472
 20
280.9064640387
  0
VERTEX
  8
AP005-ENDCAP-03
 62
8
  6
HIDDEN
 10
102.2938032411
 20
280.9398972839
  0
VERTEX
  8
AP005-ENDCAP-03
 62
8
  6
HIDDEN
 10
102.3238015827
 20
280.9786537352
  0
VERTEX
  8
AP005-ENDCAP-03
 62
8
  6
HIDDEN
 10
102.3459056278
 20
281.0215528901
  0
VERTEX
  8
AP005-ENDCAP-03
 62
8
  6
HIDDEN
 10
102.3594428717
 20
281.06728803
  0
VERTEX
  8
AP005-ENDCAP-03
 62
8
  6
HIDDEN
 10
102.3640014849
 20
281.1144656867
  0
SEQEND
  0
POLYLINE
  8
AP005-ENDCAP-13
 62
8
  6
HIDDEN
 66
1
 70
0
  0
VERTEX
  8
AP005-ENDCAP-13
 62
8
  6
HIDDEN
 10
292.7640014849
 20
280.8433149748
  0
VERTEX
  8
AP005-ENDCAP-13
 62
8
  6
HIDDEN
 10
292.7119143445
 20
280.8475515784
  0
VERTEX
  8
AP005-ENDCAP-13
 62
8
  6
HIDDEN
 10
292.6614074126
 20
280.8598572638
  0
VERTEX
  8
AP005-ENDCAP-13
 62
8
  6
HIDDEN
 10
292.6140152203
 20
280.8798670481
  0
VERTEX
  8
AP005-ENDCAP-13
 62
8
  6
HIDDEN
 10
292.5711781021
 20
280.9069808804
  0
VERTEX
  8
AP005-ENDCAP-13
 62
8
  6
HIDDEN
 10
292.5341983474
 20
280.940381751
  0
VERTEX
  8
AP005-ENDCAP-13
 62
8
  6
HIDDEN
 10
292.5042004798
 20
280.9790604379
  0
VERTEX
  8
AP005-ENDCAP-13
 62
8
  6
HIDDEN
 10
292.4820969026
 20
281.0218461655
  0
VERTEX
  8
AP005-ENDCAP-13
 62
8
  6
HIDDEN
 10
292.4685599871
 20
281.067442256
  0
VERTEX
  8
AP005-ENDCAP-13
 62
8
  6
HIDDEN
 10
292.4640014849
 20
281.114465686
  0
SEQEND
  0
LINE
  8
AP005-DIFFUSE2
 62
7
  6
BYLAYER
 10
282.4140014849
 20
276.1964156132
 11
282.4140014849
 21
254.2454018964
  0
LINE
  8
AP005-ENDCAP-12
 62
7
  6
BYLAYER
 10
282.4640014849
 20
254.2454018588
 11
282.4640014849
 21
276.1964156132
  0
POLYLINE
  8
AP005-ENDCAP-13
 62
8
  6
HIDDEN
 66
1
 70
0
  0
VERTEX
  8
AP005-ENDCAP-13
 62
8
  6
HIDDEN
 10
292.4640014849
 20
280.6937967541
  0
VERTEX
  8
AP005-ENDCAP-13
 62
8
  6
HIDDEN
 10
292.4693495676
 20
280.6381922434
  0
VERTEX
  8
AP005-ENDCAP-13
 62
8
  6
HIDDEN
 10
292.4852072478
 20
280.5845600464
  0
VERTEX
  8
AP005-ENDCAP-13
 62
8
  6
HIDDEN
 10
292.5110039393
 20
280.5348317875
  0
VERTEX
  8
AP005-ENDCAP-13
 62
8
  6
HIDDEN
 10
292.5458498593
 20
280.4907420689
  0
VERTEX
  8
AP005-ENDCAP-13
 62
8
  6
HIDDEN
 10
292.5874929347
 20
280.4546120811
  0
VERTEX
  8
AP005-ENDCAP-13
 62
8
  6
HIDDEN
 10
292.6305456335
 20
280.4288755763
  0
VERTEX
  8
AP005-ENDCAP-13
 62
8
  6
HIDDEN
 10
292.673845237
 20
280.4116683206
  0
VERTEX
  8
AP005-ENDCAP-13
 62
8
  6
HIDDEN
 10
292.7181981148
 20
280.4014629366
  0
VERTEX
  8
AP005-ENDCAP-13
 62
8
  6
HIDDEN
 10
292.7640014849
 20
280.3979949574
  0
SEQEND
  0
POLYLINE
  8
AP005-ENDCAP-13
 62
8
  6
HIDDEN
 66
1
 70
0
  0
VERTEX
  8
AP005-ENDCAP-13
 62
8
  6
HIDDEN
 10
292.4640014849
 20
247.2491690972
  0
VERTEX
  8
AP005-ENDCAP-13
 62
8
  6
HIDDEN
 10
292.468559159
 20
247.1984941154
  0
VERTEX
  8
AP005-ENDCAP-13
 62
8
  6
HIDDEN
 10
292.4820936986
 20
247.1493588672
  0
VERTEX
  8
AP005-ENDCAP-13
 62
8
  6
HIDDEN
 10
292.5041938637
 20
247.1032563023
  0
VERTEX
  8
AP005-ENDCAP-13
 62
8
  6
HIDDEN
 10
292.5341881519
 20
247.0615872238
  0
VERTEX
  8
AP005-ENDCAP-13
 62
8
  6
HIDDEN
 10
292.5711652021
 20
247.0256177256
  0
VERTEX
  8
AP005-ENDCAP-13
 62
8
  6
HIDDEN
 10
292.6140014851
 20
246.9964407227
  0
VERTEX
  8
AP005-ENDCAP-13
 62
8
  6
HIDDEN
 10
292.6613954421
 20
246.9749427437
  0
VERTEX
  8
AP005-ENDCAP-13
 62
8
  6
HIDDEN
 10
292.7119070317
 20
246.9617769937
  0
VERTEX
  8
AP005-ENDCAP-13
 62
8
  6
HIDDEN
 10
292.7640014849
 20
246.9573435073
  0
SEQEND
  0
POLYLINE
  8
AP005-ENDCAP-13
 62
8
  6
HIDDEN
 66
1
 70
0
  0
VERTEX
  8
AP005-ENDCAP-13
 62
8
  6
HIDDEN
 10
292.4640014849
 20
281.3709289887
  0
VERTEX
  8
AP005-ENDCAP-13
 62
8
  6
HIDDEN
 10
292.4685625725
 20
281.3192667081
  0
VERTEX
  8
AP005-ENDCAP-13
 62
8
  6
HIDDEN
 10
292.4821070904
 20
281.2691754845
  0
VERTEX
  8
AP005-ENDCAP-13
 62
8
  6
HIDDEN
 10
292.5042233079
 20
281.2221780832
  0
VERTEX
  8
AP005-ENDCAP-13
 62
8
  6
HIDDEN
 10
292.5342377545
 20
281.1797049041
  0
VERTEX
  8
AP005-ENDCAP-13
 62
8
  6
HIDDEN
 10
292.5712399267
 20
281.1430446819
  0
VERTEX
  8
AP005-ENDCAP-13
 62
8
  6
HIDDEN
 10
292.6140979345
 20
281.1133172308
  0
VERTEX
  8
AP005-ENDCAP-13
 62
8
  6
HIDDEN
 10
292.661516534
 20
281.0914200637
  0
VERTEX
  8
AP005-ENDCAP-13
 62
8
  6
HIDDEN
 10
292.7120293558
 20
281.0780250974
  0
VERTEX
  8
AP005-ENDCAP-13
 62
8
  6
HIDDEN
 10
292.7640014849
 20
281.0735282685
  0
SEQEND
  0
POLYLINE
  8
AP005-ENDCAP-12
 62
7
  6
BYLAYER
 66
1
 70
0
  0
VERTEX
  8
AP005-ENDCAP-12
 62
7
  6
BYLAYER
 10
299.9640014849
 20
284.3144457176
  0
VERTEX
  8
AP005-ENDCAP-12
 62
7
  6
BYLAYER
 10
299.9578456552
 20
284.3919889236
  0
VERTEX
  8
AP005-ENDCAP-12
 62
7
  6
BYLAYER
 10
299.939529743
 20
284.4676227584
  0
VERTEX
  8
AP005-ENDCAP-12
 62
7
  6
BYLAYER
 10
299.909504747
 20
284.5394848662
  0
VERTEX
  8
AP005-ENDCAP-12
 62
7
  6
BYLAYER
 10
299.8685099821
 20
284.6058057633
  0
VERTEX
  8
AP005-ENDCAP-12
 62
7
  6
BYLAYER
 10
299.8175548755
 20
284.6649524091
  0
VERTEX
  8
AP005-ENDCAP-12
 62
7
  6
BYLAYER
 10
299.757894111
 20
284.7154684168
  0
VERTEX
  8
AP005-ENDCAP-12
 62
7
  6
BYLAYER
 10
299.6909967348
 20
284.7561099148
  0
VERTEX
  8
AP005-ENDCAP-12
 62
7
  6
BYLAYER
 10
299.6185099821
 20
284.7858761745
  0
VERTEX
  8
AP005-ENDCAP-12
 62
7
  6
BYLAYER
 10
299.5422187174
 20
284.8040342517
  0
VERTEX
  8
AP005-ENDCAP-12
 62
7
  6
BYLAYER
 10
299.4640014849
 20
284.8101370344
  0
SEQEND
  0
LINE
  8
AP005-ENDCAP-13
 62
8
  6
HIDDEN
 10
292.4640014849
 20
247.2464448136
 11
292.4640014849
 21
249.8227644446
  0
LINE
  8
AP005-ENDCAP-13
 62
8
  6
HIDDEN
 10
292.4640014849
 20
280.6182522625
 11
292.4640014849
 21
283.1945680416
  0
LINE
  8
AP005-ENDCAP-13
 62
8
  6
HIDDEN
 10
292.7640014849
 20
283.4953732158
 11
292.7640014849
 21
280.3182291066
  0
LINE
  8
AP005-ENDCAP-13
 62
8
  6
HIDDEN
 10
292.7640014849
 20
250.1235884144
 11
292.7640014849
 21
246.9464442938
  0
LINE
  8
AP005-BASE2
 62
7
  6
BYLAYER
 10
297.4140014849
 20
284.8209083997
 11
297.4140014849
 21
276.1964156514
  0
LINE
  8
AP005-BASE3
 62
8
  6
HIDDEN
 10
297.4140014849
 20
276.1964156514
 11
297.4140014849
 21
254.2454018582
  0
LINE
  8
AP005-BASE2
 62
7
  6
BYLAYER
 10
297.4140014849
 20
254.2454018582
 11
297.4140014849
 21
245.62090911
  0
LINE
  8
AP005-ENDCAP-12
 62
7
  6
BYLAYER
 10
297.4640014849
 20
284.8209083997
 11
297.4640014849
 21
276.0964156514
  0
LINE
  8
AP005-ENDCAP-13
 62
8
  6
HIDDEN
 10
297.4640014849
 20
276.0964156514
 11
297.4640014849
 21
254.3454018582
  0
LINE
  8
AP005-ENDCAP-12
 62
7
  6
BYLAYER
 10
297.4640014849
 20
254.3454018582
 11
297.4640014849
 21
245.62090911
  0
LINE
  8
AP005-ENDCAP-12
 62
7
  6
BYLAYER
 10
299.4640014849
 20
284.8209087424
 11
299.4640014849
 21
245.6209087672
  0
LINE
  8
AP005-ENDCAP-12
 62
7
  6
BYLAYER
 10
299.9640014849
 20
284.320911043
 11
299.9640014849
 21
246.1209064867
  0
POLYLINE
  8
AP005-ENDCAP-12
 62
7
  6
BYLAYER
 66
1
 70
0
  0
VERTEX
  8
AP005-ENDCAP-12
 62
7
  6
BYLAYER
 10
299.9640014849
 20
246.127371792
  0
VERTEX
  8
AP005-ENDCAP-12
 62
7
  6
BYLAYER
 10
299.9578456552
 20
246.049828586
  0
VERTEX
  8
AP005-ENDCAP-12
 62
7
  6
BYLAYER
 10
299.9395297431
 20
245.9741947511
  0
VERTEX
  8
AP005-ENDCAP-12
 62
7
  6
BYLAYER
 10
299.909504747
 20
245.9023326434
  0
VERTEX
  8
AP005-ENDCAP-12
 62
7
  6
BYLAYER
 10
299.8685099821
 20
245.8360117463
  0
VERTEX
  8
AP005-ENDCAP-12
 62
7
  6
BYLAYER
 10
299.8175548755
 20
245.7768651005
  0
VERTEX
  8
AP005-ENDCAP-12
 62
7
  6
BYLAYER
 10
299.7578941111
 20
245.7263490927
  0
VERTEX
  8
AP005-ENDCAP-12
 62
7
  6
BYLAYER
 10
299.6909967348
 20
245.6857075947
  0
VERTEX
  8
AP005-ENDCAP-12
 62
7
  6
BYLAYER
 10
299.6185099821
 20
245.6559413351
  0
VERTEX
  8
AP005-ENDCAP-12
 62
7
  6
BYLAYER
 10
299.5422187174
 20
245.6377832578
  0
VERTEX
  8
AP005-ENDCAP-12
 62
7
  6
BYLAYER
 10
299.4640014849
 20
245.6316804752
  0
SEQEND
  0
POLYLINE
  8
AP005-ENDCAP-13
 62
8
  6
HIDDEN
 66
1
 70
0
  0
VERTEX
  8
AP005-ENDCAP-13
 62
8
  6
HIDDEN
 10
292.4640014849
 20
249.0708885209
  0
VERTEX
  8
AP005-ENDCAP-13
 62
8
  6
HIDDEN
 10
292.4685625725
 20
249.1225508016
  0
VERTEX
  8
AP005-ENDCAP-13
 62
8
  6
HIDDEN
 10
292.4821070905
 20
249.1726420253
  0
VERTEX
  8
AP005-ENDCAP-13
 62
8
  6
HIDDEN
 10
292.5042233081
 20
249.2196394267
  0
VERTEX
  8
AP005-ENDCAP-13
 62
8
  6
HIDDEN
 10
292.5342377548
 20
249.2621126057
  0
VERTEX
  8
AP005-ENDCAP-13
 62
8
  6
HIDDEN
 10
292.5712399271
 20
249.298772828
  0
VERTEX
  8
AP005-ENDCAP-13
 62
8
  6
HIDDEN
 10
292.614097935
 20
249.328500279
  0
VERTEX
  8
AP005-ENDCAP-13
 62
8
  6
HIDDEN
 10
292.6615165347
 20
249.3503974461
  0
VERTEX
  8
AP005-ENDCAP-13
 62
8
  6
HIDDEN
 10
292.7120293563
 20
249.3637924122
  0
VERTEX
  8
AP005-ENDCAP-13
 62
8
  6
HIDDEN
 10
292.7640014849
 20
249.3682892411
  0
SEQEND
  0
POLYLINE
  8
AP005-ENDCAP-13
 62
8
  6
HIDDEN
 66
1
 70
0
  0
VERTEX
  8
AP005-ENDCAP-13
 62
8
  6
HIDDEN
 10
292.4640014849
 20
283.1926484124
  0
VERTEX
  8
AP005-ENDCAP-13
 62
8
  6
HIDDEN
 10
292.4685591587
 20
283.2433233924
  0
VERTEX
  8
AP005-ENDCAP-13
 62
8
  6
HIDDEN
 10
292.4820936974
 20
283.2924586391
  0
VERTEX
  8
AP005-ENDCAP-13
 62
8
  6
HIDDEN
 10
292.5041938617
 20
283.3385612039
  0
VERTEX
  8
AP005-ENDCAP-13
 62
8
  6
HIDDEN
 10
292.534188151
 20
283.3802302846
  0
VERTEX
  8
AP005-ENDCAP-13
 62
8
  6
HIDDEN
 10
292.5711652039
 20
283.4161997855
  0
VERTEX
  8
AP005-ENDCAP-13
 62
8
  6
HIDDEN
 10
292.6140014891
 20
283.4453767891
  0
VERTEX
  8
AP005-ENDCAP-13
 62
8
  6
HIDDEN
 10
292.661395446
 20
283.4668747672
  0
VERTEX
  8
AP005-ENDCAP-13
 62
8
  6
HIDDEN
 10
292.7119070339
 20
283.4800405162
  0
VERTEX
  8
AP005-ENDCAP-13
 62
8
  6
HIDDEN
 10
292.7640014849
 20
283.4844740023
  0
SEQEND
  0
POLYLINE
  8
AP005-ENDCAP-13
 62
8
  6
HIDDEN
 66
1
 70
0
  0
VERTEX
  8
AP005-ENDCAP-13
 62
8
  6
HIDDEN
 10
292.4640014849
 20
249.7480207555
  0
VERTEX
  8
AP005-ENDCAP-13
 62
8
  6
HIDDEN
 10
292.4693495674
 20
249.8036252651
  0
VERTEX
  8
AP005-ENDCAP-13
 62
8
  6
HIDDEN
 10
292.485207247
 20
249.8572574612
  0
VERTEX
  8
AP005-ENDCAP-13
 62
8
  6
HIDDEN
 10
292.5110039376
 20
249.9069857195
  0
VERTEX
  8
AP005-ENDCAP-13
 62
8
  6
HIDDEN
 10
292.5458498559
 20
249.951075437
  0
VERTEX
  8
AP005-ENDCAP-13
 62
8
  6
HIDDEN
 10
292.5874929272
 20
249.9872054231
  0
VERTEX
  8
AP005-ENDCAP-13
 62
8
  6
HIDDEN
 10
292.6305456204
 20
250.0129419269
  0
VERTEX
  8
AP005-ENDCAP-13
 62
8
  6
HIDDEN
 10
292.673845227
 20
250.0301491859
  0
VERTEX
  8
AP005-ENDCAP-13
 62
8
  6
HIDDEN
 10
292.7181981083
 20
250.040354572
  0
VERTEX
  8
AP005-ENDCAP-13
 62
8
  6
HIDDEN
 10
292.7640014849
 20
250.0438225522
  0
SEQEND
  0
POLYLINE
  8
AP005-ENDCAP-13
 62
8
  6
HIDDEN
 66
1
 70
0
  0
VERTEX
  8
AP005-ENDCAP-13
 62
8
  6
HIDDEN
 10
292.4640014849
 20
280.6937967541
  0
VERTEX
  8
AP005-ENDCAP-13
 62
8
  6
HIDDEN
 10
292.4693495675
 20
280.7285224706
  0
VERTEX
  8
AP005-ENDCAP-13
 62
8
  6
HIDDEN
 10
292.485207247
 20
280.7620164525
  0
VERTEX
  8
AP005-ENDCAP-13
 62
8
  6
HIDDEN
 10
292.5110039376
 20
280.793072376
  0
VERTEX
  8
AP005-ENDCAP-13
 62
8
  6
HIDDEN
 10
292.5458498558
 20
280.8206069599
  0
VERTEX
  8
AP005-ENDCAP-13
 62
8
  6
HIDDEN
 10
292.5874929275
 20
280.8431705913
  0
VERTEX
  8
AP005-ENDCAP-13
 62
8
  6
HIDDEN
 10
292.6305456212
 20
280.8592433622
  0
VERTEX
  8
AP005-ENDCAP-13
 62
8
  6
HIDDEN
 10
292.6738452276
 20
280.869989512
  0
VERTEX
  8
AP005-ENDCAP-13
 62
8
  6
HIDDEN
 10
292.7181981087
 20
280.8763629041
  0
VERTEX
  8
AP005-ENDCAP-13
 62
8
  6
HIDDEN
 10
292.7640014849
 20
280.8785287014
  0
SEQEND
  0
POLYLINE
  8
AP005-ENDCAP-13
 62
8
  6
HIDDEN
 66
1
 70
0
  0
VERTEX
  8
AP005-ENDCAP-13
 62
8
  6
HIDDEN
 10
292.4640014849
 20
249.7480207555
  0
VERTEX
  8
AP005-ENDCAP-13
 62
8
  6
HIDDEN
 10
292.4693495673
 20
249.7132950395
  0
VERTEX
  8
AP005-ENDCAP-13
 62
8
  6
HIDDEN
 10
292.4852072466
 20
249.6798010577
  0
VERTEX
  8
AP005-ENDCAP-13
 62
8
  6
HIDDEN
 10
292.5110039359
 20
249.6487451351
  0
VERTEX
  8
AP005-ENDCAP-13
 62
8
  6
HIDDEN
 10
292.5458498544
 20
249.6212105506
  0
VERTEX
  8
AP005-ENDCAP-13
 62
8
  6
HIDDEN
 10
292.587492928
 20
249.5986469179
  0
VERTEX
  8
AP005-ENDCAP-13
 62
8
  6
HIDDEN
 10
292.6305456263
 20
249.5825741457
  0
VERTEX
  8
AP005-ENDCAP-13
 62
8
  6
HIDDEN
 10
292.6738452315
 20
249.5718279967
  0
VERTEX
  8
AP005-ENDCAP-13
 62
8
  6
HIDDEN
 10
292.7181981118
 20
249.5654546051
  0
VERTEX
  8
AP005-ENDCAP-13
 62
8
  6
HIDDEN
 10
292.7640014849
 20
249.5632888081
  0
SEQEND
  0
LINE
  8
AP005-ENDCAP-13
 62
8
  6
HIDDEN
 10
403.5138634272
 20
246.8709547782
 11
403.5138634272
 21
260.3209087548
  0
LINE
  8
AP005-ENDCAP-12
 62
7
  6
BYLAYER
 10
403.5138634272
 20
260.3209087548
 11
403.5138634272
 21
270.1209087548
  0
LINE
  8
AP005-ENDCAP-13
 62
8
  6
HIDDEN
 10
403.5138634272
 20
270.1209087548
 11
403.5138634272
 21
283.5708627321
  0
LINE
  8
AP005-BASE3
 62
8
  6
HIDDEN
 10
403.5138634272
 20
246.8709547782
 11
403.5138965551
 21
247.7709547776
  0
LINE
  8
AP005-BASE3
 62
8
  6
HIDDEN
 10
403.5138965551
 20
282.6708627317
 11
403.5138634272
 21
283.5708627321
  0
LINE
  8
AP005-ENDCAP-02
 62
7
  6
BYLAYER
 10
403.514693909
 20
283.5709087424
 11
403.514693909
 21
270.1209087548
  0
LINE
  8
AP005-ENDCAP-02
 62
7
  6
BYLAYER
 10
403.514693909
 20
260.3209087548
 11
403.514693909
 21
246.8709087672
  0
LINE
  8
AP005-ENDCAP-13
 62
8
  6
HIDDEN
 10
404.0138634268
 20
246.8709087672
 11
404.0138634268
 21
283.5709087424
  0
LINE
  8
AP005-ENDCAP-02
 62
7
  6
BYLAYER
 10
404.0146939086
 20
283.5709087424
 11
404.014693909
 21
269.8209087548
  0
LINE
  8
AP005-ENDCAP-02
 62
7
  6
BYLAYER
 10
404.0146939085
 20
246.8709087672
 11
404.014693909
 21
260.6209087548
  0
LINE
  8
AP005-BASE3
 62
8
  6
HIDDEN
 10
404.5138514575
 20
283.8960663983
 11
404.5138965544
 21
282.6708995405
  0
LINE
  8
AP005-BASE3
 62
8
  6
HIDDEN
 10
404.5138965544
 20
247.7709179688
 11
404.5138514575
 21
246.5457511117
  0
LINE
  8
AP005-ENDCAP-13
 62
8
  6
HIDDEN
 10
404.8621119198
 20
284.3144457176
 11
404.9276109154
 21
284.8101370344
  0
LINE
  8
AP005-ENDCAP-02
 62
7
  6
BYLAYER
 10
404.8629424015
 20
284.3144457176
 11
404.9284413972
 21
284.8101370344
  0
LINE
  8
AP005-ENDCAP-13
 62
8
  6
HIDDEN
 10
404.8621119197
 20
246.127371792
 11
404.9276109154
 21
245.6316804752
  0
LINE
  8
AP005-ENDCAP-02
 62
7
  6
BYLAYER
 10
404.8629424015
 20
246.127371792
 11
404.9284413971
 21
245.6316804752
  0
LINE
  8
AP005-BASE3
 62
8
  6
HIDDEN
 10
404.7139812146
 20
250.0709106055
 11
404.7143695476
 21
260.6209087548
  0
LINE
  8
AP005-BASE2
 62
7
  6
BYLAYER
 10
404.7143695476
 20
260.6209087548
 11
404.7143695476
 21
269.8209087548
  0
LINE
  8
AP005-BASE3
 62
8
  6
HIDDEN
 10
404.7143695476
 20
269.8209087548
 11
404.7139812146
 21
280.3709069047
  0
LINE
  8
AP005-ENDCAP-13
 62
8
  6
HIDDEN
 10
405.0138809309
 20
283.0953584923
 11
405.0139444055
 21
281.370917946
  0
LINE
  8
AP005-ENDCAP-13
 62
8
  6
HIDDEN
 10
405.0139444055
 20
249.0708995635
 11
405.0138809309
 21
247.3464590173
  0
LINE
  8
AP005-ENDCAP-03
 62
8
  6
HIDDEN
 10
405.0147114127
 20
247.3464590173
 11
405.0147748873
 21
249.0708995635
  0
LINE
  8
AP005-ENDCAP-03
 62
8
  6
HIDDEN
 10
405.0147748873
 20
281.3709179461
 11
405.0147114127
 21
283.0953584923
  0
LINE
  8
AP005-ENDCAP-13
 62
8
  6
HIDDEN
 10
405.3138809307
 20
283.0953695349
 11
405.3139444053
 21
281.3709289887
  0
LINE
  8
AP005-ENDCAP-13
 62
8
  6
HIDDEN
 10
405.3139444053
 20
249.0708885209
 11
405.3138809307
 21
247.3464479746
  0
LINE
  8
AP005-ENDCAP-03
 62
8
  6
HIDDEN
 10
405.3147114125
 20
247.3464479747
 11
405.3147748871
 21
249.0708885209
  0
LINE
  8
AP005-ENDCAP-03
 62
8
  6
HIDDEN
 10
405.3147748871
 20
281.3709289887
 11
405.3147114125
 21
283.095369535
  0
LINE
  8
AP005-BASE3
 62
8
  6
HIDDEN
 10
405.7140373473
 20
278.845943714
 11
405.7143695482
 21
269.8209087548
  0
LINE
  8
AP005-BASE2
 62
7
  6
BYLAYER
 10
405.7143695482
 20
269.8209087548
 11
405.7143695482
 21
260.6209087548
  0
LINE
  8
AP005-BASE3
 62
8
  6
HIDDEN
 10
405.7143695482
 20
260.6209087548
 11
405.7140373473
 21
251.5958737956
  0
LINE
  8
AP005-BASE3
 62
8
  6
HIDDEN
 10
406.9140373465
 20
251.5958296251
 11
406.9140658733
 21
252.3708296245
  0
LINE
  8
AP005-BASE3
 62
8
  6
HIDDEN
 10
406.9140658733
 20
278.0709878851
 11
406.9140373465
 21
278.8459878845
  0
LINE
  8
AP005-BASE3
 62
8
  6
HIDDEN
 10
407.9140401065
 20
278.7710246935
 11
407.9140658727
 21
278.0710246939
  0
LINE
  8
AP005-BASE3
 62
8
  6
HIDDEN
 10
407.9140658727
 20
252.3707928157
 11
407.9140401065
 21
251.6707928162
  0
LINE
  8
AP005-DIFFUSE3
 62
8
  6
HIDDEN
 10
409.8141279842
 20
254.8659087548
 11
409.8141279842
 21
255.5209087548
  0
LINE
  8
AP005-DIFFUSE3
 62
8
  6
HIDDEN
 10
409.8141279842
 20
274.9209087548
 11
409.8141279842
 21
275.5759087548
  0
LINE
  8
AP005-ENDCAP-13
 62
8
  6
HIDDEN
 10
410.7141765019
 20
275.0655667146
 11
410.7149012263
 21
255.3766888188
  0
LINE
  8
AP005-ENDCAP-02
 62
7
  6
BYLAYER
 10
410.7155497172
 20
270.1209087548
 11
410.7151889907
 21
260.3209087548
  0
LINE
  8
AP005-ENDCAP-03
 62
8
  6
HIDDEN
 10
410.7150069837
 20
255.3762507945
 11
410.7151889907
 21
260.3209087548
  0
LINE
  8
AP005-ENDCAP-03
 62
8
  6
HIDDEN
 10
410.7155497172
 20
270.1209087548
 11
410.7157317081
 21
275.0651286901
  0
LINE
  8
AP005-DIFFUSE3
 62
8
  6
HIDDEN
 10
411.3141279842
 20
256.1209087548
 11
411.3141279842
 21
274.3209087548
  0
LINE
  8
AP005-ENDCAP-13
 62
8
  6
HIDDEN
 10
411.8132975025
 20
276.4986543744
 11
411.8132975025
 21
253.9431631284
  0
LINE
  8
AP005-ENDCAP-02
 62
7
  6
BYLAYER
 10
411.8141279842
 20
253.9431631352
 11
411.8141279842
 21
276.4986543811
  0
LINE
  8
AP005-ENDCAP-13
 62
8
  6
HIDDEN
 10
412.3132975025
 20
276.5022021437
 11
412.3132975025
 21
253.9396153589
  0
LINE
  8
AP005-DIFFUSE3
 62
8
  6
HIDDEN
 10
412.3141279842
 20
276.0964156514
 11
412.3141279842
 21
254.3454018582
  0
LINE
  8
AP005-ENDCAP-02
 62
7
  6
BYLAYER
 10
412.3141279842
 20
253.9396153658
 11
412.3141279842
 21
276.5022021507
  0
LINE
  8
AP005-ENDCAP-13
 62
8
  6
HIDDEN
 10
405.3139444053
 20
281.3709289887
 11
405.2745386742
 21
281.0735282685
  0
LINE
  8
AP005-ENDCAP-03
 62
8
  6
HIDDEN
 10
405.3147748871
 20
281.3709289887
 11
405.275369156
 21
281.0735282685
  0
LINE
  8
AP005-ENDCAP-13
 62
8
  6
HIDDEN
 10
409.3295923838
 20
249.7480207555
 11
409.3796053527
 21
250.0438225522
  0
LINE
  8
AP005-ENDCAP-03
 62
8
  6
HIDDEN
 10
409.3304228656
 20
249.7480207555
 11
409.3804358344
 21
250.0438225522
  0
LINE
  8
AP005-ENDCAP-13
 62
8
  6
HIDDEN
 10
405.4370657559
 20
283.1926484124
 11
405.5066202315
 21
283.4844740023
  0
LINE
  8
AP005-ENDCAP-03
 62
8
  6
HIDDEN
 10
405.4378962376
 20
283.1926484124
 11
405.5074507133
 21
283.4844740023
  0
POLYLINE
  8
AP005-ENDCAP-13
 62
8
  6
HIDDEN
 66
1
 70
0
  0
VERTEX
  8
AP005-ENDCAP-13
 62
8
  6
HIDDEN
 10
406.0397431081
 20
280.8433149748
  0
VERTEX
  8
AP005-ENDCAP-13
 62
8
  6
HIDDEN
 10
406.0414498722
 20
280.8475515784
  0
VERTEX
  8
AP005-ENDCAP-13
 62
8
  6
HIDDEN
 10
406.0470861947
 20
280.8598572638
  0
SEQEND
  0
POLYLINE
  8
AP005-ENDCAP-03
 62
8
  6
HIDDEN
 66
1
 70
0
  0
VERTEX
  8
AP005-ENDCAP-03
 62
8
  6
HIDDEN
 10
406.0405735899
 20
249.5985025348
  0
VERTEX
  8
AP005-ENDCAP-03
 62
8
  6
HIDDEN
 10
406.0422803539
 20
249.5942659312
  0
VERTEX
  8
AP005-ENDCAP-03
 62
8
  6
HIDDEN
 10
406.0479166764
 20
249.5819602458
  0
VERTEX
  8
AP005-ENDCAP-03
 62
8
  6
HIDDEN
 10
406.0572956561
 20
249.5619504615
  0
VERTEX
  8
AP005-ENDCAP-03
 62
8
  6
HIDDEN
 10
406.168971961
 20
249.3273518236
  0
SEQEND
  0
LINE
  8
AP005-ENDCAP-13
 62
8
  6
HIDDEN
 10
405.4370657559
 20
247.2491690972
 11
405.5066202315
 21
246.9573435073
  0
LINE
  8
AP005-ENDCAP-03
 62
8
  6
HIDDEN
 10
405.4378962376
 20
247.2491690972
 11
405.5074507133
 21
246.9573435073
  0
LINE
  8
AP005-ENDCAP-13
 62
8
  6
HIDDEN
 10
409.3295923838
 20
280.6937967541
 11
409.3796053527
 21
280.3979949574
  0
LINE
  8
AP005-ENDCAP-03
 62
8
  6
HIDDEN
 10
409.3304228656
 20
280.6937967541
 11
409.3804358344
 21
280.3979949573
  0
LINE
  8
AP005-ENDCAP-13
 62
8
  6
HIDDEN
 10
405.3139444053
 20
249.0708885209
 11
405.2745386742
 21
249.3682892411
  0
LINE
  8
AP005-ENDCAP-03
 62
8
  6
HIDDEN
 10
405.3147748871
 20
249.0708885209
 11
405.275369156
 21
249.3682892411
  0
LINE
  8
AP005-ENDCAP-03
 62
8
  6
HIDDEN
 10
406.0712078039
 20
280.9064640387
 11
406.1689719595
 21
281.1144656867
  0
LINE
  8
AP005-ENDCAP-13
 62
8
  6
HIDDEN
 10
406.0470861947
 20
280.8598572638
 11
406.0692879663
 21
280.9069808804
  0
LINE
  8
AP005-ENDCAP-13
 62
8
  6
HIDDEN
 10
406.0692879663
 20
280.9069808804
 11
406.1681414792
 21
281.114465686
  0
POLYLINE
  8
AP005-ENDCAP-03
 62
8
  6
HIDDEN
 66
1
 70
0
  0
VERTEX
  8
AP005-ENDCAP-03
 62
8
  6
HIDDEN
 10
406.0405735884
 20
280.8433149756
  0
VERTEX
  8
AP005-ENDCAP-03
 62
8
  6
HIDDEN
 10
406.0427992195
 20
280.8473057843
  0
VERTEX
  8
AP005-ENDCAP-03
 62
8
  6
HIDDEN
 10
406.0487757164
 20
280.8594500921
  0
VERTEX
  8
AP005-ENDCAP-03
 62
8
  6
HIDDEN
 10
406.0712078039
 20
280.9064640387
  0
SEQEND
  0
POLYLINE
  8
AP005-ENDCAP-13
 62
8
  6
HIDDEN
 66
1
 70
0
  0
VERTEX
  8
AP005-ENDCAP-13
 62
8
  6
HIDDEN
 10
406.0397431067
 20
249.598502534
  0
VERTEX
  8
AP005-ENDCAP-13
 62
8
  6
HIDDEN
 10
406.0419687377
 20
249.5945117253
  0
VERTEX
  8
AP005-ENDCAP-13
 62
8
  6
HIDDEN
 10
406.0479452347
 20
249.5823674175
  0
SEQEND
  0
LINE
  8
AP005-ENDCAP-13
 62
8
  6
HIDDEN
 10
406.0479452347
 20
249.5823674175
 11
406.0703773221
 21
249.5353534709
  0
LINE
  8
AP005-ENDCAP-13
 62
8
  6
HIDDEN
 10
406.0703773221
 20
249.5353534709
 11
406.1681414778
 21
249.3273518229
  0
LINE
  8
AP005-ENDCAP-13
 62
8
  6
HIDDEN
 10
409.3295923838
 20
280.6937967541
 11
409.5659694292
 21
280.8785287014
  0
LINE
  8
AP005-ENDCAP-03
 62
8
  6
HIDDEN
 10
409.3304228656
 20
280.6937967541
 11
409.5667999111
 21
280.8785287015
  0
LINE
  8
AP005-ENDCAP-13
 62
8
  6
HIDDEN
 10
409.3295923838
 20
249.7480207555
 11
409.5659694293
 21
249.5632888081
  0
LINE
  8
AP005-ENDCAP-03
 62
8
  6
HIDDEN
 10
409.3304228656
 20
249.7480207555
 11
409.566799911
 21
249.5632888082
  0
LINE
  8
AP005-BASE3
 62
8
  6
HIDDEN
 10
412.2124059118
 20
276.3256785006
 11
411.04956361
 21
275.6624303744
  0
LINE
  8
AP005-ENDCAP-13
 62
8
  6
HIDDEN
 10
412.1645835495
 20
276.1832796197
 11
410.9664543286
 21
275.4999049612
  0
LINE
  8
AP005-DIFFUSE3
 62
8
  6
HIDDEN
 10
411.0991080451
 20
275.5755664063
 11
412.1645835497
 21
276.1832796198
  0
LINE
  8
AP005-ENDCAP-03
 62
8
  6
HIDDEN
 10
410.9680415094
 20
275.4994483633
 11
412.1654204263
 21
276.1822782526
  0
LINE
  8
AP005-BASE3
 62
8
  6
HIDDEN
 10
411.0495636102
 20
254.779387135
 11
412.2124059124
 21
254.1161390086
  0
LINE
  8
AP005-ENDCAP-13
 62
8
  6
HIDDEN
 10
410.9672110275
 20
254.9423691464
 11
412.1680109132
 21
254.2573811331
  0
LINE
  8
AP005-DIFFUSE3
 62
8
  6
HIDDEN
 10
412.1645835497
 20
254.2585378898
 11
411.0991080448
 21
254.8662511034
  0
LINE
  8
AP005-ENDCAP-03
 62
8
  6
HIDDEN
 10
412.1654140314
 20
254.2585378898
 11
410.9672848108
 21
254.9419125481
  0
LINE
  8
AP005-ENDCAP-13
 62
8
  6
HIDDEN
 10
404.0138634268
 20
246.8709087672
 11
403.5138634272
 21
246.8709087672
  0
LINE
  8
AP005-ENDCAP-02
 62
7
  6
BYLAYER
 10
404.0146939085
 20
246.8709087672
 11
403.514693909
 21
246.8709087673
  0
LINE
  8
AP005-ENDCAP-03
 62
8
  6
HIDDEN
 10
405.3147114125
 20
247.3464479747
 11
405.0147114127
 21
247.3464590173
  0
LINE
  8
AP005-ENDCAP-13
 62
8
  6
HIDDEN
 10
405.3138809307
 20
247.3464479746
 11
405.0147114127
 21
247.3464589867
  0
LINE
  8
AP005-BASE3
 62
8
  6
HIDDEN
 10
403.6139002359
 20
247.8709510967
 11
404.4139002354
 21
247.8709216496
  0
LINE
  8
AP005-ENDCAP-03
 62
8
  6
HIDDEN
 10
405.3147748871
 20
249.0708885209
 11
405.0147748873
 21
249.0708995636
  0
LINE
  8
AP005-ENDCAP-13
 62
8
  6
HIDDEN
 10
405.3139444053
 20
249.0708885209
 11
405.0147748817
 21
249.070899533
  0
LINE
  8
AP005-BASE3
 62
8
  6
HIDDEN
 10
405.507329277
 20
249.8708814032
 11
404.9139738527
 21
249.8709032439
  0
LINE
  8
AP005-BASE3
 62
8
  6
HIDDEN
 10
405.7140373473
 20
251.5958737956
 11
406.9140373465
 21
251.5958296251
  0
LINE
  8
AP005-ENDCAP-02
 62
7
  6
BYLAYER
 10
412.1676862023
 20
253.939870286
 11
411.8141279842
 21
253.9431631352
  0
POLYLINE
  8
AP005-ENDCAP-13
 62
8
  6
HIDDEN
 66
1
 70
0
  0
VERTEX
  8
AP005-ENDCAP-13
 62
8
  6
HIDDEN
 10
412.3132975025
 20
253.9396153589
  0
VERTEX
  8
AP005-ENDCAP-13
 62
8
  6
HIDDEN
 10
412.3071425095
 20
253.9399771818
  0
VERTEX
  8
AP005-ENDCAP-13
 62
8
  6
HIDDEN
 10
412.2888286877
 20
253.9403307483
  0
VERTEX
  8
AP005-ENDCAP-13
 62
8
  6
HIDDEN
 10
412.2178140635
 20
253.9410317547
  0
SEQEND
  0
POLYLINE
  8
AP005-ENDCAP-02
 62
7
  6
BYLAYER
 66
1
 70
0
  0
VERTEX
  8
AP005-ENDCAP-02
 62
7
  6
BYLAYER
 10
412.3141279842
 20
253.9396153658
  0
VERTEX
  8
AP005-ENDCAP-02
 62
7
  6
BYLAYER
 10
412.3079729255
 20
253.9393273707
  0
VERTEX
  8
AP005-ENDCAP-02
 62
7
  6
BYLAYER
 10
412.2896585744
 20
253.9392211421
  0
SEQEND
  0
LINE
  8
AP005-BASE3
 62
8
  6
HIDDEN
 10
407.2140769158
 20
252.6708185817
 11
407.6140769155
 21
252.6708038582
  0
LINE
  8
AP005-DIFFUSE3
 62
8
  6
HIDDEN
 10
410.4098545712
 20
254.5659087548
 11
410.1141279842
 21
254.5659087548
  0
LINE
  8
AP005-DIFFUSE3
 62
8
  6
HIDDEN
 10
410.1141279842
 20
255.8209087548
 11
411.0141279842
 21
255.8209087548
  0
LINE
  8
AP005-ENDCAP-02
 62
7
  6
BYLAYER
 10
410.7151889907
 20
260.3209087548
 11
403.514693909
 21
260.3209087548
  0
LINE
  8
AP005-ENDCAP-02
 62
7
  6
BYLAYER
 10
410.7152000334
 20
260.6209087548
 11
403.814693909
 21
260.6209087548
  0
POLYLINE
  8
AP005-ENDCAP-02
 62
7
  6
BYLAYER
 66
1
 70
0
  0
VERTEX
  8
AP005-ENDCAP-02
 62
7
  6
BYLAYER
 10
412.2896585744
 20
253.9392211421
  0
VERTEX
  8
AP005-ENDCAP-02
 62
7
  6
BYLAYER
 10
412.2186411845
 20
253.9395069168
  0
VERTEX
  8
AP005-ENDCAP-02
 62
7
  6
BYLAYER
 10
412.1676862023
 20
253.939870286
  0
SEQEND
  0
LINE
  8
AP005-ENDCAP-13
 62
8
  6
HIDDEN
 10
412.2178140635
 20
253.9410317547
 11
411.8132975025
 21
253.9431631284
  0
POLYLINE
  8
AP005-ENDCAP-13
 62
8
  6
HIDDEN
 66
1
 70
0
  0
VERTEX
  8
AP005-ENDCAP-13
 62
8
  6
HIDDEN
 10
412.3132975025
 20
276.5022021437
  0
VERTEX
  8
AP005-ENDCAP-13
 62
8
  6
HIDDEN
 10
412.3071424438
 20
276.5024901389
  0
VERTEX
  8
AP005-ENDCAP-13
 62
8
  6
HIDDEN
 10
412.2888280926
 20
276.5025963675
  0
VERTEX
  8
AP005-ENDCAP-13
 62
8
  6
HIDDEN
 10
412.2178107027
 20
276.5023105928
  0
SEQEND
  0
LINE
  8
AP005-ENDCAP-02
 62
7
  6
BYLAYER
 10
412.2896591695
 20
276.5014867613
 11
412.2186445453
 21
276.5007857549
  0
LINE
  8
AP005-ENDCAP-13
 62
8
  6
HIDDEN
 10
412.2178107027
 20
276.5023105928
 11
411.8132975025
 21
276.4986543744
  0
LINE
  8
AP005-ENDCAP-02
 62
7
  6
BYLAYER
 10
412.2186445453
 20
276.5007857549
 11
411.8141279842
 21
276.4986543811
  0
LINE
  8
AP005-ENDCAP-02
 62
7
  6
BYLAYER
 10
403.814693909
 20
269.8209087548
 11
410.7155386745
 21
269.8209087548
  0
LINE
  8
AP005-ENDCAP-02
 62
7
  6
BYLAYER
 10
403.514693909
 20
270.1209087548
 11
410.7155497172
 21
270.1209087548
  0
LINE
  8
AP005-DIFFUSE3
 62
8
  6
HIDDEN
 10
411.0141279842
 20
274.6209087548
 11
410.1141279842
 21
274.6209087548
  0
LINE
  8
AP005-DIFFUSE3
 62
8
  6
HIDDEN
 10
410.1141279842
 20
275.8759087548
 11
410.4098545712
 21
275.8759087548
  0
LINE
  8
AP005-BASE3
 62
8
  6
HIDDEN
 10
407.6140769156
 20
277.7710136514
 11
407.2140769158
 21
277.7709989279
  0
LINE
  8
AP005-BASE3
 62
8
  6
HIDDEN
 10
406.9140373465
 20
278.8459878845
 11
405.7140373473
 21
278.845943714
  0
LINE
  8
AP005-BASE3
 62
8
  6
HIDDEN
 10
404.9139738521
 20
280.5709142657
 11
405.5073292777
 21
280.5709361064
  0
LINE
  8
AP005-ENDCAP-03
 62
8
  6
HIDDEN
 10
405.3147748871
 20
281.3709289887
 11
405.0147748873
 21
281.3709179461
  0
LINE
  8
AP005-ENDCAP-13
 62
8
  6
HIDDEN
 10
405.3139444053
 20
281.3709289887
 11
405.0147748873
 21
281.3709179766
  0
POLYLINE
  8
AP005-ENDCAP-02
 62
7
  6
BYLAYER
 66
1
 70
0
  0
VERTEX
  8
AP005-ENDCAP-02
 62
7
  6
BYLAYER
 10
412.3141279842
 20
276.5022021507
  0
VERTEX
  8
AP005-ENDCAP-02
 62
7
  6
BYLAYER
 10
412.3079729913
 20
276.5018403278
  0
VERTEX
  8
AP005-ENDCAP-02
 62
7
  6
BYLAYER
 10
412.2896591695
 20
276.5014867613
  0
SEQEND
  0
LINE
  8
AP005-BASE3
 62
8
  6
HIDDEN
 10
404.4139002357
 20
282.57089586
 11
403.6139002357
 21
282.5708664129
  0
LINE
  8
AP005-ENDCAP-03
 62
8
  6
HIDDEN
 10
405.3147114125
 20
283.095369535
 11
405.0147114127
 21
283.0953584923
  0
LINE
  8
AP005-ENDCAP-13
 62
8
  6
HIDDEN
 10
405.3138809307
 20
283.0953695349
 11
405.0147114173
 21
283.0953585228
  0
LINE
  8
AP005-ENDCAP-13
 62
8
  6
HIDDEN
 10
404.0138634268
 20
283.5709087424
 11
403.5138634272
 21
283.5709087423
  0
LINE
  8
AP005-ENDCAP-02
 62
7
  6
BYLAYER
 10
404.0146939086
 20
283.5709087424
 11
403.514693909
 21
283.5709087424
  0
CIRCLE
  8
AP0059
 62
3
  6
BYLAYER
 10
541.3872611327
 20
99.5528219353
 40
5.0
  0
CIRCLE
  8
AP0059
 62
3
  6
BYLAYER
 10
541.3872611327
 20
99.5528219353
 40
2.5
  0
ARC
  8
AP005-ENDCAP-12
 62
7
  6
BYLAYER
 10
299.4640014849
 20
246.1209087672
 40
0.5
 50
270.0
 51
360.0
  0
ARC
  8
AP005-ENDCAP-12
 62
7
  6
BYLAYER
 10
299.4640014849
 20
284.3209087424
 40
0.5
 50
0.0
 51
90.0
  0
ARC
  8
AP005-ENDCAP-02
 62
7
  6
BYLAYER
 10
95.3640014849
 20
284.3209087424
 40
0.5
 50
90.0
 51
180.0
  0
ARC
  8
AP005-ENDCAP-02
 62
7
  6
BYLAYER
 10
95.3640014849
 20
246.1209087672
 40
0.5
 50
179.9999999994
 51
270.0
  0
ARC
  8
AP005-ENDCAP-13
 62
8
  6
HIDDEN
 10
292.7640014849
 20
283.1953732158
 40
0.3
 50
90.0
 51
180.0
  0
ARC
  8
AP005-ENDCAP-13
 62
8
  6
HIDDEN
 10
292.7640014849
 20
280.6182290952
 40
0.3
 50
180.0
 51
270.0
  0
ARC
  8
AP005-ENDCAP-13
 62
8
  6
HIDDEN
 10
292.7640014849
 20
249.8235884144
 40
0.3
 50
90.0
 51
180.0
  0
ARC
  8
AP005-ENDCAP-13
 62
8
  6
HIDDEN
 10
292.7640014849
 20
247.2464442938
 40
0.3
 50
180.0
 51
270.0
  0
ARC
  8
AP005-ENDCAP-03
 62
8
  6
HIDDEN
 10
95.1640014849
 20
270.1209087548
 40
0.3
 50
180.0
 51
270.0
  0
ARC
  8
AP005-ENDCAP-03
 62
8
  6
HIDDEN
 10
102.0640014849
 20
247.2464442938
 40
0.3
 50
270.0
 51
360.0
  0
ARC
  8
AP005-ENDCAP-03
 62
8
  6
HIDDEN
 10
102.0640014849
 20
249.8235884144
 40
0.3
 50
0.0
 51
90.0
  0
ARC
  8
AP005-ENDCAP-03
 62
8
  6
HIDDEN
 10
102.0640014849
 20
280.6182290952
 40
0.3
 50
270.0
 51
360.0
  0
ARC
  8
AP005-ENDCAP-03
 62
8
  6
HIDDEN
 10
102.0640014849
 20
283.1953732158
 40
0.3
 50
0.0
 51
90.0
  0
ARC
  8
AP005-ENDCAP-03
 62
8
  6
HIDDEN
 10
95.1640014849
 20
260.3209087548
 40
0.3
 50
90.0
 51
180.0
  0
ARC
  8
AP005-BASE3
 62
8
  6
HIDDEN
 10
403.613896555
 20
247.7709510968
 40
0.1
 50
89.9978909997
 51
179.9978910569
  0
ARC
  8
AP005-BASE3
 62
8
  6
HIDDEN
 10
404.4138965545
 20
247.7709216497
 40
0.1
 50
359.9978909997
 51
89.9978909997
  0
ARC
  8
AP005-ENDCAP-13
 62
8
  6
HIDDEN
 10
404.7638634263
 20
246.8709087672
 40
1.2499999999
 50
180.0000000005
 51
277.5272662075
  0
ARC
  8
AP005-BASE3
 62
8
  6
HIDDEN
 10
404.7638634263
 20
246.8709087672
 40
1.2499999999
 50
269.7184640348
 51
277.527266206
  0
ARC
  8
AP005-ENDCAP-02
 62
7
  6
BYLAYER
 10
404.7646939081
 20
246.8709087672
 40
1.25
 50
179.9999999982
 51
277.5272662054
  0
ARC
  8
AP005-BASE2
 62
7
  6
BYLAYER
 10
404.7638634263
 20
246.8709087672
 40
1.2499999999
 50
179.9978910111
 51
269.7184640348
  0
ARC
  8
AP005-ENDCAP-13
 62
8
  6
HIDDEN
 10
404.7638634263
 20
246.8709087672
 40
0.7499999999
 50
180.0000000001
 51
277.5272662058
  0
ARC
  8
AP005-ENDCAP-02
 62
7
  6
BYLAYER
 10
404.7646939081
 20
246.8709087672
 40
0.75
 50
179.9999999999
 51
277.5272662058
  0
ARC
  8
AP005-ENDCAP-13
 62
8
  6
HIDDEN
 10
405.4138809306
 20
247.3464442938
 40
0.4
 50
179.9978910107
 51
283.4059105411
  0
ARC
  8
AP005-ENDCAP-03
 62
8
  6
HIDDEN
 10
405.4147114124
 20
247.3464442938
 40
0.4
 50
179.9978910105
 51
283.4059105395
  0
ARC
  8
AP005-ENDCAP-13
 62
8
  6
HIDDEN
 10
405.3139444053
 20
249.0708885209
 40
0.3
 50
97.5477514618
 51
179.9978910107
  0
ARC
  8
AP005-ENDCAP-03
 62
8
  6
HIDDEN
 10
405.3147748871
 20
249.0708885209
 40
0.3
 50
97.5477514632
 51
179.997891011
  0
ARC
  8
AP005-ENDCAP-03
 62
8
  6
HIDDEN
 10
405.4147114124
 20
247.3464442938
 40
0.1
 50
179.9978910107
 51
283.4059105416
  0
ARC
  8
AP005-ENDCAP-13
 62
8
  6
HIDDEN
 10
405.4138809306
 20
247.3464442938
 40
0.1
 50
179.9978910107
 51
283.4059105411
  0
ARC
  8
AP005-BASE3
 62
8
  6
HIDDEN
 10
404.5638514574
 20
246.5457492711
 40
0.0499999999
 50
179.997890866
 51
275.6989273867
  0
ARC
  8
AP005-ENDCAP-03
 62
8
  6
HIDDEN
 10
404.9469880635
 20
251.8466285758
 40
2.8
 50
277.5477514618
 51
295.8758647662
  0
ARC
  8
AP005-ENDCAP-13
 62
8
  6
HIDDEN
 10
404.9461575817
 20
251.8466285758
 40
2.8
 50
277.5477514618
 51
295.875864732
  0
ARC
  8
AP005-ENDCAP-13
 62
8
  6
HIDDEN
 10
404.9461575817
 20
251.8466285758
 40
2.5
 50
277.5477514618
 51
295.9402878832
  0
ARC
  8
AP005-ENDCAP-03
 62
8
  6
HIDDEN
 10
404.9469880635
 20
251.8466285758
 40
2.5
 50
277.5477514619
 51
295.9402879204
  0
ARC
  8
AP005-BASE3
 62
8
  6
HIDDEN
 10
405.5074028946
 20
251.870881402
 40
2.0000000001
 50
269.9978910111
 51
291.4226308073
  0
ARC
  8
AP005-BASE3
 62
8
  6
HIDDEN
 10
404.9139812144
 20
250.0709032437
 40
0.1999999999
 50
179.9978909997
 51
269.9978910283
  0
ARC
  8
AP005-ENDCAP-13
 62
8
  6
HIDDEN
 10
403.8141279899
 20
254.0584328613
 40
8.5000000001
 50
277.5272662061
 51
359.1990631599
  0
ARC
  8
AP005-BASE3
 62
8
  6
HIDDEN
 10
403.8141279899
 20
254.0584328613
 40
8.5000000001
 50
277.5272662058
 51
359.1990631599
  0
ARC
  8
AP005-ENDCAP-02
 62
7
  6
BYLAYER
 10
403.8149584717
 20
254.0584328612
 40
8.5
 50
277.5272662058
 51
359.199063207
  0
ARC
  8
AP005-ENDCAP-13
 62
8
  6
HIDDEN
 10
403.8141279899
 20
254.0584328613
 40
8.0000000001
 50
277.5272662058
 51
359.1744127821
  0
ARC
  8
AP005-ENDCAP-02
 62
7
  6
BYLAYER
 10
403.8149584717
 20
254.0584328612
 40
8.0
 50
277.5272662059
 51
359.1744128306
  0
ARC
  8
AP005-BASE3
 62
8
  6
HIDDEN
 10
403.8141279899
 20
254.058432861
 40
7.5999999999
 50
275.6989273792
 51
323.3152429368
  0
ARC
  8
AP005-ENDCAP-13
 62
8
  6
HIDDEN
 10
403.8141279899
 20
254.0584328614
 40
7.3000000002
 50
283.4059105411
 51
321.9918791738
  0
ARC
  8
AP005-ENDCAP-03
 62
8
  6
HIDDEN
 10
403.8149584717
 20
254.0584328612
 40
7.3
 50
283.4059105414
 51
321.9918791752
  0
ARC
  8
AP005-ENDCAP-03
 62
8
  6
HIDDEN
 10
403.8149584717
 20
254.0584328612
 40
7.0
 50
283.4059105416
 51
321.9918791751
  0
ARC
  8
AP005-ENDCAP-13
 62
8
  6
HIDDEN
 10
403.8141279899
 20
254.0584328614
 40
7.0000000002
 50
283.4059105411
 51
321.991879174
  0
ARC
  8
AP005-ENDCAP-02
 62
7
  6
BYLAYER
 10
403.814693909
 20
260.3209087548
 40
0.3
 50
90.0
 51
179.9999999999
  0
ARC
  8
AP005-BASE3
 62
8
  6
HIDDEN
 10
407.2140658731
 20
252.3708185819
 40
0.3
 50
89.9978909997
 51
179.9978910187
  0
ARC
  8
AP005-BASE3
 62
8
  6
HIDDEN
 10
407.6140658729
 20
252.3708038584
 40
0.3
 50
359.9978909997
 51
89.9978910188
  0
ARC
  8
AP005-BASE3
 62
8
  6
HIDDEN
 10
407.9141445655
 20
254.5086716022
 40
2.8378787879
 50
269.9978910093
 51
1.829541187
  0
ARC
  8
AP005-ENDCAP-13
 62
8
  6
HIDDEN
 10
403.8141279899
 20
276.3833846484
 40
8.5
 50
0.800936793
 51
82.4727337942
  0
ARC
  8
AP005-BASE3
 62
8
  6
HIDDEN
 10
403.8141279899
 20
276.3833846484
 40
8.5
 50
0.800936793
 51
82.4727337981
  0
ARC
  8
AP005-ENDCAP-02
 62
7
  6
BYLAYER
 10
403.8149584717
 20
276.3833846483
 40
8.5000000001
 50
0.8009368401
 51
82.4727337942
  0
ARC
  8
AP005-ENDCAP-13
 62
8
  6
HIDDEN
 10
403.8141279899
 20
276.3833846484
 40
8.0
 50
0.8255871694
 51
82.4727337941
  0
ARC
  8
AP005-ENDCAP-02
 62
7
  6
BYLAYER
 10
403.8149584717
 20
276.3833846483
 40
8.0000000001
 50
0.8255872179
 51
82.4727337942
  0
ARC
  8
AP005-BASE3
 62
8
  6
HIDDEN
 10
403.8141279899
 20
276.3833846484
 40
7.6
 50
36.6847570605
 51
84.3010726237
  0
ARC
  8
AP005-ENDCAP-13
 62
8
  6
HIDDEN
 10
403.8141279899
 20
276.3833846484
 40
7.3
 50
38.0081208248
 51
76.5940894584
  0
ARC
  8
AP005-ENDCAP-03
 62
8
  6
HIDDEN
 10
403.8149584717
 20
276.3833846482
 40
7.3000000002
 50
38.0081208261
 51
76.594089459
  0
ARC
  8
AP005-ENDCAP-03
 62
8
  6
HIDDEN
 10
403.8149584717
 20
276.3833846482
 40
7.0000000002
 50
38.008120826
 51
76.5940894589
  0
ARC
  8
AP005-ENDCAP-13
 62
8
  6
HIDDEN
 10
403.8141279899
 20
276.3833846484
 40
7.0
 50
38.0081208249
 51
76.5940894584
  0
ARC
  8
AP005-ENDCAP-02
 62
7
  6
BYLAYER
 10
403.814693909
 20
270.1209087548
 40
0.3
 50
179.9999999999
 51
269.9999999999
  0
ARC
  8
AP005-BASE3
 62
8
  6
HIDDEN
 10
404.4138965545
 20
282.6708958599
 40
0.1
 50
270.0021091315
 51
0.0021088491
  0
ARC
  8
AP005-BASE3
 62
8
  6
HIDDEN
 10
403.613896555
 20
282.6708664128
 40
0.1
 50
180.0021091299
 51
270.0021088514
  0
ARC
  8
AP005-ENDCAP-03
 62
8
  6
HIDDEN
 10
404.9469880635
 20
278.5951889338
 40
2.8
 50
64.124135268
 51
82.4522485382
  0
ARC
  8
AP005-ENDCAP-13
 62
8
  6
HIDDEN
 10
404.9461575817
 20
278.5951889338
 40
2.8
 50
64.1241352338
 51
82.4522485382
  0
ARC
  8
AP005-ENDCAP-13
 62
8
  6
HIDDEN
 10
404.9461575817
 20
278.5951889338
 40
2.5
 50
64.0597120796
 51
82.4522485381
  0
ARC
  8
AP005-ENDCAP-03
 62
8
  6
HIDDEN
 10
404.9469880635
 20
278.5951889338
 40
2.5
 50
64.0597121168
 51
82.4522485382
  0
ARC
  8
AP005-BASE3
 62
8
  6
HIDDEN
 10
405.5074028946
 20
278.5709361078
 40
2.0
 50
68.5773692541
 51
90.0021089692
  0
ARC
  8
AP005-BASE3
 62
8
  6
HIDDEN
 10
404.9139812144
 20
280.3709142659
 40
0.2
 50
90.0021091535
 51
180.0021088263
  0
ARC
  8
AP005-ENDCAP-13
 62
8
  6
HIDDEN
 10
404.7638634263
 20
283.5709087424
 40
1.25
 50
82.4727337946
 51
180.0000000018
  0
ARC
  8
AP005-BASE3
 62
8
  6
HIDDEN
 10
404.7638634263
 20
283.5709087424
 40
1.25
 50
82.4727338212
 51
90.2815360121
  0
ARC
  8
AP005-ENDCAP-02
 62
7
  6
BYLAYER
 10
404.7646939081
 20
283.5709087424
 40
1.2499999999
 50
82.4727337925
 51
179.9999999995
  0
ARC
  8
AP005-BASE2
 62
7
  6
BYLAYER
 10
404.7638634263
 20
283.5709087424
 40
1.25
 50
90.2815360121
 51
180.0021089555
  0
ARC
  8
AP005-ENDCAP-13
 62
8
  6
HIDDEN
 10
404.7638634263
 20
283.5709087424
 40
0.75
 50
82.4727337941
 51
180.0000000001
  0
ARC
  8
AP005-ENDCAP-02
 62
7
  6
BYLAYER
 10
404.7646939081
 20
283.5709087424
 40
0.7499999999
 50
82.4727337942
 51
179.9999999999
  0
ARC
  8
AP005-ENDCAP-13
 62
8
  6
HIDDEN
 10
405.4138809306
 20
283.0953732158
 40
0.4
 50
76.5940894584
 51
180.0021089893
  0
ARC
  8
AP005-ENDCAP-03
 62
8
  6
HIDDEN
 10
405.4147114124
 20
283.0953732158
 40
0.4
 50
76.5940894605
 51
180.0021089872
  0
ARC
  8
AP005-ENDCAP-13
 62
8
  6
HIDDEN
 10
405.3139444053
 20
281.3709289887
 40
0.3
 50
180.0021089893
 51
262.4522485381
  0
ARC
  8
AP005-ENDCAP-03
 62
8
  6
HIDDEN
 10
405.3147748871
 20
281.3709289887
 40
0.3
 50
180.0021089886
 51
262.4522485384
  0
ARC
  8
AP005-ENDCAP-03
 62
8
  6
HIDDEN
 10
405.4147114124
 20
283.0953732158
 40
0.1
 50
76.5940894588
 51
180.0021089892
  0
ARC
  8
AP005-ENDCAP-13
 62
8
  6
HIDDEN
 10
405.4138809306
 20
283.0953732158
 40
0.1
 50
76.5940894584
 51
180.0021089893
  0
ARC
  8
AP005-BASE3
 62
8
  6
HIDDEN
 10
404.5638514574
 20
283.8960682384
 40
0.05
 50
84.3010730354
 51
180.00210854
  0
ARC
  8
AP005-BASE3
 62
8
  6
HIDDEN
 10
407.9141445655
 20
275.9331459075
 40
2.8378787879
 50
358.1704587932
 51
90.0021089907
  0
ARC
  8
AP005-BASE3
 62
8
  6
HIDDEN
 10
407.6140658729
 20
278.0710136512
 40
0.3
 50
270.0021089844
 51
0.0021089955
  0
ARC
  8
AP005-BASE3
 62
8
  6
HIDDEN
 10
407.2140658731
 20
278.0709989277
 40
0.3
 50
180.0021089843
 51
270.0021089954
  0
ARC
  8
AP005-BASE3
 62
8
  6
HIDDEN
 10
408.4293589448
 20
244.4235884136
 40
6.0000000008
 50
78.6914909256
 51
111.4226308063
  0
ARC
  8
AP005-ENDCAP-13
 62
8
  6
HIDDEN
 10
408.4293589448
 20
244.4235884148
 40
5.6999999996
 50
80.4034197638
 51
114.7860372842
  0
ARC
  8
AP005-ENDCAP-03
 62
8
  6
HIDDEN
 10
408.4301894266
 20
244.4235884144
 40
5.7
 50
80.4034197643
 51
114.7860372662
  0
ARC
  8
AP005-ENDCAP-03
 62
8
  6
HIDDEN
 10
408.4301894266
 20
244.4235884144
 40
5.4
 50
80.403419765
 51
114.7553147573
  0
ARC
  8
AP005-ENDCAP-13
 62
8
  6
HIDDEN
 10
408.4293589448
 20
244.4235884148
 40
5.3999999996
 50
80.4034197635
 51
114.7553147767
  0
ARC
  8
AP005-BASE3
 62
8
  6
HIDDEN
 10
409.5078637047
 20
249.8168089256
 40
0.5
 50
323.3152429342
 51
78.6914909237
  0
ARC
  8
AP005-ENDCAP-13
 62
8
  6
HIDDEN
 10
409.3295923838
 20
249.7480207555
 40
0.3
 50
321.9918791738
 51
80.4034197638
  0
ARC
  8
AP005-ENDCAP-03
 62
8
  6
HIDDEN
 10
409.3304228656
 20
249.7480207555
 40
0.3
 50
321.9918791756
 51
80.4034197643
  0
ARC
  8
AP005-DIFFUSE3
 62
8
  6
HIDDEN
 10
410.1141279842
 20
254.8659087548
 40
0.3
 50
180.0
 51
270.0
  0
ARC
  8
AP005-DIFFUSE3
 62
8
  6
HIDDEN
 10
410.1141279842
 20
255.5209087548
 40
0.3
 50
90.0
 51
180.0
  0
ARC
  8
AP005-ENDCAP-03
 62
8
  6
HIDDEN
 10
411.2150069834
 20
255.3762323901
 40
0.5
 50
179.997890951
 51
240.3009446932
  0
ARC
  8
AP005-ENDCAP-13
 62
8
  6
HIDDEN
 10
411.2149012259
 20
255.3767072239
 40
0.5
 50
180.0021090697
 51
240.3051627284
  0
ARC
  8
AP005-DIFFUSE3
 62
8
  6
HIDDEN
 10
410.9504747412
 20
254.6056591982
 40
0.3
 50
60.3009447648
 51
154.2942659052
  0
ARC
  8
AP005-DIFFUSE3
 62
8
  6
HIDDEN
 10
410.4098545712
 20
254.8659087547
 40
0.3
 50
270.0
 51
334.2942659331
  0
ARC
  8
AP005-DIFFUSE3
 62
8
  6
HIDDEN
 10
411.0141279842
 20
256.1209087548
 40
0.3
 50
270.0
 51
360.0
  0
ARC
  8
AP005-BASE3
 62
8
  6
HIDDEN
 10
410.9504747412
 20
254.6056591982
 40
0.1999999999
 50
60.3009447752
 51
181.8295412036
  0
ARC
  8
AP005-BASE3
 62
8
  6
HIDDEN
 10
412.1133170433
 20
253.9424110717
 40
0.2000000001
 50
359.1990612003
 51
60.3009447662
  0
ARC
  8
AP005-ENDCAP-03
 62
8
  6
HIDDEN
 10
412.214958466
 20
254.3454018582
 40
0.1
 50
240.3009446072
 51
352.6106931568
  0
ARC
  8
AP005-DIFFUSE3
 62
8
  6
HIDDEN
 10
412.2141279842
 20
254.3454018582
 40
0.1
 50
240.3009447656
 51
360.0
  0
ARC
  8
AP005-ENDCAP-13
 62
8
  6
HIDDEN
 10
412.2141279842
 20
254.3454018582
 40
0.1
 50
242.3484180389
 51
360.0
  0
ARC
  8
AP005-DIFFUSE3
 62
8
  6
HIDDEN
 10
410.1141279842
 20
274.9209087548
 40
0.3
 50
180.0
 51
270.0
  0
ARC
  8
AP005-DIFFUSE3
 62
8
  6
HIDDEN
 10
410.1141279842
 20
275.5759087548
 40
0.3
 50
90.0
 51
180.0
  0
ARC
  8
AP005-BASE3
 62
8
  6
HIDDEN
 10
408.4293589448
 20
286.0182290952
 40
6.0
 50
248.5773691698
 51
281.3085090729
  0
ARC
  8
AP005-ENDCAP-13
 62
8
  6
HIDDEN
 10
408.4293589448
 20
286.0182290952
 40
5.7
 50
245.2139627338
 51
279.5965802355
  0
ARC
  8
AP005-ENDCAP-03
 62
8
  6
HIDDEN
 10
408.4301894266
 20
286.0182290948
 40
5.6999999996
 50
245.2139627158
 51
279.5965802363
  0
ARC
  8
AP005-ENDCAP-03
 62
8
  6
HIDDEN
 10
408.4301894266
 20
286.0182290948
 40
5.3999999996
 50
245.2446852233
 51
279.5965802365
  0
ARC
  8
AP005-ENDCAP-13
 62
8
  6
HIDDEN
 10
408.4293589448
 20
286.0182290952
 40
5.4
 50
245.2446852427
 51
279.596580235
  0
ARC
  8
AP005-BASE3
 62
8
  6
HIDDEN
 10
409.5078637047
 20
280.625008584
 40
0.5
 50
281.3085090392
 51
36.6847570022
  0
ARC
  8
AP005-ENDCAP-13
 62
8
  6
HIDDEN
 10
409.3295923838
 20
280.6937967541
 40
0.3
 50
279.5965802355
 51
38.0081208248
  0
ARC
  8
AP005-ENDCAP-03
 62
8
  6
HIDDEN
 10
409.3304228656
 20
280.6937967541
 40
0.3
 50
279.5965802349
 51
38.0081208255
  0
ARC
  8
AP005-ENDCAP-03
 62
8
  6
HIDDEN
 10
411.2157317077
 20
275.0651102857
 40
0.5
 50
119.6948372744
 51
179.9978909169
  0
ARC
  8
AP005-ENDCAP-13
 62
8
  6
HIDDEN
 10
411.2141765016
 20
275.0655851195
 40
0.5
 50
119.6990552964
 51
180.0021090405
  0
ARC
  8
AP005-DIFFUSE3
 62
8
  6
HIDDEN
 10
411.0141279842
 20
274.3209087548
 40
0.3
 50
0.0
 51
90.0
  0
ARC
  8
AP005-DIFFUSE3
 62
8
  6
HIDDEN
 10
410.4098545712
 20
275.5759087548
 40
0.3
 50
25.705734085
 51
90.0
  0
ARC
  8
AP005-DIFFUSE3
 62
8
  6
HIDDEN
 10
410.9504747412
 20
275.8361583114
 40
0.3
 50
205.705734085
 51
299.699055301
  0
ARC
  8
AP005-BASE3
 62
8
  6
HIDDEN
 10
410.9504747412
 20
275.8361583114
 40
0.2
 50
178.17045906
 51
299.6990551396
  0
ARC
  8
AP005-BASE3
 62
8
  6
HIDDEN
 10
412.1133170433
 20
276.4994064379
 40
0.2
 50
299.6990550251
 51
0.8009368193
  0
ARC
  8
AP005-ENDCAP-03
 62
8
  6
HIDDEN
 10
412.2149584658
 20
276.0964156511
 40
0.1
 50
7.3893070564
 51
119.9826022449
  0
ARC
  8
AP005-DIFFUSE3
 62
8
  6
HIDDEN
 10
412.2141279842
 20
276.0964156514
 40
0.1
 50
0.0
 51
119.6990552344
  0
ARC
  8
AP005-ENDCAP-13
 62
8
  6
HIDDEN
 10
412.2141279842
 20
276.0964156514
 40
0.1
 50
0.0
 51
119.6990553664
  0
ENDSEC
  0
EOF
