999
DXF file: E:\PTCStandard\library\Profile\AP006\ap006.dxf
999
Pro/ENGINEER 2011310 by Parametric Technology Corporation
  0
SECTION
  2
HEADER
  9
$EXTMAX
 10
297.0
 20
210.0
 30
0.0
  9
$EXTMIN
 10
0.0
 20
0.0
 30
0.0
  9
$LIMMIN
 10
0.0
 20
0.0
  9
$LIMMAX
 10
297.0
 20
210.0
  9
$VIEWCTR
 10
148.5
 20
105.0
  9
$VIEWSIZE
 40
210.0
  9
$CLAYER
  8
0
  9
$LTSCALE
 40
16.335
  9
$CELTYPE
  6
BYLAYER
  9
$DIMSCALE
 40
1.0
  9
$DIMASZ
 40
3.5
  9
$DIMEXO
 40
1.85625
  9
$DIMDLI
 40
11.286
  9
$DIMEXE
 40
5.346
  9
$DIMCEN
 40
2.673
  9
$DIMLFAC
 40
1.0
  9
$DIMBLK
  1
_FILLED
  9
$DIMTXT
 40
3.5
  9
$PDMODE
 70
3
  9
$PDSIZE
 40
8.0
  9
$TILEMODE
 70
1
  0
ENDSEC
  0
SECTION
  2
TABLES
  0
TABLE
  2
LTYPE
 70
6
  0
LTYPE
  2
BYBLOCK
 70
0
  3

 72
65
 73
0
 40
0.0
  0
LTYPE
  2
BYLAYER
 70
0
  3

 72
65
 73
0
 40
0.0
  0
LTYPE
  2
CONTINUOUS
 70
64
  3
Solid line
 72
65
 73
0
 40
0.0
  0
LTYPE
  2
CENTER
 70
64
  3
____ _ ____ _ ____ _ ____ _ ____ _ ____ _ ____
 72
65
 73
4
 40
0.6
 49
0.375
 49
-0.075
 49
0.075
 49
-0.075
  0
LTYPE
  2
HIDDEN
 70
64
  3
- - - - - - - - - - - - - - - - - - - -
 72
65
 73
2
 40
0.2
 49
0.1
 49
-0.1
  0
LTYPE
  2
PHANTOM
 70
64
  3
_____ _ _ _____ _ _ _____ _ _ _____
 72
65
 73
6
 40
0.8
 49
0.45
 49
-0.05
 49
0.1
 49
-0.05
 49
0.1
 49
-0.05
  0
LTYPE
  2
DOT
 70
64
  3
. . . . . . . . . . . . . . . . . . . .
 72
65
 73
2
 40
0.2
 49
0.1
 49
-0.1
  0
LTYPE
  2
DASHED
 70
64
  3
- - - - - - - - - - - - - - - - - - - -
 72
65
 73
2
 40
0.2
 49
0.1
 49
-0.1
  0
ENDTAB
  0
TABLE
  2
LAYER
 70
36
  0
LAYER
  2
0
 70
0
 62
7
  6
CONTINUOUS
  0
LAYER
  2
DEFAULT_1
 70
0
 62
7
  6
CENTER
  0
LAYER
  2
DEFAULT_2
 70
0
 62
8
  6
HIDDEN
  0
LAYER
  2
DEFAULT_3
 70
0
 62
7
  6
PHANTOM
  0
LAYER
  2
AP0069
 70
0
 62
7
  6
CONTINUOUS
  0
LAYER
  2
AP0064
 70
0
 62
7
  6
CONTINUOUS
  0
LAYER
  2
AP006-BASE2
 70
0
 62
7
  6
CONTINUOUS
  0
LAYER
  2
AP006-DIFFUSE2
 70
0
 62
7
  6
CONTINUOUS
  0
LAYER
  2
AP006-BASE3
 70
0
 62
7
  6
CONTINUOUS
  0
LAYER
  2
AP006-DIFFUSE3
 70
0
 62
7
  6
CONTINUOUS
  0
ENDTAB
  0
TABLE
  2
STYLE
 70
1
  0
STYLE
  2
STANDARD
 70
0
 40
0.0
 41
0.85
 50
0.0
 71
0
 42
0.2
  3
SIMHEI.SHX
  4

  0
STYLE
  2
TEXTSTYLE_1
 70
0
 40
0.0
 41
0.8
 50
0.0
 71
0
 42
0.2
  3
gdt
  4

  0
STYLE
  2
TEXTSTYLE_2
 70
0
 40
0.0
 41
1.0
 50
0.0
 71
0
 42
0.2
  3
TXT.TTF
  4

  0
STYLE
  2
TEXTSTYLE_3
 70
0
 40
0.0
 41
1.0
 50
0.0
 71
0
 42
0.2
  3
TXT.TTF
  4

  0
STYLE
  2
TEXTSTYLE_4
 70
0
 40
0.0
 41
1.0
 50
0.0
 71
0
 42
0.2
  3
TXT.TTF
  4

  0
STYLE
  2
TEXTSTYLE_5
 70
0
 40
0.0
 41
1.0
 50
0.0
 71
0
 42
0.2
  3
TXT.TTF
  4

  0
STYLE
  2
TEXTSTYLE_6
 70
0
 40
0.0
 41
1.0
 50
0.0
 71
0
 42
0.2
  3
TXT.TTF
  4

  0
STYLE
  2
TEXTSTYLE_7
 70
0
 40
0.0
 41
0.75
 50
0.0
 71
0
 42
0.2
  3
SIMHEI.SHX
  4

  0
STYLE
  2
TEXTSTYLE_8
 70
0
 40
0.0
 41
0.55
 50
0.0
 71
0
 42
0.2
  3
gdt
  4

  0
ENDTAB
  0
ENDSEC
  0
SECTION
  2
BLOCKS
  0
BLOCK
  8
AP0069
 62
7
  6
BYLAYER
  2
SYMBOL_283_BL0
 70
64
 10
187.39066729
 20
17.432165279
  0
LINE
  8
AP0069
 62
7
  6
BYLAYER
 10
172.003099229
 20
21.2534899335
 11
172.003099229
 21
20.183749348
  0
LINE
  8
AP0069
 62
7
  6
BYLAYER
 10
173.0076411784
 20
20.183749348
 11
173.0076411784
 21
21.2534899335
  0
LINE
  8
AP0069
 62
7
  6
BYLAYER
 10
173.7279308729
 20
21.2534899335
 11
173.7279308729
 21
20.183749348
  0
LINE
  8
AP0069
 62
7
  6
BYLAYER
 10
174.7186741691
 20
20.183749348
 11
174.7186741691
 21
21.2534899335
  0
LINE
  8
AP0069
 62
7
  6
BYLAYER
 10
175.4624215739
 20
21.2534899335
 11
175.4624215739
 21
20.183749348
  0
LINE
  8
AP0069
 62
7
  6
BYLAYER
 10
176.4655836579
 20
20.183749348
 11
176.4655836579
 21
21.2534899335
  0
LINE
  8
AP0069
 62
7
  6
BYLAYER
 10
183.1734291355
 20
13.3165855694
 11
184.5893989873
 21
13.3165855694
  0
LINE
  8
AP0069
 62
7
  6
BYLAYER
 10
184.5893989873
 20
13.3165855694
 11
184.5893989873
 21
13.0874241186
  0
LINE
  8
AP0069
 62
7
  6
BYLAYER
 10
184.5893989873
 20
13.0874241186
 11
183.5348113401
 21
13.0874241186
  0
LINE
  8
AP0069
 62
7
  6
BYLAYER
 10
183.5348113401
 20
13.0874241186
 11
183.5348113401
 21
12.2915568888
  0
LINE
  8
AP0069
 62
7
  6
BYLAYER
 10
183.5348113401
 20
12.2915568888
 11
184.5893989873
 21
12.2915568888
  0
LINE
  8
AP0069
 62
7
  6
BYLAYER
 10
184.5893989873
 20
12.2915568888
 11
184.5893989873
 21
12.0655738215
  0
LINE
  8
AP0069
 62
7
  6
BYLAYER
 10
184.5893989873
 20
12.0655738215
 11
183.5348113401
 21
12.0655738215
  0
LINE
  8
AP0069
 62
7
  6
BYLAYER
 10
183.5348113401
 20
12.0655738215
 11
183.5348113401
 21
11.1206404053
  0
LINE
  8
AP0069
 62
7
  6
BYLAYER
 10
183.5348113401
 20
11.1206404053
 11
184.5893989873
 21
11.1206404053
  0
LINE
  8
AP0069
 62
7
  6
BYLAYER
 10
184.5893989873
 20
11.1206404053
 11
184.5893989873
 21
10.9041924886
  0
LINE
  8
AP0069
 62
7
  6
BYLAYER
 10
184.5893989873
 20
10.9041924886
 11
183.1734291355
 21
10.9041924886
  0
LINE
  8
AP0069
 62
7
  6
BYLAYER
 10
183.1734291355
 20
10.9041924886
 11
183.1734291355
 21
13.3165855694
  0
LINE
  8
AP0069
 62
7
  6
BYLAYER
 10
194.9491811047
 20
12.0957684649
 11
194.9491811047
 21
12.0884581828
  0
ARC
  8
AP0069
 62
7
  6
BYLAYER
 10
196.4116624801
 20
12.065602263
 40
1.4626599626
 50
179.1046442283
 51
200.8922339549
  0
ARC
  8
AP0069
 62
7
  6
BYLAYER
 10
196.1795927734
 20
12.0231149632
 40
1.2314499671
 50
202.8963230435
 51
250.070082015
  0
ARC
  8
AP0069
 62
7
  6
BYLAYER
 10
196.2397038527
 20
12.205524233
 40
1.4234361674
 50
250.2981849841
 51
270.5013647429
  0
LINE
  8
AP0069
 62
7
  6
BYLAYER
 10
196.2521594229
 20
10.782142562
 11
196.3969347916
 21
10.782142562
  0
LINE
  8
AP0069
 62
7
  6
BYLAYER
 10
196.3969347916
 20
10.782142562
 11
196.4964181953
 21
10.7856387838
  0
LINE
  8
AP0069
 62
7
  6
BYLAYER
 10
196.4964181953
 20
10.7856387838
 11
196.595901599
 21
10.7964452877
  0
LINE
  8
AP0069
 62
7
  6
BYLAYER
 10
196.595901599
 20
10.7964452877
 11
196.6972920328
 21
10.8145620737
  0
LINE
  8
AP0069
 62
7
  6
BYLAYER
 10
196.6972920328
 20
10.8145620737
 11
196.8021786885
 21
10.8364929199
  0
LINE
  8
AP0069
 62
7
  6
BYLAYER
 10
196.8021786885
 20
10.8364929199
 11
196.8256987265
 21
10.8434853636
  0
LINE
  8
AP0069
 62
7
  6
BYLAYER
 10
196.8256987265
 20
10.8434853636
 11
196.8528739054
 21
10.8507956457
  0
LINE
  8
AP0069
 62
7
  6
BYLAYER
 10
196.8528739054
 20
10.8507956457
 11
197.0049595562
 21
10.9013319434
  0
LINE
  8
AP0069
 62
7
  6
BYLAYER
 10
197.0049595562
 20
10.9013319434
 11
197.0554958539
 21
10.9232627896
  0
LINE
  8
AP0069
 62
7
  6
BYLAYER
 10
197.0554958539
 20
10.9232627896
 11
197.1061910709
 21
10.9486898577
  0
LINE
  8
AP0069
 62
7
  6
BYLAYER
 10
197.1061910709
 20
10.9486898577
 11
197.1532311467
 21
10.9776131476
  0
LINE
  8
AP0069
 62
7
  6
BYLAYER
 10
197.1532311467
 20
10.9776131476
 11
197.2039263636
 21
11.0100326593
  0
LINE
  8
AP0069
 62
7
  6
BYLAYER
 10
197.2039263636
 20
11.0100326593
 11
197.2328496535
 21
11.2344265348
  0
LINE
  8
AP0069
 62
7
  6
BYLAYER
 10
197.2328496535
 20
11.2344265348
 11
197.0880742849
 21
11.230930313
  0
ARC
  8
AP0069
 62
7
  6
BYLAYER
 10
196.3995503115
 20
12.0489738582
 40
1.0692336058
 50
300.1226166813
 51
310.0863647934
  0
ARC
  8
AP0069
 62
7
  6
BYLAYER
 10
196.3325399137
 20
12.1536782017
 40
1.1934395822
 50
290.9261388757
 51
300.3825747552
  0
ARC
  8
AP0069
 62
7
  6
BYLAYER
 10
196.3363848015
 20
12.0849611882
 40
1.1280763639
 50
282.3564329875
 51
291.9903650689
  0
ARC
  8
AP0069
 62
7
  6
BYLAYER
 10
196.2934981417
 20
12.2655794584
 40
1.3136920916
 50
274.3560974414
 51
282.4978406016
  0
ARC
  8
AP0069
 62
7
  6
BYLAYER
 10
196.455936327
 20
11.9430295487
 40
0.9893333341
 50
247.3413638217
 51
266.3689009432
  0
ARC
  8
AP0069
 62
7
  6
BYLAYER
 10
196.510423193
 20
12.055519209
 40
1.1141528105
 50
229.1447438403
 51
246.9841673426
  0
ARC
  8
AP0069
 62
7
  6
BYLAYER
 10
196.2901480233
 20
11.7989111488
 40
0.7759715032
 50
197.9155448152
 51
229.0523049251
  0
ARC
  8
AP0069
 62
7
  6
BYLAYER
 10
197.2101667634
 20
12.0980360891
 40
1.7433954328
 50
180.1894261358
 51
197.9684336648
  0
LINE
  8
AP0069
 62
7
  6
BYLAYER
 10
195.4667808586
 20
12.092272243
 11
195.4667808586
 21
12.1354982587
  0
ARC
  8
AP0069
 62
7
  6
BYLAYER
 10
196.7442435346
 20
12.157111068
 40
1.2776454915
 50
160.1190365148
 51
180.9692687312
  0
ARC
  8
AP0069
 62
7
  6
BYLAYER
 10
196.4504503665
 20
12.251762745
 40
0.9692354099
 50
135.1351303734
 51
159.4747438859
  0
ARC
  8
AP0069
 62
7
  6
BYLAYER
 10
196.4546173689
 20
12.257948595
 40
0.9678528495
 50
95.5684905603
 51
135.5687020976
  0
LINE
  8
AP0069
 62
7
  6
BYLAYER
 10
196.3607012196
 20
13.2212340642
 11
196.3788180056
 21
13.2212340642
  0
LINE
  8
AP0069
 62
7
  6
BYLAYER
 10
196.3788180056
 20
13.2212340642
 11
196.4185477994
 21
13.2158308122
  0
LINE
  8
AP0069
 62
7
  6
BYLAYER
 10
196.4185477994
 20
13.2158308122
 11
196.4620916534
 21
13.2104275603
  0
LINE
  8
AP0069
 62
7
  6
BYLAYER
 10
196.4620916534
 20
13.2104275603
 11
196.608615133
 21
13.1726047966
  0
ARC
  8
AP0069
 62
7
  6
BYLAYER
 10
196.2920372127
 20
12.1867913782
 40
1.0353983173
 50
63.4314101522
 51
72.196424709
  0
ARC
  8
AP0069
 62
7
  6
BYLAYER
 10
196.2861532888
 20
12.1763870629
 40
1.0473358053
 50
54.371244206
 51
63.3980911646
  0
LINE
  8
AP0069
 62
7
  6
BYLAYER
 10
196.8962588403
 20
13.0276705087
 11
197.0302277051
 21
12.9208768229
  0
LINE
  8
AP0069
 62
7
  6
BYLAYER
 10
197.0302277051
 20
12.9208768229
 11
197.2039263636
 21
12.9208768229
  0
LINE
  8
AP0069
 62
7
  6
BYLAYER
 10
197.2039263636
 20
12.9208768229
 11
197.2908551525
 21
13.1996210564
  0
ARC
  8
AP0069
 62
7
  6
BYLAYER
 10
196.8469139179
 20
12.4867006406
 40
0.8398448303
 50
58.0891485033
 51
67.5454670452
  0
ARC
  8
AP0069
 62
7
  6
BYLAYER
 10
196.6844589983
 20
12.0306052301
 40
1.3236289325
 50
68.5873384549
 51
81.3423857767
  0
LINE
  8
AP0069
 62
7
  6
BYLAYER
 10
196.8837042255
 20
13.3391520923
 11
196.7335256048
 21
13.3553618481
  0
LINE
  8
AP0069
 62
7
  6
BYLAYER
 10
196.7335256048
 20
13.3553618481
 11
196.577784813
 21
13.3661683521
  0
ARC
  8
AP0069
 62
7
  6
BYLAYER
 10
196.5596538813
 20
13.7406686073
 40
0.3749388909
 50
261.6918862418
 51
272.7717347723
  0
ARC
  8
AP0069
 62
7
  6
BYLAYER
 10
196.4872937924
 20
13.7145363501
 40
0.3453507725
 50
260.9563938617
 51
273.01803113
  0
LINE
  8
AP0069
 62
7
  6
BYLAYER
 10
196.4330094444
 20
13.3734786341
 11
196.2882340757
 21
13.3696645739
  0
ARC
  8
AP0069
 62
7
  6
BYLAYER
 10
196.2657921318
 20
11.8495490319
 40
1.5202811917
 50
89.1541858308
 51
110.4524797124
  0
ARC
  8
AP0069
 62
7
  6
BYLAYER
 10
196.1523896409
 20
12.1938086661
 40
1.1581817211
 50
111.1471074556
 51
136.8410387207
  0
ARC
  8
AP0069
 62
7
  6
BYLAYER
 10
196.3021843066
 20
12.0496723956
 40
1.3660461602
 50
136.728707552
 51
157.5391803557
  0
ARC
  8
AP0069
 62
7
  6
BYLAYER
 10
196.1988070613
 20
12.1043884478
 40
1.2496556867
 50
158.0467340334
 51
180.395222912
  0
LINE
  8
AP0069
 62
7
  6
BYLAYER
 10
198.6588314134
 20
12.0957684649
 11
198.6588314134
 21
12.0884581828
  0
ARC
  8
AP0069
 62
7
  6
BYLAYER
 10
200.1213127887
 20
12.065602263
 40
1.4626599627
 50
179.1046442283
 51
200.8922339548
  0
ARC
  8
AP0069
 62
7
  6
BYLAYER
 10
199.8892430821
 20
12.0231149632
 40
1.2314499671
 50
202.8963230435
 51
250.0700820149
  0
ARC
  8
AP0069
 62
7
  6
BYLAYER
 10
199.9493541614
 20
12.205524233
 40
1.4234361674
 50
250.2981849841
 51
270.5013647429
  0
LINE
  8
AP0069
 62
7
  6
BYLAYER
 10
199.9618097315
 20
10.782142562
 11
200.1065851002
 21
10.782142562
  0
LINE
  8
AP0069
 62
7
  6
BYLAYER
 10
200.1065851002
 20
10.782142562
 11
200.2060685039
 21
10.7856387838
  0
LINE
  8
AP0069
 62
7
  6
BYLAYER
 10
200.2060685039
 20
10.7856387838
 11
200.3055519076
 21
10.7964452877
  0
LINE
  8
AP0069
 62
7
  6
BYLAYER
 10
200.3055519076
 20
10.7964452877
 11
200.4069423415
 21
10.8145620737
  0
LINE
  8
AP0069
 62
7
  6
BYLAYER
 10
200.4069423415
 20
10.8145620737
 11
200.5118289971
 21
10.8364929199
  0
LINE
  8
AP0069
 62
7
  6
BYLAYER
 10
200.5118289971
 20
10.8364929199
 11
200.5353490351
 21
10.8434853636
  0
LINE
  8
AP0069
 62
7
  6
BYLAYER
 10
200.5353490351
 20
10.8434853636
 11
200.5625242141
 21
10.8507956457
  0
LINE
  8
AP0069
 62
7
  6
BYLAYER
 10
200.5625242141
 20
10.8507956457
 11
200.7146098648
 21
10.9013319434
  0
LINE
  8
AP0069
 62
7
  6
BYLAYER
 10
200.7146098648
 20
10.9013319434
 11
200.7651461625
 21
10.9232627896
  0
LINE
  8
AP0069
 62
7
  6
BYLAYER
 10
200.7651461625
 20
10.9232627896
 11
200.8158413795
 21
10.9486898577
  0
LINE
  8
AP0069
 62
7
  6
BYLAYER
 10
200.8158413795
 20
10.9486898577
 11
200.8628814553
 21
10.9776131476
  0
LINE
  8
AP0069
 62
7
  6
BYLAYER
 10
200.8628814553
 20
10.9776131476
 11
200.9135766723
 21
11.0100326593
  0
LINE
  8
AP0069
 62
7
  6
BYLAYER
 10
200.9135766723
 20
11.0100326593
 11
200.9424999622
 21
11.2344265348
  0
LINE
  8
AP0069
 62
7
  6
BYLAYER
 10
200.9424999622
 20
11.2344265348
 11
200.7977245935
 21
11.230930313
  0
ARC
  8
AP0069
 62
7
  6
BYLAYER
 10
200.1092006201
 20
12.0489738582
 40
1.0692336058
 50
300.1226166814
 51
310.0863647934
  0
ARC
  8
AP0069
 62
7
  6
BYLAYER
 10
200.0421902223
 20
12.1536782017
 40
1.1934395822
 50
290.9261388756
 51
300.3825747552
  0
ARC
  8
AP0069
 62
7
  6
BYLAYER
 10
200.0460351101
 20
12.0849611882
 40
1.1280763639
 50
282.3564329875
 51
291.990365069
  0
ARC
  8
AP0069
 62
7
  6
BYLAYER
 10
200.0031484503
 20
12.2655794584
 40
1.3136920916
 50
274.3560974413
 51
282.4978406017
  0
ARC
  8
AP0069
 62
7
  6
BYLAYER
 10
200.1655866356
 20
11.9430295487
 40
0.9893333341
 50
247.3413638216
 51
266.3689009432
  0
ARC
  8
AP0069
 62
7
  6
BYLAYER
 10
200.2200735016
 20
12.055519209
 40
1.1141528105
 50
229.1447438403
 51
246.9841673426
  0
ARC
  8
AP0069
 62
7
  6
BYLAYER
 10
199.9997983319
 20
11.7989111488
 40
0.7759715032
 50
197.9155448152
 51
229.0523049251
  0
ARC
  8
AP0069
 62
7
  6
BYLAYER
 10
200.919817072
 20
12.0980360891
 40
1.7433954328
 50
180.1894261358
 51
197.9684336648
  0
LINE
  8
AP0069
 62
7
  6
BYLAYER
 10
199.1764311673
 20
12.092272243
 11
199.1764311673
 21
12.1354982587
  0
ARC
  8
AP0069
 62
7
  6
BYLAYER
 10
200.4538938432
 20
12.157111068
 40
1.2776454915
 50
160.1190365147
 51
180.9692687312
  0
ARC
  8
AP0069
 62
7
  6
BYLAYER
 10
200.1601006751
 20
12.251762745
 40
0.9692354099
 50
135.1351303734
 51
159.4747438859
  0
ARC
  8
AP0069
 62
7
  6
BYLAYER
 10
200.1642676775
 20
12.257948595
 40
0.9678528495
 50
95.5684905604
 51
135.5687020976
  0
LINE
  8
AP0069
 62
7
  6
BYLAYER
 10
200.0703515282
 20
13.2212340642
 11
200.0884683142
 21
13.2212340642
  0
LINE
  8
AP0069
 62
7
  6
BYLAYER
 10
200.0884683142
 20
13.2212340642
 11
200.128198108
 21
13.2158308122
  0
LINE
  8
AP0069
 62
7
  6
BYLAYER
 10
200.128198108
 20
13.2158308122
 11
200.171741962
 21
13.2104275603
  0
LINE
  8
AP0069
 62
7
  6
BYLAYER
 10
200.171741962
 20
13.2104275603
 11
200.3182654417
 21
13.1726047966
  0
ARC
  8
AP0069
 62
7
  6
BYLAYER
 10
200.0008480736
 20
12.1847396359
 40
1.0376084817
 50
54.3289773468
 51
72.1869316133
  0
LINE
  8
AP0069
 62
7
  6
BYLAYER
 10
200.6059091489
 20
13.0276705087
 11
200.7398780137
 21
12.9208768229
  0
LINE
  8
AP0069
 62
7
  6
BYLAYER
 10
200.7398780137
 20
12.9208768229
 11
200.9135766723
 21
12.9208768229
  0
LINE
  8
AP0069
 62
7
  6
BYLAYER
 10
200.9135766723
 20
12.9208768229
 11
201.0005054611
 21
13.1996210564
  0
ARC
  8
AP0069
 62
7
  6
BYLAYER
 10
200.5565642266
 20
12.4867006406
 40
0.8398448303
 50
58.0891485032
 51
67.5454670453
  0
ARC
  8
AP0069
 62
7
  6
BYLAYER
 10
200.3941093069
 20
12.0306052301
 40
1.3236289325
 50
68.5873384549
 51
81.3423857767
  0
LINE
  8
AP0069
 62
7
  6
BYLAYER
 10
200.5933545341
 20
13.3391520923
 11
200.4431759134
 21
13.3553618481
  0
LINE
  8
AP0069
 62
7
  6
BYLAYER
 10
200.4431759134
 20
13.3553618481
 11
200.2874351216
 21
13.3661683521
  0
ARC
  8
AP0069
 62
7
  6
BYLAYER
 10
200.2693041899
 20
13.7406686073
 40
0.3749388909
 50
261.6918862419
 51
272.7717347724
  0
ARC
  8
AP0069
 62
7
  6
BYLAYER
 10
200.196944101
 20
13.7145363501
 40
0.3453507725
 50
260.9563938617
 51
273.01803113
  0
LINE
  8
AP0069
 62
7
  6
BYLAYER
 10
200.142659753
 20
13.3734786341
 11
199.9978843843
 21
13.3696645739
  0
ARC
  8
AP0069
 62
7
  6
BYLAYER
 10
199.9754424404
 20
11.8495490319
 40
1.5202811917
 50
89.1541858308
 51
110.4524797125
  0
ARC
  8
AP0069
 62
7
  6
BYLAYER
 10
199.8620399496
 20
12.1938086661
 40
1.1581817211
 50
111.1471074555
 51
136.8410387208
  0
ARC
  8
AP0069
 62
7
  6
BYLAYER
 10
200.0118346152
 20
12.0496723956
 40
1.3660461601
 50
136.728707552
 51
157.5391803557
  0
ARC
  8
AP0069
 62
7
  6
BYLAYER
 10
199.9084573699
 20
12.1043884478
 40
1.2496556867
 50
158.0467340334
 51
180.3952229121
  0
LINE
  8
AP0069
 62
7
  6
BYLAYER
 10
185.4238835767
 20
13.3448731826
 11
186.9735044549
 21
11.6403061085
  0
LINE
  8
AP0069
 62
7
  6
BYLAYER
 10
186.9735044549
 20
11.6403061085
 11
186.9735044549
 21
13.3448731826
  0
LINE
  8
AP0069
 62
7
  6
BYLAYER
 10
186.9735044549
 20
13.3448731826
 11
187.3361580129
 21
13.3448731826
  0
LINE
  8
AP0069
 62
7
  6
BYLAYER
 10
187.3361580129
 20
13.3448731826
 11
187.3361580129
 21
10.9041924886
  0
LINE
  8
AP0069
 62
7
  6
BYLAYER
 10
187.3361580129
 20
10.9041924886
 11
187.0578905369
 21
10.9041924886
  0
LINE
  8
AP0069
 62
7
  6
BYLAYER
 10
187.0578905369
 20
10.9041924886
 11
185.4766447429
 21
12.6612028905
  0
LINE
  8
AP0069
 62
7
  6
BYLAYER
 10
185.4766447429
 20
12.6612028905
 11
185.4766447429
 21
10.9041924886
  0
LINE
  8
AP0069
 62
7
  6
BYLAYER
 10
185.4766447429
 20
10.9041924886
 11
185.1138322657
 21
10.9041924886
  0
LINE
  8
AP0069
 62
7
  6
BYLAYER
 10
185.1138322657
 20
10.9041924886
 11
185.1138322657
 21
13.3448731826
  0
LINE
  8
AP0069
 62
7
  6
BYLAYER
 10
185.1138322657
 20
13.3448731826
 11
185.4238835767
 21
13.3448731826
  0
LINE
  8
AP0069
 62
7
  6
BYLAYER
 10
198.2122610234
 20
19.7145951409
 11
198.2122610234
 21
20.3244956102
  0
LINE
  8
AP0069
 62
7
  6
BYLAYER
 10
198.2122610234
 20
20.3244956102
 11
194.6466890492
 21
20.3244956102
  0
LINE
  8
AP0069
 62
7
  6
BYLAYER
 10
194.6466890492
 20
20.3244956102
 11
194.6466890492
 21
19.7145951409
  0
LINE
  8
AP0069
 62
7
  6
BYLAYER
 10
194.6466890492
 20
19.7145951409
 11
198.2122610234
 21
19.7145951409
  0
LINE
  8
AP0069
 62
7
  6
BYLAYER
 10
194.6466890492
 20
20.8029639082
 11
198.2122610234
 21
20.8029639082
  0
LINE
  8
AP0069
 62
7
  6
BYLAYER
 10
198.2122610234
 20
20.8029639082
 11
198.2122610234
 21
21.4318375255
  0
LINE
  8
AP0069
 62
7
  6
BYLAYER
 10
198.2122610234
 20
21.4318375255
 11
194.6466890492
 21
21.4318375255
  0
LINE
  8
AP0069
 62
7
  6
BYLAYER
 10
194.6466890492
 20
21.4318375255
 11
194.6466890492
 21
20.8029639082
  0
LINE
  8
AP0069
 62
7
  6
BYLAYER
 10
198.2122610234
 20
22.4829499293
 11
194.6466890492
 21
22.4829499293
  0
LINE
  8
AP0069
 62
7
  6
BYLAYER
 10
194.6466890492
 20
22.4829499293
 11
194.6466890492
 21
21.9106507898
  0
LINE
  8
AP0069
 62
7
  6
BYLAYER
 10
194.6466890492
 20
21.9106507898
 11
198.2122610234
 21
21.9106507898
  0
LINE
  8
AP0069
 62
7
  6
BYLAYER
 10
198.2122610234
 20
21.9106507898
 11
198.2122610234
 21
22.4829499293
  0
LINE
  8
AP0069
 62
7
  6
BYLAYER
 10
168.8044903206
 20
19.2925730867
 11
168.8044903206
 21
15.5290763006
  0
LINE
  8
AP0069
 62
7
  6
BYLAYER
 10
169.6654721497
 20
15.5290763006
 11
168.8044903206
 21
15.5290763006
  0
LINE
  8
AP0069
 62
7
  6
BYLAYER
 10
169.6654721497
 20
15.5322710384
 11
169.6654721497
 21
20.296024396
  0
LINE
  8
AP0069
 62
7
  6
BYLAYER
 10
169.6654721497
 20
20.296024396
 11
170.7624152825
 21
21.4526864959
  0
LINE
  8
AP0069
 62
7
  6
BYLAYER
 10
169.9085327067
 20
21.9481492251
 11
170.7624152825
 21
21.4526864959
  0
LINE
  8
AP0069
 62
7
  6
BYLAYER
 10
167.4168896964
 20
19.0795892699
 11
167.9095267417
 21
18.3725024056
  0
LINE
  8
AP0069
 62
7
  6
BYLAYER
 10
167.524285823
 20
21.5432740355
 11
168.1551341189
 21
20.9308357093
  0
LINE
  8
AP0069
 62
7
  6
BYLAYER
 10
168.1551341189
 20
20.9308357093
 11
170.6512375911
 21
23.4211745083
  0
LINE
  8
AP0069
 62
7
  6
BYLAYER
 10
170.6512375911
 20
23.4211745083
 11
169.5516444449
 21
23.8043660593
  0
LINE
  8
AP0069
 62
7
  6
BYLAYER
 10
170.8698882891
 20
23.0609949743
 11
170.8698882891
 21
22.423625143
  0
LINE
  8
AP0069
 62
7
  6
BYLAYER
 10
170.8757750843
 20
22.4237484388
 11
173.4995998258
 21
22.4787030768
  0
LINE
  8
AP0069
 62
7
  6
BYLAYER
 10
170.8698882891
 20
23.0609949743
 11
173.5850070678
 21
23.0146618894
  0
LINE
  8
AP0069
 62
7
  6
BYLAYER
 10
173.5875758113
 20
23.9522532641
 11
173.5850070678
 21
23.0146618894
  0
LINE
  8
AP0069
 62
7
  6
BYLAYER
 10
174.7262553542
 20
23.7964339582
 11
174.408495688
 21
23.0167941216
  0
LINE
  8
AP0069
 62
7
  6
BYLAYER
 10
174.7262553542
 20
23.7964339582
 11
173.5875758113
 21
23.9522532641
  0
LINE
  8
AP0069
 62
7
  6
BYLAYER
 10
174.408495688
 20
23.0167941216
 11
177.7409705485
 21
23.0422481006
  0
LINE
  8
AP0069
 62
7
  6
BYLAYER
 10
177.7409705485
 20
22.4302054881
 11
174.2434796778
 21
22.4756515376
  0
LINE
  8
AP0069
 62
7
  6
BYLAYER
 10
174.2434796778
 20
22.4756515376
 11
174.082156601
 21
21.7708489399
  0
LINE
  8
AP0069
 62
7
  6
BYLAYER
 10
173.5011050802
 20
22.4852978794
 11
173.3387397531
 21
21.7739448375
  0
LINE
  8
AP0069
 62
7
  6
BYLAYER
 10
173.3387397531
 20
21.7739448375
 11
171.2240291142
 21
21.8298032531
  0
LINE
  8
AP0069
 62
7
  6
BYLAYER
 10
171.2240291142
 20
21.8298032531
 11
171.2147008903
 21
19.6199961192
  0
LINE
  8
AP0069
 62
7
  6
BYLAYER
 10
171.2147008903
 20
19.6199961192
 11
177.267651844
 21
19.6190849419
  0
LINE
  8
AP0069
 62
7
  6
BYLAYER
 10
177.2777132433
 20
21.8265559495
 11
177.267651844
 21
19.6190849419
  0
LINE
  8
AP0069
 62
7
  6
BYLAYER
 10
177.2777132433
 20
21.8265559495
 11
174.082156601
 21
21.7708489399
  0
LINE
  8
AP0069
 62
7
  6
BYLAYER
 10
173.7279308729
 20
21.2534899335
 11
174.7186741691
 21
21.2534899335
  0
LINE
  8
AP0069
 62
7
  6
BYLAYER
 10
175.4748403617
 20
21.2534899335
 11
176.4655836579
 21
21.2534899335
  0
LINE
  8
AP0069
 62
7
  6
BYLAYER
 10
172.0168978822
 20
21.2534899335
 11
173.0076411784
 21
21.2534899335
  0
LINE
  8
AP0069
 62
7
  6
BYLAYER
 10
172.0168978822
 20
20.183749348
 11
173.0076411784
 21
20.183749348
  0
LINE
  8
AP0069
 62
7
  6
BYLAYER
 10
173.7279308729
 20
20.183749348
 11
174.7186741691
 21
20.183749348
  0
LINE
  8
AP0069
 62
7
  6
BYLAYER
 10
175.4748403617
 20
20.183749348
 11
176.4655836579
 21
20.183749348
  0
LINE
  8
AP0069
 62
7
  6
BYLAYER
 10
170.5879526809
 20
18.5111208906
 11
177.5764415533
 21
18.52274541
  0
LINE
  8
AP0069
 62
7
  6
BYLAYER
 10
177.5764415533
 20
18.5370792419
 11
177.5764415533
 21
19.1366043161
  0
LINE
  8
AP0069
 62
7
  6
BYLAYER
 10
177.5764415533
 20
19.1366043161
 11
170.5879526809
 21
19.143874192
  0
LINE
  8
AP0069
 62
7
  6
BYLAYER
 10
170.5879526809
 20
19.1433133924
 11
170.5879526809
 21
18.5111208906
  0
LINE
  8
AP0069
 62
7
  6
BYLAYER
 10
170.993729525
 20
17.8668854157
 11
170.0460232808
 21
16.1030187789
  0
LINE
  8
AP0069
 62
7
  6
BYLAYER
 10
170.0645878538
 20
16.0975802262
 11
171.0035667947
 21
15.8225032602
  0
LINE
  8
AP0069
 62
7
  6
BYLAYER
 10
171.776635388
 20
17.755703518
 11
171.0035667947
 21
15.8225032602
  0
LINE
  8
AP0069
 62
7
  6
BYLAYER
 10
171.776635388
 20
17.755703518
 11
170.993729525
 21
17.8668854157
  0
LINE
  8
AP0069
 62
7
  6
BYLAYER
 10
172.2044899926
 20
17.9842651999
 11
173.0076411784
 21
17.9364439843
  0
LINE
  8
AP0069
 62
7
  6
BYLAYER
 10
173.0079665419
 20
17.9364246115
 11
173.0079665419
 21
16.5038228972
  0
LINE
  8
AP0069
 62
7
  6
BYLAYER
 10
172.2044899926
 20
17.9842651999
 11
172.2044899926
 21
15.9822525527
  0
LINE
  8
AP0069
 62
7
  6
BYLAYER
 10
172.2044899926
 20
15.9822525527
 11
173.555065385
 21
15.7718763711
  0
LINE
  8
AP0069
 62
7
  6
BYLAYER
 10
173.555065385
 20
15.7718763711
 11
175.0074730438
 21
15.7882494022
  0
LINE
  8
AP0069
 62
7
  6
BYLAYER
 10
175.0074730438
 20
15.7882494022
 11
176.0789082235
 21
16.1185054192
  0
LINE
  8
AP0069
 62
7
  6
BYLAYER
 10
176.0789082235
 20
16.1185054192
 11
176.4881222366
 21
16.798685468
  0
LINE
  8
AP0069
 62
7
  6
BYLAYER
 10
176.4881222366
 20
16.798685468
 11
175.6169670309
 21
17.144867862
  0
LINE
  8
AP0069
 62
7
  6
BYLAYER
 10
175.6169670309
 20
17.144867862
 11
175.5086475315
 21
16.6516272846
  0
LINE
  8
AP0069
 62
7
  6
BYLAYER
 10
175.5086475315
 20
16.6516272846
 11
175.1105033369
 21
16.3972462897
  0
LINE
  8
AP0069
 62
7
  6
BYLAYER
 10
175.1105033369
 20
16.3972462897
 11
174.2363432145
 21
16.3453318009
  0
LINE
  8
AP0069
 62
7
  6
BYLAYER
 10
174.2363432145
 20
16.3453318009
 11
173.3545955899
 21
16.3784772053
  0
LINE
  8
AP0069
 62
7
  6
BYLAYER
 10
173.3545955899
 20
16.3784772053
 11
173.0079665419
 21
16.5038228972
  0
LINE
  8
AP0069
 62
7
  6
BYLAYER
 10
174.5525514974
 20
18.3793776554
 11
175.1600886223
 21
17.2120691338
  0
LINE
  8
AP0069
 62
7
  6
BYLAYER
 10
175.1600886223
 20
17.2120691338
 11
174.2359662208
 21
16.9471011762
  0
LINE
  8
AP0069
 62
7
  6
BYLAYER
 10
174.2359662208
 20
16.9471011762
 11
173.6693504488
 21
18.1773316624
  0
LINE
  8
AP0069
 62
7
  6
BYLAYER
 10
173.6693504488
 20
18.1773316624
 11
174.5525514974
 21
18.3793776554
  0
LINE
  8
AP0069
 62
7
  6
BYLAYER
 10
175.8054079588
 20
17.7670450997
 11
176.5282834405
 21
18.1795362389
  0
LINE
  8
AP0069
 62
7
  6
BYLAYER
 10
176.5282834405
 20
18.1795362389
 11
178.1969397739
 21
16.7569714545
  0
LINE
  8
AP0069
 62
7
  6
BYLAYER
 10
178.1969397739
 20
16.7569714545
 11
177.3181446492
 21
16.2179491466
  0
LINE
  8
AP0069
 62
7
  6
BYLAYER
 10
177.3181446492
 20
16.2179491466
 11
175.8054079588
 21
17.7670450997
  0
LINE
  8
AP0069
 62
7
  6
BYLAYER
 10
180.2394464428
 20
18.0526160118
 11
179.4101517445
 21
16.1193390968
  0
LINE
  8
AP0069
 62
7
  6
BYLAYER
 10
179.4101517445
 20
16.1193390968
 11
180.5336809967
 21
15.9410513563
  0
LINE
  8
AP0069
 62
7
  6
BYLAYER
 10
180.5336809967
 20
15.9410513563
 11
181.2216760394
 21
17.8633056619
  0
LINE
  8
AP0069
 62
7
  6
BYLAYER
 10
181.2252445792
 20
17.8732761422
 11
180.2394464428
 21
18.0526160118
  0
LINE
  8
AP0069
 62
7
  6
BYLAYER
 10
182.1733251871
 20
18.2230965681
 11
182.1837483113
 21
16.2652864224
  0
LINE
  8
AP0069
 62
7
  6
BYLAYER
 10
182.1837483113
 20
16.2652864224
 11
182.3941061109
 21
15.8948737753
  0
LINE
  8
AP0069
 62
7
  6
BYLAYER
 10
182.3941061109
 20
15.8948737753
 11
183.1628398868
 21
15.6916085846
  0
LINE
  8
AP0069
 62
7
  6
BYLAYER
 10
183.1628398868
 20
15.6916085846
 11
186.3787427948
 21
15.7015921402
  0
LINE
  8
AP0069
 62
7
  6
BYLAYER
 10
186.3787427948
 20
15.7015921402
 11
186.9905350778
 21
15.8389658643
  0
LINE
  8
AP0069
 62
7
  6
BYLAYER
 10
186.9905350778
 20
15.8389658643
 11
187.4605608723
 21
16.2175422901
  0
LINE
  8
AP0069
 62
7
  6
BYLAYER
 10
187.4605608723
 20
16.2175422901
 11
187.8729723208
 21
17.0278869129
  0
LINE
  8
AP0069
 62
7
  6
BYLAYER
 10
187.8729723208
 20
17.0278869129
 11
186.7753307752
 21
17.4411586369
  0
LINE
  8
AP0069
 62
7
  6
BYLAYER
 10
186.7599839262
 20
17.4469368609
 11
186.6391139231
 21
16.8644766886
  0
LINE
  8
AP0069
 62
7
  6
BYLAYER
 10
186.6391139231
 20
16.8644766886
 11
186.5057336212
 21
16.5825410803
  0
LINE
  8
AP0069
 62
7
  6
BYLAYER
 10
186.5057336212
 20
16.5825410803
 11
186.2253953818
 21
16.3988436585
  0
LINE
  8
AP0069
 62
7
  6
BYLAYER
 10
186.2253953818
 20
16.3988436585
 11
185.5401241301
 21
16.3045988943
  0
LINE
  8
AP0069
 62
7
  6
BYLAYER
 10
185.5401241301
 20
16.3045988943
 11
183.769440721
 21
16.3077936321
  0
LINE
  8
AP0069
 62
7
  6
BYLAYER
 10
183.769440721
 20
16.3077936321
 11
183.3325603309
 21
16.388860103
  0
LINE
  8
AP0069
 62
7
  6
BYLAYER
 10
183.3325603309
 20
16.388860103
 11
183.1816089712
 21
16.5709601559
  0
LINE
  8
AP0069
 62
7
  6
BYLAYER
 10
183.1816089712
 20
16.5709601559
 11
183.1496615935
 21
17.6871216644
  0
LINE
  8
AP0069
 62
7
  6
BYLAYER
 10
183.1496615935
 20
17.6871216644
 11
183.3479411845
 21
18.1221530058
  0
LINE
  8
AP0069
 62
7
  6
BYLAYER
 10
183.3479411845
 20
18.1221530058
 11
182.1733251871
 21
18.2230965681
  0
LINE
  8
AP0069
 62
7
  6
BYLAYER
 10
184.1441252652
 20
18.3081759968
 11
185.1518554522
 21
17.0235672214
  0
LINE
  8
AP0069
 62
7
  6
BYLAYER
 10
185.1518554522
 20
17.0235672214
 11
186.0911308061
 21
17.3886257867
  0
LINE
  8
AP0069
 62
7
  6
BYLAYER
 10
186.0911308061
 20
17.3886257867
 11
185.053118904
 21
18.6084633522
  0
LINE
  8
AP0069
 62
7
  6
BYLAYER
 10
185.053118904
 20
18.6084633522
 11
184.1441252652
 21
18.3081759968
  0
LINE
  8
AP0069
 62
7
  6
BYLAYER
 10
187.6030557327
 20
17.9416065479
 11
189.1978965207
 21
16.3525354582
  0
LINE
  8
AP0069
 62
7
  6
BYLAYER
 10
189.1978965207
 20
16.3525354582
 11
190.1463843284
 21
16.9159692013
  0
LINE
  8
AP0069
 62
7
  6
BYLAYER
 10
190.1160511402
 20
16.8979502646
 11
188.3417293761
 21
18.3882134532
  0
LINE
  8
AP0069
 62
7
  6
BYLAYER
 10
188.3417293761
 20
18.3882134532
 11
187.6030557327
 21
17.9416065479
  0
LINE
  8
AP0069
 62
7
  6
BYLAYER
 10
188.5038967004
 20
23.5098226026
 11
188.5049720021
 21
18.7526878888
  0
LINE
  8
AP0069
 62
7
  6
BYLAYER
 10
188.5049720021
 20
18.7526878888
 11
180.6130954049
 21
18.756789222
  0
LINE
  8
AP0069
 62
7
  6
BYLAYER
 10
180.6130954049
 20
18.756789222
 11
180.6423477417
 21
23.4967059675
  0
LINE
  8
AP0069
 62
7
  6
BYLAYER
 10
180.6423477417
 20
23.4967059675
 11
188.5038967004
 21
23.5098226026
  0
LINE
  8
AP0069
 62
7
  6
BYLAYER
 10
181.624900071
 20
22.8582732949
 11
181.624900071
 21
19.3860722071
  0
LINE
  8
AP0069
 62
7
  6
BYLAYER
 10
181.624900071
 20
19.3860722071
 11
187.4934672559
 21
19.3860722071
  0
LINE
  8
AP0069
 62
7
  6
BYLAYER
 10
187.4934672559
 20
19.3860722071
 11
187.4934672559
 21
22.8582732949
  0
LINE
  8
AP0069
 62
7
  6
BYLAYER
 10
187.4934672559
 20
22.8582732949
 11
181.624900071
 21
22.8582732949
  0
LINE
  8
AP0069
 62
7
  6
BYLAYER
 10
182.4508127063
 20
21.9149577611
 11
184.0868595403
 21
21.9065759647
  0
LINE
  8
AP0069
 62
7
  6
BYLAYER
 10
184.1312447734
 20
22.5598954485
 11
184.0868595403
 21
21.9065759647
  0
LINE
  8
AP0069
 62
7
  6
BYLAYER
 10
185.1216134822
 20
22.4205250133
 11
184.950315929
 21
21.8620600311
  0
LINE
  8
AP0069
 62
7
  6
BYLAYER
 10
184.950315929
 20
21.8620600311
 11
186.7844744916
 21
21.9186776877
  0
LINE
  8
AP0069
 62
7
  6
BYLAYER
 10
186.7844744916
 20
21.9186776877
 11
186.7844744916
 21
21.2927443345
  0
LINE
  8
AP0069
 62
7
  6
BYLAYER
 10
186.7844744916
 20
21.2927443345
 11
184.8191600253
 21
21.3588765728
  0
LINE
  8
AP0069
 62
7
  6
BYLAYER
 10
184.8191600253
 20
21.3588765728
 11
184.6869316888
 21
21.03157871
  0
LINE
  8
AP0069
 62
7
  6
BYLAYER
 10
184.6869316888
 20
21.03157871
 11
186.9699468515
 21
20.2282955971
  0
LINE
  8
AP0069
 62
7
  6
BYLAYER
 10
184.006574194
 20
21.3591526492
 11
182.441228493
 21
21.2971753448
  0
LINE
  8
AP0069
 62
7
  6
BYLAYER
 10
182.3685482087
 20
21.8175182591
 11
182.3685482087
 21
21.3107529803
  0
LINE
  8
AP0069
 62
7
  6
BYLAYER
 10
184.006574194
 20
21.3591526492
 11
183.7195229433
 21
20.8870508835
  0
LINE
  8
AP0069
 62
7
  6
BYLAYER
 10
183.7195229433
 20
20.8870508835
 11
183.2610780733
 21
20.5176593288
  0
LINE
  8
AP0069
 62
7
  6
BYLAYER
 10
183.2610780733
 20
20.5176593288
 11
182.5650245816
 21
20.2477039873
  0
LINE
  8
AP0069
 62
7
  6
BYLAYER
 10
182.5650245816
 20
20.2477039873
 11
181.9576982733
 21
20.1048959923
  0
LINE
  8
AP0069
 62
7
  6
BYLAYER
 10
181.9576982733
 20
20.1048959923
 11
182.350977151
 21
19.8076288594
  0
LINE
  8
AP0069
 62
7
  6
BYLAYER
 10
182.350977151
 20
19.8076288594
 11
182.5987449968
 21
19.5362852581
  0
LINE
  8
AP0069
 62
7
  6
BYLAYER
 10
182.5987449968
 20
19.5362852581
 11
183.3812800819
 21
19.8403749215
  0
LINE
  8
AP0069
 62
7
  6
BYLAYER
 10
183.3812800819
 20
19.8403749215
 11
184.0274157959
 21
20.2281362184
  0
LINE
  8
AP0069
 62
7
  6
BYLAYER
 10
184.0274157959
 20
20.2281362184
 11
184.377536314
 21
20.5698442298
  0
LINE
  8
AP0069
 62
7
  6
BYLAYER
 10
184.377536314
 20
20.5698442298
 11
184.8868002561
 21
20.3603184937
  0
LINE
  8
AP0069
 62
7
  6
BYLAYER
 10
184.8868002561
 20
20.3603184937
 11
185.6766991698
 21
19.972956539
  0
LINE
  8
AP0069
 62
7
  6
BYLAYER
 10
185.6766991698
 20
19.972956539
 11
186.3003701683
 21
19.6026255817
  0
LINE
  8
AP0069
 62
7
  6
BYLAYER
 10
186.3003701683
 20
19.6026255817
 11
186.9699468515
 21
20.2282955971
  0
LINE
  8
AP0069
 62
7
  6
BYLAYER
 10
191.8497312264
 20
23.1575550058
 11
193.7689369651
 21
23.0727776602
  0
LINE
  8
AP0069
 62
7
  6
BYLAYER
 10
193.7729633641
 20
22.4856006695
 11
191.8497312264
 21
22.413432602
  0
LINE
  8
AP0069
 62
7
  6
BYLAYER
 10
191.8497312264
 20
23.1575550058
 11
191.8497312264
 21
22.413432602
  0
LINE
  8
AP0069
 62
7
  6
BYLAYER
 10
194.645746292
 20
23.0742482295
 11
198.2099836074
 21
23.0742482295
  0
LINE
  8
AP0069
 62
7
  6
BYLAYER
 10
198.1385399149
 20
23.9809027086
 11
198.2099836074
 21
23.0742482295
  0
LINE
  8
AP0069
 62
7
  6
BYLAYER
 10
199.0626504272
 20
23.4092644058
 11
199.0626504272
 21
23.0701669116
  0
LINE
  8
AP0069
 62
7
  6
BYLAYER
 10
199.0626504272
 20
23.0701669116
 11
201.1400286623
 21
23.1537780411
  0
LINE
  8
AP0069
 62
7
  6
BYLAYER
 10
201.1400286623
 20
23.1537780411
 11
201.1400286623
 21
22.4090867723
  0
LINE
  8
AP0069
 62
7
  6
BYLAYER
 10
201.1400286623
 20
22.4090867723
 11
199.0626504272
 21
22.4870999034
  0
LINE
  8
AP0069
 62
7
  6
BYLAYER
 10
193.65252439
 20
23.8784265932
 11
193.7689369651
 21
23.0727776602
  0
LINE
  8
AP0069
 62
7
  6
BYLAYER
 10
193.65252439
 20
23.8784265932
 11
194.4542411936
 21
23.8058431789
  0
LINE
  8
AP0069
 62
7
  6
BYLAYER
 10
194.4542411936
 20
23.8058431789
 11
194.925607162
 21
23.7993780596
  0
LINE
  8
AP0069
 62
7
  6
BYLAYER
 10
194.925607162
 20
23.7993780596
 11
194.713014953
 21
23.5890003527
  0
LINE
  8
AP0069
 62
7
  6
BYLAYER
 10
194.713014953
 20
23.5890003527
 11
194.6507175665
 21
23.3889298999
  0
LINE
  8
AP0069
 62
7
  6
BYLAYER
 10
194.6507175665
 20
23.3889298999
 11
194.645746292
 21
23.0742482295
  0
LINE
  8
AP0069
 62
7
  6
BYLAYER
 10
198.1385399149
 20
23.9809027086
 11
198.4923897352
 21
23.9376261119
  0
LINE
  8
AP0069
 62
7
  6
BYLAYER
 10
198.4923897352
 20
23.9376261119
 11
199.040686605
 21
23.9024839964
  0
LINE
  8
AP0069
 62
7
  6
BYLAYER
 10
199.040686605
 20
23.9024839964
 11
199.4711099666
 21
23.8928296407
  0
LINE
  8
AP0069
 62
7
  6
BYLAYER
 10
199.4711099666
 20
23.8928296407
 11
199.1349313692
 21
23.6029773305
  0
LINE
  8
AP0069
 62
7
  6
BYLAYER
 10
199.1349313692
 20
23.6029773305
 11
199.0626504272
 21
23.4092644058
  0
LINE
  8
AP0069
 62
7
  6
BYLAYER
 10
193.7729633641
 20
22.4856006695
 11
193.7729633641
 21
19.7113431474
  0
LINE
  8
AP0069
 62
7
  6
BYLAYER
 10
193.7729633641
 20
19.7113431474
 11
191.4360126851
 21
19.7964521251
  0
LINE
  8
AP0069
 62
7
  6
BYLAYER
 10
191.4360126851
 20
19.0768022987
 11
194.4446097707
 21
19.1642347622
  0
LINE
  8
AP0069
 62
7
  6
BYLAYER
 10
191.4360126851
 20
19.7964521251
 11
191.4360126851
 21
19.0768022987
  0
LINE
  8
AP0069
 62
7
  6
BYLAYER
 10
194.4446097707
 20
19.1642347622
 11
192.8856249484
 21
18.2110586587
  0
LINE
  8
AP0069
 62
7
  6
BYLAYER
 10
192.8856249484
 20
18.2110586587
 11
191.1476797096
 21
17.5297983088
  0
LINE
  8
AP0069
 62
7
  6
BYLAYER
 10
191.1476797096
 20
17.5297983088
 11
191.5070956005
 21
17.3333044563
  0
LINE
  8
AP0069
 62
7
  6
BYLAYER
 10
191.5070956005
 20
17.3333044563
 11
191.8899060965
 21
16.9260350431
  0
LINE
  8
AP0069
 62
7
  6
BYLAYER
 10
191.8958016329
 20
16.9231439055
 11
193.3927895694
 21
17.6695506067
  0
LINE
  8
AP0069
 62
7
  6
BYLAYER
 10
193.3927895694
 20
17.6695506067
 11
194.754546544
 21
18.6008166667
  0
LINE
  8
AP0069
 62
7
  6
BYLAYER
 10
194.754546544
 20
18.6008166667
 11
195.2593075627
 21
19.0912089144
  0
LINE
  8
AP0069
 62
7
  6
BYLAYER
 10
194.1515397899
 20
17.8828318082
 11
196.0891201359
 21
17.8169335367
  0
LINE
  8
AP0069
 62
7
  6
BYLAYER
 10
196.0875508786
 20
17.2944723374
 11
194.1515397899
 21
17.2207521897
  0
LINE
  8
AP0069
 62
7
  6
BYLAYER
 10
194.1515397899
 20
17.8828318082
 11
194.1515397899
 21
17.2207521897
  0
LINE
  8
AP0069
 62
7
  6
BYLAYER
 10
196.0055939357
 20
18.7739183776
 11
196.0803627186
 21
18.1048336279
  0
LINE
  8
AP0069
 62
7
  6
BYLAYER
 10
196.0803627186
 20
18.1048336279
 11
196.0891201359
 21
17.8169335367
  0
LINE
  8
AP0069
 62
7
  6
BYLAYER
 10
196.0055939357
 20
18.7739183776
 11
196.3778726735
 21
18.7405864441
  0
LINE
  8
AP0069
 62
7
  6
BYLAYER
 10
196.3778726735
 20
18.7405864441
 11
196.9293642811
 21
18.7198206486
  0
LINE
  8
AP0069
 62
7
  6
BYLAYER
 10
196.9293642811
 20
18.7198206486
 11
197.2547290221
 21
18.7100875154
  0
LINE
  8
AP0069
 62
7
  6
BYLAYER
 10
197.2547290221
 20
18.7100875154
 11
196.9884669298
 21
18.4698324181
  0
LINE
  8
AP0069
 62
7
  6
BYLAYER
 10
196.9884669298
 20
18.4698324181
 11
196.9293642811
 21
18.2885310496
  0
LINE
  8
AP0069
 62
7
  6
BYLAYER
 10
196.9293642811
 20
18.2885310496
 11
196.9257799263
 21
17.8180844772
  0
LINE
  8
AP0069
 62
7
  6
BYLAYER
 10
196.9257799263
 20
17.8180844772
 11
197.9552744476
 21
17.8392710507
  0
LINE
  8
AP0069
 62
7
  6
BYLAYER
 10
197.9552744476
 20
17.8392710507
 11
198.8390187833
 21
17.8817992022
  0
LINE
  8
AP0069
 62
7
  6
BYLAYER
 10
198.8390187833
 20
17.8817992022
 11
198.8390187833
 21
17.2218762254
  0
LINE
  8
AP0069
 62
7
  6
BYLAYER
 10
198.8390187833
 20
17.2218762254
 11
196.9261695433
 21
17.2915211104
  0
LINE
  8
AP0069
 62
7
  6
BYLAYER
 10
196.9261695433
 20
17.2915211104
 11
196.9261695433
 21
16.4820705969
  0
LINE
  8
AP0069
 62
7
  6
BYLAYER
 10
196.0875508786
 20
17.2944723374
 11
196.0875508786
 21
16.4810706592
  0
LINE
  8
AP0069
 62
7
  6
BYLAYER
 10
196.0875508786
 20
16.4810706592
 11
192.3217537319
 21
16.5545814016
  0
LINE
  8
AP0069
 62
7
  6
BYLAYER
 10
192.3217537319
 20
16.5545814016
 11
192.3217537319
 21
15.82570341
  0
LINE
  8
AP0069
 62
7
  6
BYLAYER
 10
192.3217537319
 20
15.82570341
 11
196.8494958368
 21
15.8948737753
  0
LINE
  8
AP0069
 62
7
  6
BYLAYER
 10
196.8494958368
 20
15.8948737753
 11
200.7279074899
 21
15.8249962539
  0
LINE
  8
AP0069
 62
7
  6
BYLAYER
 10
200.7279074899
 20
15.8249962539
 11
200.7279074899
 21
16.5564755334
  0
LINE
  8
AP0069
 62
7
  6
BYLAYER
 10
200.7279074899
 20
16.5564755334
 11
196.9261695433
 21
16.4820705969
  0
LINE
  8
AP0069
 62
7
  6
BYLAYER
 10
200.8706412816
 20
17.0614594705
 11
199.4256525063
 21
17.7845611664
  0
LINE
  8
AP0069
 62
7
  6
BYLAYER
 10
199.4256525063
 20
17.7845611664
 11
198.3406396911
 21
18.6287706222
  0
LINE
  8
AP0069
 62
7
  6
BYLAYER
 10
198.3406396911
 20
18.6287706222
 11
198.0131790697
 21
19.0912089144
  0
LINE
  8
AP0069
 62
7
  6
BYLAYER
 10
198.8115449317
 20
19.1648676327
 11
199.4240551374
 21
18.6467410221
  0
LINE
  8
AP0069
 62
7
  6
BYLAYER
 10
199.4240551374
 20
18.6467410221
 11
200.2990139443
 21
18.213454712
  0
LINE
  8
AP0069
 62
7
  6
BYLAYER
 10
200.2990139443
 20
18.213454712
 11
201.4670320013
 21
17.9270244396
  0
LINE
  8
AP0069
 62
7
  6
BYLAYER
 10
201.4670320013
 20
17.9270244396
 11
201.1979332844
 21
17.6815308733
  0
LINE
  8
AP0069
 62
7
  6
BYLAYER
 10
201.1979332844
 20
17.6815308733
 11
200.9747009827
 21
17.3508755141
  0
LINE
  8
AP0069
 62
7
  6
BYLAYER
 10
200.9747009827
 20
17.3508755141
 11
200.8706412816
 21
17.0614594705
  0
LINE
  8
AP0069
 62
7
  6
BYLAYER
 10
201.4483208571
 20
19.0683581871
 11
198.8115449317
 21
19.1648676327
  0
LINE
  8
AP0069
 62
7
  6
BYLAYER
 10
201.4483208571
 20
19.7959959997
 11
199.0626504272
 21
19.7110321469
  0
LINE
  8
AP0069
 62
7
  6
BYLAYER
 10
201.4483208571
 20
19.7959959997
 11
201.4483208571
 21
19.0683581871
  0
LINE
  8
AP0069
 62
7
  6
BYLAYER
 10
199.0626504272
 20
22.4870999034
 11
199.0626504272
 21
19.7110321469
  0
LINE
  8
AP0069
 62
7
  6
BYLAYER
 10
202.9506462936
 20
23.6828457747
 11
202.9506462936
 21
15.8309790199
  0
LINE
  8
AP0069
 62
7
  6
BYLAYER
 10
203.3499885149
 20
15.4316367986
 11
207.0175474751
 21
15.4316367986
  0
LINE
  8
AP0069
 62
7
  6
BYLAYER
 10
207.4168896964
 20
15.8309790199
 11
207.4168896964
 21
23.6828457747
  0
LINE
  8
AP0069
 62
7
  6
BYLAYER
 10
207.0175474751
 20
24.082187996
 11
203.3499885149
 21
24.082187996
  0
LINE
  8
AP0069
 62
7
  6
BYLAYER
 10
204.9843481137
 20
22.9097192343
 11
203.5384780433
 21
22.9097192343
  0
LINE
  8
AP0069
 62
7
  6
BYLAYER
 10
203.5384780433
 20
22.9097192343
 11
203.5384780433
 21
22.3977625066
  0
LINE
  8
AP0069
 62
7
  6
BYLAYER
 10
203.5384780433
 20
22.3977625066
 11
204.9295924868
 21
22.3977625066
  0
LINE
  8
AP0069
 62
7
  6
BYLAYER
 10
205.2253839355
 20
22.3977625066
 11
206.8290579467
 21
22.3977625066
  0
LINE
  8
AP0069
 62
7
  6
BYLAYER
 10
206.8290579467
 20
22.3977625066
 11
206.8290579467
 21
22.9097192343
  0
LINE
  8
AP0069
 62
7
  6
BYLAYER
 10
206.8290579467
 20
22.9097192343
 11
205.2788179597
 21
22.9097192343
  0
LINE
  8
AP0069
 62
7
  6
BYLAYER
 10
205.2788179597
 20
22.9097192343
 11
205.3353952672
 21
23.5657101782
  0
LINE
  8
AP0069
 62
7
  6
BYLAYER
 10
205.0378706742
 20
23.6532174115
 11
205.3353952672
 21
23.5657101782
  0
LINE
  8
AP0069
 62
7
  6
BYLAYER
 10
205.0378706742
 20
23.6532174115
 11
204.9843481137
 21
22.9097192343
  0
LINE
  8
AP0069
 62
7
  6
BYLAYER
 10
204.9295924868
 20
22.3977625066
 11
204.8344327249
 21
21.7332570504
  0
LINE
  8
AP0069
 62
7
  6
BYLAYER
 10
205.2253839355
 20
22.3977625066
 11
205.137660443
 21
21.7332570504
  0
LINE
  8
AP0069
 62
7
  6
BYLAYER
 10
205.137660443
 20
21.7332570504
 11
206.7036644892
 21
21.7332570504
  0
LINE
  8
AP0069
 62
7
  6
BYLAYER
 10
206.7036644892
 20
21.7332570504
 11
206.7036644892
 21
21.2213003227
  0
LINE
  8
AP0069
 62
7
  6
BYLAYER
 10
206.7036644892
 20
21.2213003227
 11
205.0531444426
 21
21.2213003227
  0
LINE
  8
AP0069
 62
7
  6
BYLAYER
 10
205.0531444426
 20
21.2213003227
 11
204.8713879099
 21
20.452965889
  0
LINE
  8
AP0069
 62
7
  6
BYLAYER
 10
204.7386663044
 20
21.2213003227
 11
204.5247130945
 21
20.452965889
  0
LINE
  8
AP0069
 62
7
  6
BYLAYER
 10
204.7386663044
 20
21.2213003227
 11
203.6710596608
 21
21.2213003227
  0
LINE
  8
AP0069
 62
7
  6
BYLAYER
 10
203.6710596608
 20
21.7332570504
 11
204.8344327249
 21
21.7332570504
  0
LINE
  8
AP0069
 62
7
  6
BYLAYER
 10
203.6710596608
 20
21.7332570504
 11
203.6710596608
 21
21.2213003227
  0
LINE
  8
AP0069
 62
7
  6
BYLAYER
 10
204.5247130945
 20
20.452965889
 11
203.3947148437
 21
20.452965889
  0
LINE
  8
AP0069
 62
7
  6
BYLAYER
 10
203.3947148437
 20
20.452965889
 11
203.3947148437
 21
19.9402104769
  0
LINE
  8
AP0069
 62
7
  6
BYLAYER
 10
203.3947148437
 20
19.9402104769
 11
204.3558457524
 21
19.9402104769
  0
LINE
  8
AP0069
 62
7
  6
BYLAYER
 10
204.3558457524
 20
19.9402104769
 11
203.3299640311
 21
18.348211457
  0
LINE
  8
AP0069
 62
7
  6
BYLAYER
 10
204.7136133331
 20
19.9402104769
 11
204.3373891862
 21
19.0837225447
  0
LINE
  8
AP0069
 62
7
  6
BYLAYER
 10
204.7136133331
 20
19.9402104769
 11
205.6399660841
 21
19.9402104769
  0
LINE
  8
AP0069
 62
7
  6
BYLAYER
 10
205.6399660841
 20
19.9402104769
 11
205.967472624
 21
19.0279963755
  0
LINE
  8
AP0069
 62
7
  6
BYLAYER
 10
205.9444903516
 20
19.9402104769
 11
206.275569628
 21
19.2788997584
  0
LINE
  8
AP0069
 62
7
  6
BYLAYER
 10
206.275569628
 20
19.2788997584
 11
206.6577401337
 21
18.812468044
  0
LINE
  8
AP0069
 62
7
  6
BYLAYER
 10
206.6577401337
 20
18.812468044
 11
207.0413144634
 21
18.5042480164
  0
LINE
  8
AP0069
 62
7
  6
BYLAYER
 10
205.9444903516
 20
19.9402104769
 11
206.9800093063
 21
19.9402104769
  0
LINE
  8
AP0069
 62
7
  6
BYLAYER
 10
206.9800093063
 20
20.452965889
 11
206.9800093063
 21
19.9402104769
  0
LINE
  8
AP0069
 62
7
  6
BYLAYER
 10
206.9800093063
 20
20.452965889
 11
204.8713879099
 21
20.452965889
  0
LINE
  8
AP0069
 62
7
  6
BYLAYER
 10
206.1853327935
 20
18.6619148434
 11
206.4656565253
 21
18.2813428897
  0
LINE
  8
AP0069
 62
7
  6
BYLAYER
 10
206.4656565253
 20
18.2813428897
 11
206.8594624246
 21
17.8724588365
  0
LINE
  8
AP0069
 62
7
  6
BYLAYER
 10
207.0413144634
 20
18.5042480164
 11
206.8594624246
 21
17.8724588365
  0
LINE
  8
AP0069
 62
7
  6
BYLAYER
 10
206.1853327935
 20
18.6619148434
 11
205.6434485205
 21
17.9918100663
  0
LINE
  8
AP0069
 62
7
  6
BYLAYER
 10
205.4923058969
 20
18.4626774706
 11
205.6434485205
 21
17.9918100663
  0
LINE
  8
AP0069
 62
7
  6
BYLAYER
 10
205.967472624
 20
19.0279963755
 11
205.4923058969
 21
18.4626774706
  0
LINE
  8
AP0069
 62
7
  6
BYLAYER
 10
205.357082519
 20
19.5408682556
 11
205.357082519
 21
16.5707451255
  0
LINE
  8
AP0069
 62
7
  6
BYLAYER
 10
205.357082519
 20
19.5408682556
 11
205.0703548042
 21
19.5408682556
  0
LINE
  8
AP0069
 62
7
  6
BYLAYER
 10
205.0703548042
 20
19.5408682556
 11
205.0703548042
 21
16.9060082796
  0
LINE
  8
AP0069
 62
7
  6
BYLAYER
 10
205.0703548042
 20
16.9060082796
 11
205.0431995331
 21
16.6504292579
  0
LINE
  8
AP0069
 62
7
  6
BYLAYER
 10
205.0431995331
 20
16.6504292579
 11
204.9824995155
 21
16.5290292227
  0
LINE
  8
AP0069
 62
7
  6
BYLAYER
 10
204.9824995155
 20
16.5290292227
 11
204.8638948757
 21
16.475517365
  0
LINE
  8
AP0069
 62
7
  6
BYLAYER
 10
204.8638948757
 20
16.475517365
 11
204.4153072679
 21
16.536979416
  0
LINE
  8
AP0069
 62
7
  6
BYLAYER
 10
204.4153072679
 20
16.536979416
 11
204.4598583163
 21
15.8737256841
  0
LINE
  8
AP0069
 62
7
  6
BYLAYER
 10
204.4598583163
 20
15.8737256841
 11
205.0183414548
 21
15.8576102503
  0
LINE
  8
AP0069
 62
7
  6
BYLAYER
 10
205.0183414548
 20
15.8576102503
 11
205.2368805104
 21
16.0793698815
  0
LINE
  8
AP0069
 62
7
  6
BYLAYER
 10
205.2368805104
 20
16.0793698815
 11
205.357082519
 21
16.5707451255
  0
LINE
  8
AP0069
 62
7
  6
BYLAYER
 10
205.4088888195
 20
17.3997845589
 11
206.6451547917
 21
16.3834703726
  0
LINE
  8
AP0069
 62
7
  6
BYLAYER
 10
206.6451547917
 20
16.3834703726
 11
206.779210551
 21
16.9835294856
  0
LINE
  8
AP0069
 62
7
  6
BYLAYER
 10
206.779210551
 20
16.9835294856
 11
205.5236335336
 21
17.8890611772
  0
LINE
  8
AP0069
 62
7
  6
BYLAYER
 10
205.5236335336
 20
17.8890611772
 11
205.4088888195
 21
17.3997845589
  0
LINE
  8
AP0069
 62
7
  6
BYLAYER
 10
204.9054661369
 20
17.88173218
 11
204.9676745638
 21
17.3479838778
  0
LINE
  8
AP0069
 62
7
  6
BYLAYER
 10
204.9676745638
 20
17.3479838778
 11
203.6993337686
 21
16.509739501
  0
LINE
  8
AP0069
 62
7
  6
BYLAYER
 10
203.6083065515
 20
17.0805202277
 11
203.6993337686
 21
16.509739501
  0
LINE
  8
AP0069
 62
7
  6
BYLAYER
 10
203.6083065515
 20
17.0805202277
 11
204.9054661369
 21
17.88173218
  0
LINE
  8
AP0069
 62
7
  6
BYLAYER
 10
204.8394826967
 20
18.4232505442
 11
204.6626151441
 21
17.9360408575
  0
LINE
  8
AP0069
 62
7
  6
BYLAYER
 10
204.6626151441
 20
17.9360408575
 11
204.1374802152
 21
18.6963589141
  0
LINE
  8
AP0069
 62
7
  6
BYLAYER
 10
204.1374802152
 20
18.6963589141
 11
203.5020400074
 21
17.8043508894
  0
LINE
  8
AP0069
 62
7
  6
BYLAYER
 10
203.3299640311
 20
18.348211457
 11
203.5020400074
 21
17.8043508894
  0
LINE
  8
AP0069
 62
7
  6
BYLAYER
 10
204.3373891862
 20
19.0837225447
 11
204.8394826967
 21
18.4232505442
  0
LINE
  8
AP0069
 62
7
  6
BYLAYER
 10
167.3641495784
 20
13.3480515661
 11
167.805706507
 21
13.3426483141
  0
LINE
  8
AP0069
 62
7
  6
BYLAYER
 10
167.8780941913
 20
13.3445553442
 11
168.43907888
 21
11.4915577604
  0
LINE
  8
AP0069
 62
7
  6
BYLAYER
 10
168.43907888
 20
11.4915577604
 11
169.0723717935
 21
13.3480515661
  0
LINE
  8
AP0069
 62
7
  6
BYLAYER
 10
169.0723717935
 20
13.3480515661
 11
169.4451961788
 21
13.3445553442
  0
LINE
  8
AP0069
 62
7
  6
BYLAYER
 10
169.4451961788
 20
13.3445553442
 11
170.0568760844
 21
11.5166669901
  0
LINE
  8
AP0069
 62
7
  6
BYLAYER
 10
170.0568760844
 20
11.5166669901
 11
170.643128922
 21
13.3480515661
  0
LINE
  8
AP0069
 62
7
  6
BYLAYER
 10
170.643128922
 20
13.3480515661
 11
171.0412214561
 21
13.3445553442
  0
LINE
  8
AP0069
 62
7
  6
BYLAYER
 10
171.0412214561
 20
13.3445553442
 11
170.187030889
 21
10.8689124317
  0
LINE
  8
AP0069
 62
7
  6
BYLAYER
 10
170.187030889
 20
10.8689124317
 11
169.785442133
 21
10.8689124317
  0
LINE
  8
AP0069
 62
7
  6
BYLAYER
 10
169.785442133
 20
10.8689124317
 11
169.2026855173
 21
12.7002970076
  0
LINE
  8
AP0069
 62
7
  6
BYLAYER
 10
169.2026855173
 20
12.7002970076
 11
168.5910056116
 21
10.8689124317
  0
LINE
  8
AP0069
 62
7
  6
BYLAYER
 10
168.5910056116
 20
10.8689124317
 11
168.1603346466
 21
10.8689124317
  0
LINE
  8
AP0069
 62
7
  6
BYLAYER
 10
168.1603346466
 20
10.8689124317
 11
167.3641495784
 21
13.3480515661
  0
LINE
  8
AP0069
 62
7
  6
BYLAYER
 10
171.1279913258
 20
13.3480515661
 11
171.924176394
 21
10.8689124317
  0
LINE
  8
AP0069
 62
7
  6
BYLAYER
 10
171.924176394
 20
10.8689124317
 11
172.354847359
 21
10.8689124317
  0
LINE
  8
AP0069
 62
7
  6
BYLAYER
 10
172.354847359
 20
10.8689124317
 11
172.9665272647
 21
12.7002970076
  0
LINE
  8
AP0069
 62
7
  6
BYLAYER
 10
172.9665272647
 20
12.7002970076
 11
173.5492838804
 21
10.8689124317
  0
LINE
  8
AP0069
 62
7
  6
BYLAYER
 10
173.5492838804
 20
10.8689124317
 11
173.9508726364
 21
10.8689124317
  0
LINE
  8
AP0069
 62
7
  6
BYLAYER
 10
173.9508726364
 20
10.8689124317
 11
174.8050632035
 21
13.3445553442
  0
LINE
  8
AP0069
 62
7
  6
BYLAYER
 10
174.8050632035
 20
13.3445553442
 11
174.4069706694
 21
13.3480515661
  0
LINE
  8
AP0069
 62
7
  6
BYLAYER
 10
174.4069706694
 20
13.3480515661
 11
173.8207178318
 21
11.5166669901
  0
LINE
  8
AP0069
 62
7
  6
BYLAYER
 10
173.8207178318
 20
11.5166669901
 11
173.2090379261
 21
13.3445553442
  0
LINE
  8
AP0069
 62
7
  6
BYLAYER
 10
173.2090379261
 20
13.3445553442
 11
172.8350208989
 21
13.3445553442
  0
LINE
  8
AP0069
 62
7
  6
BYLAYER
 10
172.8350208989
 20
13.3445553442
 11
172.2029206274
 21
11.4915577604
  0
LINE
  8
AP0069
 62
7
  6
BYLAYER
 10
172.2029206274
 20
11.4915577604
 11
171.6419359387
 21
13.3445553442
  0
LINE
  8
AP0069
 62
7
  6
BYLAYER
 10
171.6419359387
 20
13.3445553442
 11
171.1279913258
 21
13.3480515661
  0
LINE
  8
AP0069
 62
7
  6
BYLAYER
 10
174.8919919924
 20
13.3480515661
 11
175.4059366052
 21
13.3445553442
  0
LINE
  8
AP0069
 62
7
  6
BYLAYER
 10
175.4059366052
 20
13.3445553442
 11
175.966921294
 21
11.4915577604
  0
LINE
  8
AP0069
 62
7
  6
BYLAYER
 10
175.966921294
 20
11.4915577604
 11
176.6002142075
 21
13.3480515661
  0
LINE
  8
AP0069
 62
7
  6
BYLAYER
 10
176.6002142075
 20
13.3480515661
 11
176.9730385927
 21
13.3445553442
  0
LINE
  8
AP0069
 62
7
  6
BYLAYER
 10
176.9730385927
 20
13.3445553442
 11
177.5847184984
 21
11.5166669901
  0
LINE
  8
AP0069
 62
7
  6
BYLAYER
 10
177.5847184984
 20
11.5166669901
 11
178.170971336
 21
13.3480515661
  0
LINE
  8
AP0069
 62
7
  6
BYLAYER
 10
178.170971336
 20
13.3480515661
 11
178.5690638701
 21
13.3445553442
  0
LINE
  8
AP0069
 62
7
  6
BYLAYER
 10
178.5690638701
 20
13.3445553442
 11
177.7148733029
 21
10.8689124317
  0
LINE
  8
AP0069
 62
7
  6
BYLAYER
 10
177.7148733029
 20
10.8689124317
 11
177.313284547
 21
10.8689124317
  0
LINE
  8
AP0069
 62
7
  6
BYLAYER
 10
177.313284547
 20
10.8689124317
 11
176.7305279312
 21
12.7002970076
  0
LINE
  8
AP0069
 62
7
  6
BYLAYER
 10
176.7305279312
 20
12.7002970076
 11
176.1188480256
 21
10.8689124317
  0
LINE
  8
AP0069
 62
7
  6
BYLAYER
 10
176.1188480256
 20
10.8689124317
 11
175.6881770605
 21
10.8689124317
  0
LINE
  8
AP0069
 62
7
  6
BYLAYER
 10
175.6881770605
 20
10.8689124317
 11
174.8919919924
 21
13.3480515661
  0
LINE
  8
AP0069
 62
7
  6
BYLAYER
 10
179.1298896396
 20
11.2922731146
 11
179.2927817943
 21
11.2960871748
  0
LINE
  8
AP0069
 62
7
  6
BYLAYER
 10
179.2927817943
 20
11.2960871748
 11
179.444867445
 21
11.220123809
  0
LINE
  8
AP0069
 62
7
  6
BYLAYER
 10
179.444867445
 20
11.220123809
 11
179.5094295075
 21
11.106084816
  0
LINE
  8
AP0069
 62
7
  6
BYLAYER
 10
179.5094295075
 20
11.106084816
 11
179.4882523799
 21
10.9610855533
  0
LINE
  8
AP0069
 62
7
  6
BYLAYER
 10
179.4882523799
 20
10.9610855533
 11
179.3633419081
 21
10.8527026758
  0
LINE
  8
AP0069
 62
7
  6
BYLAYER
 10
179.3633419081
 20
10.8527026758
 11
179.1298896396
 21
10.8399891418
  0
LINE
  8
AP0069
 62
7
  6
BYLAYER
 10
179.1298896396
 20
10.8399891418
 11
178.988769412
 21
10.8870292177
  0
LINE
  8
AP0069
 62
7
  6
BYLAYER
 10
178.988769412
 20
10.8870292177
 11
178.9128060462
 21
11.0316456672
  0
LINE
  8
AP0069
 62
7
  6
BYLAYER
 10
178.9128060462
 20
11.0316456672
 11
178.9559514611
 21
11.1929363261
  0
LINE
  8
AP0069
 62
7
  6
BYLAYER
 10
178.9559514611
 20
11.1929363261
 11
179.1294008989
 21
11.2922737644
  0
LINE
  8
AP0069
 62
7
  6
BYLAYER
 10
180.3103412736
 20
13.3448731826
 11
180.3103412736
 21
10.9041924886
  0
LINE
  8
AP0069
 62
7
  6
BYLAYER
 10
180.3103412736
 20
10.9041924886
 11
181.4795096462
 21
10.9041924886
  0
LINE
  8
AP0069
 62
7
  6
BYLAYER
 10
182.4304819911
 20
12.9958866736
 11
182.0511409291
 21
13.2706185946
  0
LINE
  8
AP0069
 62
7
  6
BYLAYER
 10
182.0511409291
 20
13.2706185946
 11
181.6640182669
 21
13.347684029
  0
LINE
  8
AP0069
 62
7
  6
BYLAYER
 10
181.6640182669
 20
13.347684029
 11
180.3103412736
 21
13.3448731826
  0
LINE
  8
AP0069
 62
7
  6
BYLAYER
 10
180.7858274461
 20
13.1722869582
 11
180.7858274461
 21
11.0697862692
  0
LINE
  8
AP0069
 62
7
  6
BYLAYER
 10
180.7858274461
 20
11.0697862692
 11
181.172472272
 21
11.0707896402
  0
LINE
  8
AP0069
 62
7
  6
BYLAYER
 10
181.9268671246
 20
12.9469395677
 11
181.7040624409
 21
13.095052239
  0
LINE
  8
AP0069
 62
7
  6
BYLAYER
 10
181.7040624409
 20
13.095052239
 11
181.247573501
 21
13.1649202273
  0
LINE
  8
AP0069
 62
7
  6
BYLAYER
 10
181.247573501
 20
13.1649202273
 11
180.7858274461
 21
13.1649202273
  0
LINE
  8
AP0069
 62
7
  6
BYLAYER
 10
193.1540301008
 20
13.2813055125
 11
194.5699999525
 21
13.2813055125
  0
LINE
  8
AP0069
 62
7
  6
BYLAYER
 10
194.5699999525
 20
13.2813055125
 11
194.5699999525
 21
13.0521440617
  0
LINE
  8
AP0069
 62
7
  6
BYLAYER
 10
194.5699999525
 20
13.0521440617
 11
193.5154123053
 21
13.0521440617
  0
LINE
  8
AP0069
 62
7
  6
BYLAYER
 10
193.5154123053
 20
13.0521440617
 11
193.5154123053
 21
12.2562768319
  0
LINE
  8
AP0069
 62
7
  6
BYLAYER
 10
193.5154123053
 20
12.2562768319
 11
194.5699999525
 21
12.2562768319
  0
LINE
  8
AP0069
 62
7
  6
BYLAYER
 10
194.5699999525
 20
12.2562768319
 11
194.5699999525
 21
12.0302937646
  0
LINE
  8
AP0069
 62
7
  6
BYLAYER
 10
194.5699999525
 20
12.0302937646
 11
193.5154123053
 21
12.0302937646
  0
LINE
  8
AP0069
 62
7
  6
BYLAYER
 10
193.5154123053
 20
12.0302937646
 11
193.5154123053
 21
11.0853603484
  0
LINE
  8
AP0069
 62
7
  6
BYLAYER
 10
193.5154123053
 20
11.0853603484
 11
194.5699999525
 21
11.0853603484
  0
LINE
  8
AP0069
 62
7
  6
BYLAYER
 10
194.5699999525
 20
11.0853603484
 11
194.5699999525
 21
10.8689124317
  0
LINE
  8
AP0069
 62
7
  6
BYLAYER
 10
194.5699999525
 20
10.8689124317
 11
193.1540301008
 21
10.8689124317
  0
LINE
  8
AP0069
 62
7
  6
BYLAYER
 10
193.1540301008
 20
10.8689124317
 11
193.1540301008
 21
13.2813055125
  0
LINE
  8
AP0069
 62
7
  6
BYLAYER
 10
190.0718558289
 20
12.872883232
 11
189.5623789255
 21
13.1841672221
  0
LINE
  8
AP0069
 62
7
  6
BYLAYER
 10
189.5623789255
 20
13.1841672221
 11
189.2519286709
 21
13.2145594588
  0
LINE
  8
AP0069
 62
7
  6
BYLAYER
 10
188.4454138563
 20
12.5982708971
 11
188.3818511447
 21
12.3521004338
  0
LINE
  8
AP0069
 62
7
  6
BYLAYER
 10
188.5184059818
 20
11.4783073766
 11
188.7304218417
 21
11.2139194911
  0
LINE
  8
AP0069
 62
7
  6
BYLAYER
 10
189.5936048977
 20
11.0167072647
 11
189.8329371757
 21
11.1193690519
  0
LINE
  8
AP0069
 62
7
  6
BYLAYER
 10
189.8329371757
 20
11.1193690519
 11
189.8329371757
 21
12.0417359453
  0
LINE
  8
AP0069
 62
7
  6
BYLAYER
 10
189.8329371757
 20
12.0417359453
 11
190.2802946541
 21
12.0417359453
  0
LINE
  8
AP0069
 62
7
  6
BYLAYER
 10
190.2802946541
 20
12.0417359453
 11
190.2750503213
 21
11.0082845484
  0
LINE
  8
AP0069
 62
7
  6
BYLAYER
 10
190.2750503213
 20
11.0082845484
 11
189.7979749571
 21
10.893703823
  0
LINE
  8
AP0069
 62
7
  6
BYLAYER
 10
189.7979749571
 20
10.893703823
 11
189.2237999769
 21
10.8479351005
  0
LINE
  8
AP0069
 62
7
  6
BYLAYER
 10
189.189473435
 20
13.3888937941
 11
189.7354402617
 21
13.3633078069
  0
LINE
  8
AP0069
 62
7
  6
BYLAYER
 10
189.7354402617
 20
13.3633078069
 11
190.3084233482
 21
13.1722869582
  0
LINE
  8
AP0069
 62
7
  6
BYLAYER
 10
190.3084233482
 20
13.1722869582
 11
190.1957496529
 21
12.872883232
  0
LINE
  8
AP0069
 62
7
  6
BYLAYER
 10
190.1957496529
 20
12.872883232
 11
190.0718558289
 21
12.872883232
  0
LINE
  8
AP0069
 62
7
  6
BYLAYER
 10
190.7292413243
 20
13.3696645739
 11
190.7292413243
 21
13.1163474085
  0
LINE
  8
AP0069
 62
7
  6
BYLAYER
 10
191.5255853116
 20
13.193134317
 11
191.5255853116
 21
10.8689124317
  0
LINE
  8
AP0069
 62
7
  6
BYLAYER
 10
191.5255853116
 20
10.8689124317
 11
191.9851795666
 21
10.8689124317
  0
LINE
  8
AP0069
 62
7
  6
BYLAYER
 10
190.7292413243
 20
13.3696645739
 11
192.7813646347
 21
13.376974856
  0
LINE
  8
AP0069
 62
7
  6
BYLAYER
 10
192.7813646347
 20
13.376974856
 11
192.7768354382
 21
13.1300144576
  0
LINE
  8
AP0069
 62
7
  6
BYLAYER
 10
191.9851795666
 20
10.8689124317
 11
191.9851795666
 21
13.194611644
  0
LINE
  8
AP0069
 62
7
  6
BYLAYER
 10
204.7354239186
 20
13.376974856
 11
204.9923962251
 21
13.376974856
  0
LINE
  8
AP0069
 62
7
  6
BYLAYER
 10
204.9923962251
 20
13.376974856
 11
205.9188950169
 21
11.6037546982
  0
LINE
  8
AP0069
 62
7
  6
BYLAYER
 10
205.9188950169
 20
11.6037546982
 11
206.8706619577
 21
13.376974856
  0
LINE
  8
AP0069
 62
7
  6
BYLAYER
 10
206.8706619577
 20
13.376974856
 11
207.1312894052
 21
13.376974856
  0
LINE
  8
AP0069
 62
7
  6
BYLAYER
 10
207.1312894052
 20
13.376974856
 11
207.4171850015
 21
10.8689124317
  0
LINE
  8
AP0069
 62
7
  6
BYLAYER
 10
206.8995852476
 20
10.8689124317
 11
206.7513136571
 21
12.5121367041
  0
LINE
  8
AP0069
 62
7
  6
BYLAYER
 10
206.7513136571
 20
12.5121367041
 11
205.9333566619
 21
10.9267590115
  0
LINE
  8
AP0069
 62
7
  6
BYLAYER
 10
205.9333566619
 20
10.9267590115
 11
205.7305757942
 21
10.9267590115
  0
LINE
  8
AP0069
 62
7
  6
BYLAYER
 10
205.7305757942
 20
10.9267590115
 11
204.9417010081
 21
12.479399354
  0
LINE
  8
AP0069
 62
7
  6
BYLAYER
 10
204.9417010081
 20
12.479399354
 11
204.7932704984
 21
10.8689124317
  0
LINE
  8
AP0069
 62
7
  6
BYLAYER
 10
204.3915228233
 20
10.8689124317
 11
204.7354239186
 21
13.376974856
  0
LINE
  8
AP0069
 62
7
  6
BYLAYER
 10
204.3915228233
 20
10.8689124317
 11
204.7932704984
 21
10.8689124317
  0
LINE
  8
AP0069
 62
7
  6
BYLAYER
 10
206.8995852476
 20
10.8689124317
 11
207.4171850015
 21
10.8689124317
  0
LINE
  8
AP0069
 62
7
  6
BYLAYER
 10
197.8475370403
 20
11.2922737644
 11
198.0109179357
 21
11.2960871748
  0
LINE
  8
AP0069
 62
7
  6
BYLAYER
 10
198.0109179357
 20
11.2960871748
 11
198.1276893964
 21
11.2480257165
  0
LINE
  8
AP0069
 62
7
  6
BYLAYER
 10
198.1276893964
 20
11.2480257165
 11
198.2135398842
 21
11.1492458569
  0
LINE
  8
AP0069
 62
7
  6
BYLAYER
 10
198.2135398842
 20
11.1492458569
 11
198.2316566702
 21
11.0608867954
  0
LINE
  8
AP0069
 62
7
  6
BYLAYER
 10
198.2316566702
 20
11.0608867954
 11
198.1824310404
 21
10.9233269993
  0
LINE
  8
AP0069
 62
7
  6
BYLAYER
 10
198.1824310404
 20
10.9233269993
 11
198.0814780496
 21
10.8527026758
  0
LINE
  8
AP0069
 62
7
  6
BYLAYER
 10
198.0814780496
 20
10.8527026758
 11
198.0044146868
 21
10.8399882663
  0
LINE
  8
AP0069
 62
7
  6
BYLAYER
 10
198.0044146868
 20
10.8399882663
 11
197.8480257811
 21
10.8399891418
  0
LINE
  8
AP0069
 62
7
  6
BYLAYER
 10
197.8480257811
 20
10.8399891418
 11
197.7069055534
 21
10.8870292177
  0
LINE
  8
AP0069
 62
7
  6
BYLAYER
 10
197.7069055534
 20
10.8870292177
 11
197.6403105765
 21
10.9891730421
  0
LINE
  8
AP0069
 62
7
  6
BYLAYER
 10
197.6403105765
 20
10.9891730421
 11
197.6544622256
 21
11.1492458569
  0
LINE
  8
AP0069
 62
7
  6
BYLAYER
 10
197.6544622256
 20
11.1492458569
 11
197.7359682129
 21
11.2560707479
  0
LINE
  8
AP0069
 62
7
  6
BYLAYER
 10
197.7359682129
 20
11.2560707479
 11
197.8475370403
 21
11.2922737644
  0
LINE
  8
AP0069
 62
7
  6
BYLAYER
 10
203.455936962
 20
12.8077607837
 11
203.5500457902
 21
12.6062168559
  0
LINE
  8
AP0069
 62
7
  6
BYLAYER
 10
203.4285778615
 20
11.4265547693
 11
203.0252946734
 21
11.0389559492
  0
LINE
  8
AP0069
 62
7
  6
BYLAYER
 10
203.0252946734
 20
11.0389559492
 11
202.6869557492
 21
10.9521860795
  0
LINE
  8
AP0069
 62
7
  6
BYLAYER
 10
202.6869557492
 20
10.9521860795
 11
202.1654368523
 21
11.1315590926
  0
LINE
  8
AP0069
 62
7
  6
BYLAYER
 10
202.1654368523
 20
11.1315590926
 11
201.8998649083
 21
11.4241203558
  0
LINE
  8
AP0069
 62
7
  6
BYLAYER
 10
201.8129002852
 20
11.6199644541
 11
201.7423401714
 21
12.1138852508
  0
LINE
  8
AP0069
 62
7
  6
BYLAYER
 10
201.7423401714
 20
12.1138852508
 11
201.858768312
 21
12.6109830187
  0
LINE
  8
AP0069
 62
7
  6
BYLAYER
 10
201.858768312
 20
12.6109830187
 11
202.1078542745
 21
13.026081317
  0
LINE
  8
AP0069
 62
7
  6
BYLAYER
 10
202.6651838222
 20
13.2793984824
 11
203.0494038985
 21
13.1861520243
  0
LINE
  8
AP0069
 62
7
  6
BYLAYER
 10
202.6651838222
 20
13.2793984824
 11
202.3600846691
 21
13.2108988508
  0
LINE
  8
AP0069
 62
7
  6
BYLAYER
 10
202.3600846691
 20
13.2108988508
 11
202.1078542745
 21
13.026081317
  0
LINE
  8
AP0069
 62
7
  6
BYLAYER
 10
203.7183411968
 20
11.151152887
 11
204.038958058
 21
11.5759927974
  0
LINE
  8
AP0069
 62
7
  6
BYLAYER
 10
204.038958058
 20
11.5759927974
 11
204.1361309907
 21
12.0392385266
  0
LINE
  8
AP0069
 62
7
  6
BYLAYER
 10
204.1361309907
 20
12.0392385266
 11
204.087510441
 21
12.479399354
  0
LINE
  8
AP0069
 62
7
  6
BYLAYER
 10
204.087510441
 20
12.479399354
 11
203.9403192729
 21
12.8446688296
  0
LINE
  8
AP0069
 62
7
  6
BYLAYER
 10
203.5674305159
 20
13.2438374991
 11
203.0545503949
 21
13.4046264821
  0
LINE
  8
AP0069
 62
7
  6
BYLAYER
 10
203.0545503949
 20
13.4046264821
 11
202.5646738744
 21
13.429118018
  0
LINE
  8
AP0069
 62
7
  6
BYLAYER
 10
201.4724977075
 20
12.8760237085
 11
201.2730465207
 21
12.4693178157
  0
LINE
  8
AP0069
 62
7
  6
BYLAYER
 10
201.2730465207
 20
12.4693178157
 11
201.2245349135
 21
12.088400604
  0
LINE
  8
AP0069
 62
7
  6
BYLAYER
 10
201.2245349135
 20
12.088400604
 11
201.2413463409
 21
11.8585070237
  0
LINE
  8
AP0069
 62
7
  6
BYLAYER
 10
201.2413463409
 20
11.8585070237
 11
201.2989556723
 21
11.6091579501
  0
LINE
  8
AP0069
 62
7
  6
BYLAYER
 10
201.2989556723
 20
11.6091579501
 11
201.5250976587
 21
11.2417368169
  0
LINE
  8
AP0069
 62
7
  6
BYLAYER
 10
201.5250976587
 20
11.2417368169
 11
201.6768317004
 21
11.1090202255
  0
LINE
  8
AP0069
 62
7
  6
BYLAYER
 10
201.6768317004
 20
11.1090202255
 11
202.0118805556
 21
10.9131058676
  0
LINE
  8
AP0069
 62
7
  6
BYLAYER
 10
202.0118805556
 20
10.9131058676
 11
202.4254542463
 21
10.8174226189
  0
LINE
  8
AP0069
 62
7
  6
BYLAYER
 10
202.4254542463
 20
10.8174226189
 11
202.7786205029
 21
10.8110423757
  0
LINE
  8
AP0069
 62
7
  6
BYLAYER
 10
202.7786205029
 20
10.8110423757
 11
203.2714604759
 21
10.8943394997
  0
LINE
  8
AP0069
 62
7
  6
BYLAYER
 10
203.2714604759
 20
10.8943394997
 11
203.5063652776
 21
11.0027969305
  0
LINE
  8
AP0069
 62
7
  6
BYLAYER
 10
203.5063652776
 20
11.0027969305
 11
203.7183411968
 21
11.151152887
  0
LINE
  8
AP0069
 62
7
  6
BYLAYER
 10
203.5500457902
 20
12.6062168559
 11
203.6081243795
 21
12.3633184996
  0
LINE
  8
AP0069
 62
7
  6
BYLAYER
 10
203.6081243795
 20
12.3633184996
 11
203.620605904
 21
12.1138852508
  0
LINE
  8
AP0069
 62
7
  6
BYLAYER
 10
203.620605904
 20
12.1138852508
 11
203.5193743894
 21
11.6215536458
  0
LINE
  8
AP0069
 62
7
  6
BYLAYER
 10
203.5193743894
 20
11.6215536458
 11
203.4285778615
 21
11.4265547693
  0
LINE
  8
AP0069
 62
7
  6
BYLAYER
 10
201.8129002852
 20
11.6199644541
 11
201.8998649083
 21
11.4241203558
  0
LINE
  8
AP0069
 62
7
  6
BYLAYER
 10
167.9095267417
 20
18.3725024056
 11
168.8044903206
 21
19.2925730867
  0
LINE
  8
AP0069
 62
7
  6
BYLAYER
 10
169.5516444449
 20
23.8043660593
 11
169.0512838134
 21
22.9680231986
  0
LINE
  8
AP0069
 62
7
  6
BYLAYER
 10
169.0512838134
 20
22.9680231986
 11
168.3288737351
 21
22.1881078405
  0
LINE
  8
AP0069
 62
7
  6
BYLAYER
 10
168.3288737351
 20
22.1881078405
 11
167.524285823
 21
21.5432740355
  0
LINE
  8
AP0069
 62
7
  6
BYLAYER
 10
169.9085327067
 20
21.9481492251
 11
168.994577218
 21
20.5064777466
  0
LINE
  8
AP0069
 62
7
  6
BYLAYER
 10
168.994577218
 20
20.5064777466
 11
168.1615493444
 21
19.6574761842
  0
LINE
  8
AP0069
 62
7
  6
BYLAYER
 10
168.1615493444
 20
19.6574761842
 11
167.4168896964
 21
19.0795892699
  0
LINE
  8
AP0069
 62
7
  6
BYLAYER
 10
182.4304819911
 20
12.9958866736
 11
182.6100606591
 21
12.628147702
  0
LINE
  8
AP0069
 62
7
  6
BYLAYER
 10
182.6100606591
 20
12.628147702
 11
182.6699488876
 21
12.2089246982
  0
LINE
  8
AP0069
 62
7
  6
BYLAYER
 10
182.6699488876
 20
12.2089246982
 11
182.5819319651
 21
11.6930672747
  0
LINE
  8
AP0069
 62
7
  6
BYLAYER
 10
181.172472272
 20
11.0707896402
 11
181.5575389612
 21
11.1057020028
  0
LINE
  8
AP0069
 62
7
  6
BYLAYER
 10
181.5575389612
 20
11.1057020028
 11
181.8596443135
 21
11.2706601068
  0
LINE
  8
AP0069
 62
7
  6
BYLAYER
 10
181.8596443135
 20
11.2706601068
 11
182.0730727659
 21
11.6472985522
  0
LINE
  8
AP0069
 62
7
  6
BYLAYER
 10
182.0730727659
 20
11.6472985522
 11
182.1423454906
 21
12.1244058989
  0
LINE
  8
AP0069
 62
7
  6
BYLAYER
 10
182.1423454906
 20
12.1244058989
 11
182.1318294284
 21
12.3119528487
  0
LINE
  8
AP0069
 62
7
  6
BYLAYER
 10
182.1318294284
 20
12.3119528487
 11
182.0552540037
 21
12.6579153468
  0
LINE
  8
AP0069
 62
7
  6
BYLAYER
 10
182.0552540037
 20
12.6579153468
 11
181.9268671246
 21
12.9469395677
  0
LINE
  8
AP0069
 62
7
  6
BYLAYER
 10
189.189473435
 20
13.3888937941
 11
188.9095373077
 21
13.3518656263
  0
LINE
  8
AP0069
 62
7
  6
BYLAYER
 10
188.9095373077
 20
13.3518656263
 11
188.5566995767
 21
13.2416969818
  0
LINE
  8
AP0069
 62
7
  6
BYLAYER
 10
188.5566995767
 20
13.2416969818
 11
188.1390176864
 21
12.9259622365
  0
LINE
  8
AP0069
 62
7
  6
BYLAYER
 10
188.1390176864
 20
12.9259622365
 11
187.9043030236
 21
12.420256707
  0
LINE
  8
AP0069
 62
7
  6
BYLAYER
 10
187.9043030236
 20
12.420256707
 11
187.8644056961
 21
12.0698236934
  0
LINE
  8
AP0069
 62
7
  6
BYLAYER
 10
187.8644056961
 20
12.0698236934
 11
188.0063738357
 21
11.4594153039
  0
LINE
  8
AP0069
 62
7
  6
BYLAYER
 10
188.0063738357
 20
11.4594153039
 11
188.3458558066
 21
11.0712809105
  0
LINE
  8
AP0069
 62
7
  6
BYLAYER
 10
188.3458558066
 20
11.0712809105
 11
188.8310835537
 21
10.8767046233
  0
LINE
  8
AP0069
 62
7
  6
BYLAYER
 10
188.8310835537
 20
10.8767046233
 11
189.2237999769
 21
10.8479351005
  0
LINE
  8
AP0069
 62
7
  6
BYLAYER
 10
189.5936048977
 20
11.0167072647
 11
189.3294812284
 21
10.9817450461
  0
LINE
  8
AP0069
 62
7
  6
BYLAYER
 10
189.3294812284
 20
10.9817450461
 11
189.0404039728
 21
11.0348757265
  0
LINE
  8
AP0069
 62
7
  6
BYLAYER
 10
189.0404039728
 20
11.0348757265
 11
188.7304218417
 21
11.2139194911
  0
LINE
  8
AP0069
 62
7
  6
BYLAYER
 10
188.3818511447
 20
12.3521004338
 11
188.3640239382
 21
12.1096979199
  0
LINE
  8
AP0069
 62
7
  6
BYLAYER
 10
188.3640239382
 20
12.1096979199
 11
188.4098185036
 21
11.7500887359
  0
LINE
  8
AP0069
 62
7
  6
BYLAYER
 10
188.4098185036
 20
11.7500887359
 11
188.5184059818
 21
11.4783073766
  0
LINE
  8
AP0069
 62
7
  6
BYLAYER
 10
189.2519286709
 20
13.2145594588
 11
188.852246945
 21
13.0756640996
  0
LINE
  8
AP0069
 62
7
  6
BYLAYER
 10
188.852246945
 20
13.0756640996
 11
188.5872886969
 21
12.8478600736
  0
LINE
  8
AP0069
 62
7
  6
BYLAYER
 10
188.5872886969
 20
12.8478600736
 11
188.4454138563
 21
12.5982708971
  0
LINE
  8
AP0069
 62
7
  6
BYLAYER
 10
190.7292413243
 20
13.1163474085
 11
190.874016693
 21
13.1128511867
  0
LINE
  8
AP0069
 62
7
  6
BYLAYER
 10
190.874016693
 20
13.1128511867
 11
191.5255853116
 21
13.193134317
  0
LINE
  8
AP0069
 62
7
  6
BYLAYER
 10
191.9851795666
 20
13.194611644
 11
192.636589266
 21
13.1163474085
  0
LINE
  8
AP0069
 62
7
  6
BYLAYER
 10
192.636589266
 20
13.1163474085
 11
192.7813646347
 21
13.1128511867
  0
LINE
  8
AP0069
 62
7
  6
BYLAYER
 10
181.5089570159
 20
10.9049063516
 11
181.8333364158
 21
10.954842286
  0
LINE
  8
AP0069
 62
7
  6
BYLAYER
 10
181.8333364158
 20
10.954842286
 11
182.2574864498
 21
11.1991559517
  0
LINE
  8
AP0069
 62
7
  6
BYLAYER
 10
182.2574864498
 20
11.1991559517
 11
182.5819319651
 21
11.6930672747
  0
LINE
  8
AP0069
 62
7
  6
BYLAYER
 10
201.4877580835
 20
12.8973178655
 11
201.7884848642
 21
13.2033314064
  0
LINE
  8
AP0069
 62
7
  6
BYLAYER
 10
201.7884848642
 20
13.2033314064
 11
202.1752299356
 21
13.3752607681
  0
LINE
  8
AP0069
 62
7
  6
BYLAYER
 10
202.1752299356
 20
13.3752607681
 11
202.5646738744
 21
13.429118018
  0
LINE
  8
AP0069
 62
7
  6
BYLAYER
 10
203.455936962
 20
12.8077607837
 11
203.2586877534
 21
13.0429598219
  0
LINE
  8
AP0069
 62
7
  6
BYLAYER
 10
203.2586877534
 20
13.0429598219
 11
203.0494038985
 21
13.1861520243
  0
LINE
  8
AP0069
 62
7
  6
BYLAYER
 10
203.5674305159
 20
13.2438374991
 11
203.7991072478
 21
13.03226036
  0
LINE
  8
AP0069
 62
7
  6
BYLAYER
 10
203.7991072478
 20
13.03226036
 11
203.9403192729
 21
12.8446688296
  0
LINE
  8
AP0069
 62
7
  6
BYLAYER
 10
177.7409705485
 20
23.0422481006
 11
177.7409705485
 21
22.4302054881
  0
LINE
  8
AP0069
 62
7
  6
BYLAYER
 10
198.0131790697
 20
19.0912089144
 11
195.2593075627
 21
19.0912089144
  0
ARC
  8
AP0069
 62
7
  6
BYLAYER
 10
203.3499885149
 20
23.6828457747
 40
0.3993422213
 50
90.0
 51
180.0
  0
ARC
  8
AP0069
 62
7
  6
BYLAYER
 10
207.0175474751
 20
23.6828457747
 40
0.3993422213
 50
0.0
 51
90.0
  0
ARC
  8
AP0069
 62
7
  6
BYLAYER
 10
207.0175474751
 20
15.8309790199
 40
0.3993422213
 50
270.0
 51
360.0
  0
ARC
  8
AP0069
 62
7
  6
BYLAYER
 10
203.3499885149
 20
15.8309790199
 40
0.3993422213
 50
180.0
 51
270.0
  0
LINE
  8
AP0069
 62
7
  6
BYLAYER
 10
184.1312447734
 20
22.5598954485
 11
185.1216134822
 21
22.4205250133
  0
ENDBLK
  8
0
  6
BYBLOCK
 62
0
  0
BLOCK
  8
0
  2
_FILLED
 70
64
 10
0.0
 20
0.0
  0
SOLID
  8
0
  6
BYBLOCK
 62
0
 10
0.0
 20
0.0
 11
-1.0
 21
0.2142857143
 12
-1.0
 22
-0.2142857143
 13
-1.0
 23
-0.2142857143
  0
ENDBLK
  8
0
  6
BYBLOCK
 62
0
  0
BLOCK
  8
AP0064
 62
3
  6
BYLAYER
  2
*D0
 70
65
 10
0.0
 20
0.0
  0
TEXT
  8
AP0064
 62
3
  6
BYLAYER
 10
40.5108937796
 20
153.0613072212
  7
STANDARD
 40
3.5
  1
23
 41
0.85
 72
1
 11
43.4858937796
 21
153.0613072212
  0
LINE
  8
AP0064
 62
3
  6
BYLAYER
 10
31.9858937818
 20
140.801174976
 11
31.9858937818
 21
153.6863072212
  0
LINE
  8
AP0064
 62
3
  6
BYLAYER
 10
54.9858937775
 20
140.8011749807
 11
54.9858937775
 21
153.6863072212
  0
LINE
  8
AP0064
 62
3
  6
BYLAYER
 10
31.9858937818
 20
152.1863072212
 11
43.4858937796
 21
152.1863072212
  0
LINE
  8
AP0064
 62
3
  6
BYLAYER
 10
54.9858937775
 20
152.1863072212
 11
43.4858937796
 21
152.1863072212
  0
INSERT
  8
AP0064
 62
3
  6
BYLAYER
  2
_FILLED
 10
31.9858937818
 20
152.1863072212
 41
3.5
 42
3.5
 43
3.5
 50
180.0
  0
INSERT
  8
AP0064
 62
3
  6
BYLAYER
  2
_FILLED
 10
54.9858937775
 20
152.1863072212
 41
3.5
 42
3.5
 43
3.5
  0
ENDBLK
  8
0
  6
BYBLOCK
 62
0
  0
BLOCK
  8
AP0064
 62
3
  6
BYLAYER
  2
*D1
 70
65
 10
0.0
 20
0.0
  0
TEXT
  8
AP0064
 62
3
  6
BYLAYER
 10
21.1108937818
 20
133.0238072223
  7
STANDARD
 40
3.5
  1
9,4
 50
90.0
 41
0.85
 72
1
 11
21.1108937818
 21
137.4863072223
  0
LINE
  8
AP0064
 62
3
  6
BYLAYER
 10
36.5721738389
 20
142.1863072212
 11
20.4858937818
 21
142.1863072212
  0
LINE
  8
AP0064
 62
3
  6
BYLAYER
 10
34.2858937848
 20
132.7863072234
 11
20.4858937818
 21
132.7863072234
  0
LINE
  8
AP0064
 62
3
  6
BYLAYER
 10
21.9858937818
 20
142.1863072212
 11
21.9858937818
 21
147.1863072212
  0
LINE
  8
AP0064
 62
3
  6
BYLAYER
 10
21.9858937818
 20
147.1863072212
 11
21.9858937818
 21
137.4863072223
  0
LINE
  8
AP0064
 62
3
  6
BYLAYER
 10
21.9858937818
 20
132.7863072234
 11
21.9858937818
 21
127.7863072234
  0
LINE
  8
AP0064
 62
3
  6
BYLAYER
 10
21.9858937818
 20
127.7863072234
 11
21.9858937818
 21
137.4863072223
  0
INSERT
  8
AP0064
 62
3
  6
BYLAYER
  2
_FILLED
 10
21.9858937818
 20
142.1863072212
 41
3.5
 42
3.5
 43
3.5
 50
270.0
  0
INSERT
  8
AP0064
 62
3
  6
BYLAYER
  2
_FILLED
 10
21.9858937818
 20
132.7863072234
 41
3.5
 42
3.5
 43
3.5
 50
90.0
  0
ENDBLK
  8
0
  6
BYBLOCK
 62
0
  0
BLOCK
  8
AP0064
 62
3
  6
BYLAYER
  2
*D2
 70
65
 10
0.0
 20
0.0
  0
TEXT
  8
AP0064
 62
3
  6
BYLAYER
 10
40.5108937821
 20
123.6613072234
  7
STANDARD
 40
3.5
  1
16
 41
0.85
 72
1
 11
43.4858937821
 21
123.6613072234
  0
LINE
  8
AP0064
 62
3
  6
BYLAYER
 10
35.4858937821
 20
132.9963072251
 11
35.4858937821
 21
121.2863072234
  0
LINE
  8
AP0064
 62
3
  6
BYLAYER
 10
51.4858937821
 20
132.9963072251
 11
51.4858937821
 21
121.2863072234
  0
LINE
  8
AP0064
 62
3
  6
BYLAYER
 10
35.4858937821
 20
122.7863072234
 11
43.4858937821
 21
122.7863072234
  0
LINE
  8
AP0064
 62
3
  6
BYLAYER
 10
51.4858937821
 20
122.7863072234
 11
43.4858937821
 21
122.7863072234
  0
INSERT
  8
AP0064
 62
3
  6
BYLAYER
  2
_FILLED
 10
35.4858937821
 20
122.7863072234
 41
3.5
 42
3.5
 43
3.5
 50
180.0
  0
INSERT
  8
AP0064
 62
3
  6
BYLAYER
  2
_FILLED
 10
51.4858937821
 20
122.7863072234
 41
3.5
 42
3.5
 43
3.5
  0
ENDBLK
  8
0
  6
BYBLOCK
 62
0
  0
BLOCK
  8
AP0064
 62
3
  6
BYLAYER
  2
*D3
 70
65
 10
0.0
 20
0.0
  0
TEXT
  8
AP0064
 62
3
  6
BYLAYER
 10
64.1108937775
 20
142.388033852
  7
STANDARD
 40
3.5
  1
7,36
 50
90.0
 41
0.85
 72
0
  0
LINE
  8
AP0064
 62
3
  6
BYLAYER
 10
52.2858937821
 20
133.7963072251
 11
66.4858937775
 21
133.7963072251
  0
LINE
  8
AP0064
 62
3
  6
BYLAYER
 10
50.9858937813
 20
141.1544612334
 11
66.4858937775
 21
141.1544612334
  0
LINE
  8
AP0064
 62
3
  6
BYLAYER
 10
64.9858937775
 20
133.7963072251
 11
64.9858937775
 21
137.4753842292
  0
LINE
  8
AP0064
 62
3
  6
BYLAYER
 10
64.9858937775
 20
141.1544612334
 11
64.9858937775
 21
137.4753842292
  0
LINE
  8
AP0064
 62
3
  6
BYLAYER
 10
64.9858937775
 20
137.4753842292
 11
64.9858937775
 21
154.288033852
  0
INSERT
  8
AP0064
 62
3
  6
BYLAYER
  2
_FILLED
 10
64.9858937775
 20
133.7963072251
 41
3.5
 42
3.5
 43
3.5
 50
270.0
  0
INSERT
  8
AP0064
 62
3
  6
BYLAYER
  2
_FILLED
 10
64.9858937775
 20
141.1544612334
 41
3.5
 42
3.5
 43
3.5
 50
90.0
  0
ENDBLK
  8
0
  6
BYBLOCK
 62
0
  0
ENDSEC
  0
SECTION
  2
ENTITIES
  0
TEXT
  8
AP0069
 62
7
  6
BYLAYER
 10
286.4999998455
 20
174.9999947765
  7
TEXTSTYLE_2
 40
2.50001
  1
D
 41
0.9047619048
 72
0
  0
TEXT
  8
AP0069
 62
7
  6
BYLAYER
 10
286.5000002058
 20
127.4999946778
  7
TEXTSTYLE_2
 40
2.50001
  1
C
 50
180.0
 41
0.8333333333
 71
2
 72
2
 11
288.5833418724
 21
127.4999946778
  0
TEXT
  8
AP0069
 62
7
  6
BYLAYER
 10
286.499999652
 20
79.9999947942
  7
TEXTSTYLE_2
 40
2.50001
  1
B
 41
0.7857142857
 72
0
  0
TEXT
  8
AP0069
 62
7
  6
BYLAYER
 10
9.2380861905
 20
174.999995
  7
TEXTSTYLE_2
 40
2.50001
  1
D
 41
0.9047619048
 72
2
 11
11.5
 21
174.999995
  0
TEXT
  8
AP0069
 62
7
  6
BYLAYER
 10
9.4166579731
 20
127.4999949013
  7
TEXTSTYLE_2
 40
2.50001
  1
C
 41
0.8333333333
 72
2
 11
11.4999996398
 21
127.4999949013
  0
TEXT
  8
AP0069
 62
7
  6
BYLAYER
 10
9.3571345241
 20
32.4999950757
  7
TEXTSTYLE_2
 40
2.50001
  1
A
 41
0.8571428571
 72
2
 11
11.5000002384
 21
32.4999950757
  0
TEXT
  8
AP0069
 62
7
  6
BYLAYER
 10
9.535706622
 20
79.9999950177
  7
TEXTSTYLE_2
 40
2.50001
  1
B
 41
0.7857142857
 72
2
 11
11.5000001935
 21
79.9999950177
  0
TEXT
  8
AP0069
 62
7
  6
BYLAYER
 10
263.1829345145
 20
199.3292787107
  7
TEXTSTYLE_2
 40
2.50001
  1
1
 41
0.5714285714
 72
0
  0
TEXT
  8
AP0069
 62
7
  6
BYLAYER
 10
216.5194381194
 20
199.3292787107
  7
TEXTSTYLE_2
 40
2.50001
  1
2
 41
0.7857142857
 72
2
 11
218.4837316908
 21
199.3292787107
  0
TEXT
  8
AP0069
 62
7
  6
BYLAYER
 10
170.8496011812
 20
199.3292787107
  7
TEXTSTYLE_2
 40
2.50001
  1
3
 41
0.7142857143
 72
0
  0
TEXT
  8
AP0069
 62
7
  6
BYLAYER
 10
124.186104786
 20
199.3292787107
  7
TEXTSTYLE_2
 40
2.50001
  1
4
 41
0.7857142857
 72
2
 11
126.1503983575
 21
199.3292787107
  0
TEXT
  8
AP0069
 62
7
  6
BYLAYER
 10
78.5162678478
 20
199.3292787107
  7
TEXTSTYLE_2
 40
2.50001
  1
5
 41
0.7142857143
 72
0
  0
TEXT
  8
AP0069
 62
7
  6
BYLAYER
 10
31.8527714527
 20
199.3292787107
  7
TEXTSTYLE_2
 40
2.50001
  1
6
 41
0.7857142857
 72
2
 11
33.8170650241
 21
199.3292787107
  0
TEXT
  8
AP0069
 62
7
  6
BYLAYER
 10
78.5162683226
 20
8.329278075
  7
TEXTSTYLE_2
 40
2.50001
  1
5
 41
0.7142857143
 72
0
  0
TEXT
  8
AP0069
 62
7
  6
BYLAYER
 10
31.8527719274
 20
8.329278075
  7
TEXTSTYLE_2
 40
2.50001
  1
6
 41
0.7857142857
 72
2
 11
33.8170654988
 21
8.329278075
  0
INSERT
  8
AP0069
 62
7
  6
BYLAYER
  2
SYMBOL_283_BL0
 10
187.39066729
 20
17.432165279
  0
DIMENSION
  8
AP0064
 62
3
  6
BYLAYER
  2
*D0
 10
54.9858937775
 20
152.1863072212
 11
40.5108937796
 21
154.8113072212
 70
128
 13
31.9858937818
 23
140.801174976
 14
54.9858937775
 24
140.8011749807
  0
DIMENSION
  8
AP0064
 62
3
  6
BYLAYER
  2
*D1
 10
21.9858937818
 20
132.7863072234
 11
21.3604222938
 21
133.496847111
 70
128
 13
36.5721738389
 23
142.1863072212
 14
34.2858937848
 24
132.7863072234
 50
270.0
  0
DIMENSION
  8
AP0064
 62
3
  6
BYLAYER
  2
*D2
 10
51.4858937821
 20
122.7863072234
 11
40.5108937821
 21
125.4113072234
 70
128
 13
35.4858937821
 23
132.9963072251
 14
51.4858937821
 24
132.9963072251
  0
DIMENSION
  8
AP0064
 62
3
  6
BYLAYER
  2
*D3
 10
64.9858937775
 20
141.1544612334
 11
62.3608937775
 21
148.338033852
 70
128
 13
52.2858937821
 23
133.7963072251
 14
50.9858937813
 24
141.1544612334
 50
90.0
  0
LINE
  8
AP0069
 62
3
  6
BYLAYER
 10
102.7999998455
 20
62.2499995463
 11
289.9999998455
 21
62.2499995463
  0
LINE
  8
AP0069
 62
3
  6
BYLAYER
 10
102.7999998455
 20
62.2499995463
 11
102.7999998455
 21
6.9999995463
  0
LINE
  8
AP0069
 62
3
  6
BYLAYER
 10
209.5999998455
 20
53.7499995463
 11
289.9999998455
 21
53.7499995463
  0
LINE
  8
AP0069
 62
3
  6
BYLAYER
 10
102.7999998455
 20
45.2499995463
 11
289.9999998455
 21
45.2499995463
  0
LINE
  8
AP0069
 62
3
  6
BYLAYER
 10
102.7999998455
 20
40.9999995463
 11
157.3999998455
 21
40.9999995463
  0
LINE
  8
AP0069
 62
3
  6
BYLAYER
 10
165.3999998455
 20
40.9999995463
 11
209.5999998455
 21
40.9999995463
  0
LINE
  8
AP0069
 62
3
  6
BYLAYER
 10
102.7999998455
 20
36.7499995463
 11
157.3999998455
 21
36.7499995463
  0
LINE
  8
AP0069
 62
3
  6
BYLAYER
 10
165.3999998455
 20
36.7499995463
 11
209.5999998455
 21
36.7499995463
  0
LINE
  8
AP0069
 62
3
  6
BYLAYER
 10
102.7999998455
 20
32.4999995463
 11
157.3999998455
 21
32.4999995463
  0
LINE
  8
AP0069
 62
3
  6
BYLAYER
 10
165.3999998455
 20
32.4999995463
 11
289.9999998455
 21
32.4999995463
  0
LINE
  8
AP0069
 62
3
  6
BYLAYER
 10
102.7999998455
 20
28.2499995463
 11
157.3999998455
 21
28.2499995463
  0
LINE
  8
AP0069
 62
3
  6
BYLAYER
 10
165.3999998455
 20
28.2499995463
 11
209.5999998455
 21
28.2499995463
  0
LINE
  8
AP0069
 62
3
  6
BYLAYER
 10
102.7999998455
 20
23.9999995463
 11
157.3999998455
 21
23.9999995463
  0
LINE
  8
AP0069
 62
3
  6
BYLAYER
 10
209.5999998455
 20
23.9999995463
 11
289.9999998455
 21
23.9999995463
  0
LINE
  8
AP0069
 62
3
  6
BYLAYER
 10
102.7999998455
 20
19.7499995463
 11
157.3999998455
 21
19.7499995463
  0
LINE
  8
AP0069
 62
3
  6
BYLAYER
 10
102.7999998455
 20
15.4999995463
 11
157.3999998455
 21
15.4999995463
  0
LINE
  8
AP0069
 62
3
  6
BYLAYER
 10
209.5999998455
 20
15.4999995463
 11
276.5999998455
 21
15.4999995463
  0
LINE
  8
AP0069
 62
3
  6
BYLAYER
 10
102.7999998455
 20
11.2499995463
 11
157.3999998455
 21
11.2499995463
  0
LINE
  8
AP0069
 62
3
  6
BYLAYER
 10
102.7999998455
 20
6.9999995463
 11
289.9999998455
 21
6.9999995463
  0
LINE
  8
AP0069
 62
3
  6
BYLAYER
 10
110.5999998455
 20
45.2499995463
 11
110.5999998455
 21
6.9999995463
  0
LINE
  8
AP0069
 62
3
  6
BYLAYER
 10
136.5999998455
 20
45.2499995463
 11
136.5999998455
 21
6.9999995463
  0
LINE
  8
AP0069
 62
3
  6
BYLAYER
 10
149.5999998455
 20
45.2499995463
 11
149.5999998455
 21
6.9999995463
  0
LINE
  8
AP0069
 62
3
  6
BYLAYER
 10
157.3999998455
 20
45.2499995463
 11
157.3999998455
 21
6.9999995463
  0
LINE
  8
AP0069
 62
3
  6
BYLAYER
 10
165.3999998455
 20
62.2499995463
 11
165.3999998455
 21
6.9999995463
  0
LINE
  8
AP0069
 62
3
  6
BYLAYER
 10
179.3999998455
 20
45.2499995463
 11
179.3999998455
 21
28.2499995463
  0
LINE
  8
AP0069
 62
3
  6
BYLAYER
 10
194.5999998455
 20
62.2499995463
 11
194.5999998455
 21
28.2499995463
  0
LINE
  8
AP0069
 62
3
  6
BYLAYER
 10
209.5999998455
 20
62.2499995463
 11
209.5999998455
 21
6.9999995463
  0
LINE
  8
AP0069
 62
3
  6
BYLAYER
 10
229.5999998455
 20
62.2499995463
 11
229.5999998455
 21
53.7499995463
  0
LINE
  8
AP0069
 62
3
  6
BYLAYER
 10
264.5999998455
 20
62.2499995463
 11
264.5999998455
 21
45.2499995463
  0
LINE
  8
AP0069
 62
3
  6
BYLAYER
 10
276.5999998455
 20
32.4999995463
 11
276.5999998455
 21
6.9999995463
  0
LINE
  8
AP0069
 62
3
  6
BYLAYER
 10
289.9999998455
 20
62.2499995463
 11
289.9999998455
 21
6.9999995463
  0
TEXT
  8
AP0069
 62
3
  6
BYLAYER
 10
103.7374998455
 20
60.3499995463
  7
TEXTSTYLE_3
 40
1.2
  1
THE TECHNICAL INFORMATION AND DESIGN DATA DISCLOSED ON THIS
 41
0.786117837
 72
0
  0
TEXT
  8
AP0069
 62
3
  6
BYLAYER
 10
103.7374998455
 20
58.5499995463
  7
TEXTSTYLE_3
 40
1.2
  1
DOCUMENT HEREIN CONSTITUTES TRADE SECRETS AND IS THE PROPERTY
 41
0.7903981265
 72
0
  0
TEXT
  8
AP0069
 62
3
  6
BYLAYER
 10
103.7374998455
 20
56.7499995463
  7
TEXTSTYLE_3
 40
1.2
  1
OF "DENGTEC" AND ARE TO BE MAINTAINED IN STRICT CONFIDENCE BY
 41
0.7825917252
 72
0
  0
TEXT
  8
AP0069
 62
3
  6
BYLAYER
 10
103.7374998455
 20
54.9499995463
  7
TEXTSTYLE_3
 40
1.2
  1
THE RECIPIENT HEREOF AND IS LOANED UPON EXPRESS CONDITIONS THAT
 41
0.7792894936
 72
0
  0
TEXT
  8
AP0069
 62
3
  6
BYLAYER
 10
103.7374998455
 20
53.1499995463
  7
TEXTSTYLE_3
 40
1.2
  1
IT WILL NOT BE USED DIRECTLY OR INDIRECTLY IN ANY MANNER 
 41
0.7848788638
 72
0
  0
TEXT
  8
AP0069
 62
3
  6
BYLAYER
 10
103.7374998455
 20
51.3499995463
  7
TEXTSTYLE_3
 40
1.2
  1
DETRIMENTAL TO OUR INTRESTS AND SHALL BE USED ONLY IN CONNECTION 
 41
0.7805860806
 72
0
  0
TEXT
  8
AP0069
 62
3
  6
BYLAYER
 10
103.7374998455
 20
49.5499995463
  7
TEXTSTYLE_3
 40
1.2
  1
WITH MATERIALS AND/OR TECHNICAL INFORMATION AND/OR DESIGN DATA
 41
0.7976190476
 72
0
  0
TEXT
  8
AP0069
 62
3
  6
BYLAYER
 10
103.7374998455
 20
47.7499995463
  7
TEXTSTYLE_3
 40
1.2
  1
FURNISHED BY "DENGTEC" OR ITS AFFILIATES OR AGENTS. ALL SAID
 41
0.7674603175
 72
0
  0
TEXT
  8
AP0069
 62
3
  6
BYLAYER
 10
103.7374998455
 20
45.9499995463
  7
TEXTSTYLE_3
 40
1.2
  1
MATERIALS ARE SUBJECT TO RETURN UPON DEMAND.
 41
0.7857142857
 72
0
  0
TEXT
  8
AP0069
 62
3
  6
BYLAYER
 10
166.3374998455
 20
57.2499995463
  7
TEXTSTYLE_4
 40
2.0
  1
General Tolerance
 41
0.6932773109
 72
0
  0
TEXT
  8
AP0069
 62
3
  6
BYLAYER
 10
166.3374998455
 20
54.2499995463
  7
TEXTSTYLE_4
 40
2.0
  1
DIN ISO 2768
 41
0.7718253968
 72
0
  0
TEXT
  8
AP0069
 62
3
  6
BYLAYER
 10
166.3374998455
 20
51.2499995463
  7
TEXTSTYLE_4
 40
2.0
  1
Edges of workpieces
 41
0.7117794486
 72
0
  0
TEXT
  8
AP0069
 62
3
  6
BYLAYER
 10
166.3374998455
 20
48.2499995463
  7
TEXTSTYLE_4
 40
2.0
  1
DIN 6784
 41
0.7827380952
 72
0
  0
TEXT
  8
AP0069
 62
3
  6
BYLAYER
 10
197.0642855598
 20
56.4999995463
  7
TEXTSTYLE_5
 40
3.0
  1
Scale
 41
0.6714285714
 72
1
 11
202.0999998455
 21
56.4999995463
  0
TEXT
  8
AP0069
 62
3
  6
BYLAYER
 10
210.5374998455
 20
58.6249995463
  7
TEXTSTYLE_5
 40
2.5
  1
Drawing
 41
0.7448979592
 72
0
  0
TEXT
  8
AP0069
 62
3
  6
BYLAYER
 10
210.5374998455
 20
54.8749995463
  7
TEXTSTYLE_5
 40
2.5
  1
Type 
 41
0.7380952381
 72
0
  0
TEXT
  8
AP0069
 62
3
  6
BYLAYER
 10
230.5374998455
 20
55.9999995463
  7
TEXTSTYLE_5
 40
4.0
  1
ASSEM
 41
0.8
 72
0
  0
TEXT
  8
AP0069
 62
3
  6
BYLAYER
 10
246.5374998455
 20
55.9999995463
  7
TEXTSTYLE_5
 40
4.0
  1
 
 41
0.7857142857
 72
0
  0
TEXT
  8
AP0069
 62
3
  6
BYLAYER
 10
265.5374998455
 20
58.9749995463
  7
TEXTSTYLE_5
 40
2.3
  1
Weight 
 41
0.768707483
 72
0
  0
TEXT
  8
AP0069
 62
3
  6
BYLAYER
 10
281.8339284169
 20
54.7249995463
  7
TEXTSTYLE_5
 40
2.3
  1
  KG
 41
0.7857142857
 72
2
 11
289.0624998455
 21
54.7249995463
  0
TEXT
  8
AP0069
 62
3
  6
BYLAYER
 10
196.8499998455
 20
47.9999995463
  7
TEXTSTYLE_5
 40
3.0
  1
1,000
 41
0.7
 72
1
 11
202.0999998455
 21
47.9999995463
  0
TEXT
  8
AP0069
 62
3
  6
BYLAYER
 10
210.5374998455
 20
50.4749995463
  7
TEXTSTYLE_5
 40
2.3
  1
Material:
 41
0.6216931217
 72
0
  0
TEXT
  8
AP0069
 62
3
  6
BYLAYER
 10
210.5374998455
 20
46.2249995463
  7
TEXTSTYLE_5
 40
2.3
  1
Color:
 41
0.626984127
 72
0
  0
TEXT
  8
AP0069
 62
3
  6
BYLAYER
 10
105.7964284169
 20
41.9749995463
  7
TEXTSTYLE_5
 40
2.3
  1
8
 41
0.7857142857
 72
1
 11
106.6999998455
 21
41.9749995463
  0
TEXT
  8
AP0069
 62
3
  6
BYLAYER
 10
163.2124998455
 20
13.7440471654
  7
TEXTSTYLE_2
 40
5.0
  1
CAD-A4
 50
90.0
 41
0.8253968254
 72
2
 11
163.2124998455
 21
38.5059519273
  0
TEXT
  8
AP0069
 62
3
  6
BYLAYER
 10
183.1666665122
 20
41.9749995463
  7
TEXTSTYLE_5
 40
2.3
  1
DATE
 41
0.8333333333
 72
1
 11
186.9999998455
 21
41.9749995463
  0
TEXT
  8
AP0069
 62
3
  6
BYLAYER
 10
198.4035712741
 20
41.9749995463
  7
TEXTSTYLE_5
 40
2.3
  1
NAME
 41
0.8035714286
 72
1
 11
202.0999998455
 21
41.9749995463
  0
TEXT
  8
AP0069
 62
3
  6
BYLAYER
 10
210.5374998455
 20
41.9749995463
  7
TEXTSTYLE_5
 40
2.3
  1
Part Name:
 41
0.7
 72
0
  0
TEXT
  8
AP0069
 62
3
  6
BYLAYER
 10
105.7964284169
 20
37.7249995463
  7
TEXTSTYLE_5
 40
2.3
  1
7
 41
0.7857142857
 72
1
 11
106.6999998455
 21
37.7249995463
  0
TEXT
  8
AP0069
 62
3
  6
BYLAYER
 10
166.3374998455
 20
37.8249995463
  7
TEXTSTYLE_6
 40
2.1
  1
DESIGNER
 41
0.7648809524
 72
0
  0
TEXT
  8
AP0069
 62
3
  6
BYLAYER
 10
179.4571427026
 20
37.7749995463
  7
TEXTSTYLE_5
 40
2.2
  1
24-Aug-20
 41
0.7619047619
 72
1
 11
186.9999998455
 21
37.7749995463
  0
TEXT
  8
AP0069
 62
3
  6
BYLAYER
 10
194.4880950836
 20
37.7249995463
  7
TEXTSTYLE_5
 40
2.3
  1
David Cao
 41
0.7354497354
 72
1
 11
202.0999998455
 21
37.7249995463
  0
TEXT
  8
AP0069
 62
3
  6
BYLAYER
 10
241.7999998455
 20
34.7499995463
  7
TEXTSTYLE_5
 40
4.0
  1
AP006
 41
0.8
 72
1
 11
249.7999998455
 21
34.7499995463
  0
TEXT
  8
AP0069
 62
3
  6
BYLAYER
 10
105.7964284169
 20
33.4749995463
  7
TEXTSTYLE_5
 40
2.3
  1
6
 41
0.7857142857
 72
1
 11
106.6999998455
 21
33.4749995463
  0
TEXT
  8
AP0069
 62
3
  6
BYLAYER
 10
166.3374998455
 20
33.5749995463
  7
TEXTSTYLE_6
 40
2.1
  1
CHECKER
 41
0.7789115646
 72
0
  0
TEXT
  8
AP0069
 62
3
  6
BYLAYER
 10
105.8785712741
 20
29.2249995463
  7
TEXTSTYLE_5
 40
2.3
  1
5
 41
0.7142857143
 72
1
 11
106.6999998455
 21
29.2249995463
  0
TEXT
  8
AP0069
 62
3
  6
BYLAYER
 10
166.3374998455
 20
29.3249995463
  7
TEXTSTYLE_6
 40
2.1
  1
APPROVER
 41
0.7916666667
 72
0
  0
TEXT
  8
AP0069
 62
3
  6
BYLAYER
 10
210.5374998455
 20
29.2249995463
  7
TEXTSTYLE_5
 40
2.3
  1
Drawing Number:
 41
0.7238095238
 72
0
  0
TEXT
  8
AP0069
 62
3
  6
BYLAYER
 10
277.5374998455
 20
29.2249995463
  7
TEXTSTYLE_5
 40
2.3
  1
Rev:
 41
0.6428571429
 72
0
  0
TEXT
  8
AP0069
 62
3
  6
BYLAYER
 10
105.7964284169
 20
24.9749995463
  7
TEXTSTYLE_5
 40
2.3
  1
4
 41
0.7857142857
 72
1
 11
106.6999998455
 21
24.9749995463
  0
TEXT
  8
AP0069
 62
3
  6
BYLAYER
 10
284.572023655
 20
24.9749995463
  7
TEXTSTYLE_8
 40
2.3
  1
A
 41
1.0
 72
2
 11
287.2553569884
 21
24.9749995463
  0
TEXT
  8
AP0069
 62
3
  6
BYLAYER
 10
287.2553569884
 20
24.9749995463
  7
TEXTSTYLE_5
 40
2.3
  1
0
 41
0.7857142857
 72
2
 11
289.0624998455
 21
24.9749995463
  0
TEXT
  8
AP0069
 62
3
  6
BYLAYER
 10
105.8785712741
 20
20.7249995463
  7
TEXTSTYLE_5
 40
2.3
  1
3
 41
0.7142857143
 72
1
 11
106.6999998455
 21
20.7249995463
  0
TEXT
  8
AP0069
 62
3
  6
BYLAYER
 10
210.5374998455
 20
20.7249995463
  7
TEXTSTYLE_5
 40
2.3
  1
Part Number / CSG:
 41
0.7275132275
 72
0
  0
TEXT
  8
AP0069
 62
3
  6
BYLAYER
 10
277.5374998455
 20
20.7249995463
  7
TEXTSTYLE_5
 40
2.3
  1
Sheet:
 41
0.6428571429
 72
0
  0
TEXT
  8
AP0069
 62
3
  6
BYLAYER
 10
105.7964284169
 20
16.4749995463
  7
TEXTSTYLE_5
 40
2.3
  1
2
 41
0.7857142857
 72
1
 11
106.6999998455
 21
16.4749995463
  0
TEXT
  8
AP0069
 62
3
  6
BYLAYER
 10
282.5857141312
 20
16.3749995463
  7
TEXTSTYLE_5
 40
2.5
  1
1
 41
0.5714285714
 72
1
 11
283.2999998455
 21
16.3749995463
  0
TEXT
  8
AP0069
 62
3
  6
BYLAYER
 10
106.0428569884
 20
12.2249995463
  7
TEXTSTYLE_5
 40
2.3
  1
1
 41
0.5714285714
 72
1
 11
106.6999998455
 21
12.2249995463
  0
TEXT
  8
AP0069
 62
3
  6
BYLAYER
 10
210.5374998455
 20
12.2249995463
  7
TEXTSTYLE_5
 40
2.3
  1
Project Number:
 41
0.680952381
 72
0
  0
TEXT
  8
AP0069
 62
3
  6
BYLAYER
 10
281.5749998455
 20
12.2249995463
  7
TEXTSTYLE_5
 40
2.3
  1
OF
 41
0.75
 72
1
 11
283.2999998455
 21
12.2249995463
  0
TEXT
  8
AP0069
 62
3
  6
BYLAYER
 10
104.3178569884
 20
7.9749995463
  7
TEXTSTYLE_5
 40
2.3
  1
No.
 41
0.6904761905
 72
1
 11
106.6999998455
 21
7.9749995463
  0
TEXT
  8
AP0069
 62
3
  6
BYLAYER
 10
116.234523655
 20
7.9749995463
  7
TEXTSTYLE_5
 40
2.3
  1
CONTENTS
 41
0.8005952381
 72
1
 11
123.5999998455
 21
7.9749995463
  0
TEXT
  8
AP0069
 62
3
  6
BYLAYER
 10
139.2666665122
 20
7.9749995463
  7
TEXTSTYLE_5
 40
2.3
  1
DATE
 41
0.8333333333
 72
1
 11
143.0999998455
 21
7.9749995463
  0
TEXT
  8
AP0069
 62
3
  6
BYLAYER
 10
149.8035712741
 20
7.9749995463
  7
TEXTSTYLE_5
 40
2.3
  1
NAME
 41
0.8035714286
 72
1
 11
153.4999998455
 21
7.9749995463
  0
TEXT
  8
AP0069
 62
3
  6
BYLAYER
 10
282.5857141312
 20
7.8749995463
  7
TEXTSTYLE_5
 40
2.5
  1
1
 41
0.5714285714
 72
1
 11
283.2999998455
 21
7.8749995463
  0
LINE
  8
AP0069
 62
7
  6
BYLAYER
 10
7.0000003034
 20
6.9999995463
 11
7.0000003034
 21
203.0000001821
  0
LINE
  8
AP0069
 62
7
  6
BYLAYER
 10
12.0000003034
 20
11.9999995463
 11
12.0000003034
 21
198.0000001821
  0
LINE
  8
AP0069
 62
7
  6
BYLAYER
 10
56.1666669107
 20
11.9999995463
 11
56.1666669107
 21
6.9999995463
  0
LINE
  8
AP0069
 62
7
  6
BYLAYER
 10
56.166666436
 20
198.0000001821
 11
56.166666436
 21
203.0000001821
  0
LINE
  8
AP0069
 62
7
  6
BYLAYER
 10
7.0000003034
 20
6.9999995463
 11
289.9999998455
 21
6.9999995463
  0
LINE
  8
AP0069
 62
7
  6
BYLAYER
 10
12.0000003034
 20
11.9999995463
 11
102.7999998455
 21
11.9999995463
  0
LINE
  8
AP0069
 62
3
  6
BYLAYER
 10
279.4966877836
 20
51.061206211
 11
284.4966877836
 21
52.311206211
  0
LINE
  8
AP0069
 62
3
  6
BYLAYER
 10
285.3019993052
 20
49.7764109677
 11
278.6507568507
 21
49.7764109677
  0
LINE
  8
AP0069
 62
3
  6
BYLAYER
 10
274.2165952143
 20
49.7764109677
 11
267.363799958
 21
49.7764109677
  0
LINE
  8
AP0069
 62
7
  6
BYLAYER
 10
102.3333335774
 20
11.9999995463
 11
102.3333335774
 21
6.9999995463
  0
LINE
  8
AP0069
 62
7
  6
BYLAYER
 10
102.3333331026
 20
198.0000001821
 11
102.3333331026
 21
203.0000001821
  0
LINE
  8
AP0069
 62
7
  6
BYLAYER
 10
12.0000003034
 20
57.5000003146
 11
7.0000003034
 21
57.5000003146
  0
LINE
  8
AP0069
 62
3
  6
BYLAYER
 10
279.4966877836
 20
48.561206211
 11
284.4966877836
 21
47.311206211
  0
LINE
  8
AP0069
 62
7
  6
BYLAYER
 10
148.4999997693
 20
198.0000001821
 11
148.4999997693
 21
203.0000001821
  0
LINE
  8
AP0069
 62
7
  6
BYLAYER
 10
284.9999998455
 20
104.9999997765
 11
289.9999998455
 21
104.9999997765
  0
LINE
  8
AP0069
 62
7
  6
BYLAYER
 10
12.0000003034
 20
105.0000003146
 11
7.0000003034
 21
105.0000003146
  0
LINE
  8
AP0069
 62
7
  6
BYLAYER
 10
194.6666665054
 20
203.0000001393
 11
194.6666665054
 21
198.0000001393
  0
LINE
  8
AP0069
 62
7
  6
BYLAYER
 10
12.0000003034
 20
152.5000003146
 11
7.0000003034
 21
152.5000003146
  0
LINE
  8
AP0069
 62
7
  6
BYLAYER
 10
284.9999998455
 20
152.4999997765
 11
289.9999998455
 21
152.4999997765
  0
LINE
  8
AP0069
 62
7
  6
BYLAYER
 10
240.8333331026
 20
198.0000001821
 11
240.8333331026
 21
203.0000001821
  0
LINE
  8
AP0069
 62
7
  6
BYLAYER
 10
12.0000003034
 20
198.0000001821
 11
284.9999998455
 21
198.0000001821
  0
LINE
  8
AP0069
 62
7
  6
BYLAYER
 10
7.0000003034
 20
203.0000001821
 11
289.9999998455
 21
203.0000001821
  0
LINE
  8
AP0069
 62
3
  6
BYLAYER
 10
270.7151003168
 20
46.4126224486
 11
270.699312014
 21
52.9805564118
  0
LINE
  8
AP0069
 62
3
  6
BYLAYER
 10
279.4966877836
 20
51.061206211
 11
279.4966877836
 21
48.561206211
  0
LINE
  8
AP0069
 62
3
  6
BYLAYER
 10
284.4966877836
 20
52.311206211
 11
284.4966877836
 21
47.311206211
  0
LINE
  8
AP0069
 62
7
  6
BYLAYER
 10
284.9999998455
 20
62.2499995463
 11
284.9999998455
 21
198.0000001821
  0
LINE
  8
AP0069
 62
7
  6
BYLAYER
 10
289.9999998455
 20
6.9999995463
 11
289.9999998455
 21
203.0000001821
  0
LINE
  8
AP006-BASE2
 62
7
  6
BYLAYER
 10
31.9858937818
 20
139.801174976
 11
31.9858937818
 21
139.5963072234
  0
LINE
  8
AP006-BASE2
 62
7
  6
BYLAYER
 10
34.4858937848
 20
140.1624186058
 11
34.4858937848
 21
139.0863072234
  0
LINE
  8
AP006-BASE2
 62
7
  6
BYLAYER
 10
34.4858937848
 20
135.7863072234
 11
34.7858937848
 21
134.5863072234
  0
LINE
  8
AP006-BASE2
 62
7
  6
BYLAYER
 10
34.7858937848
 20
138.7863072236
 11
34.7858937848
 21
137.7863072234
  0
LINE
  8
AP006-BASE2
 62
7
  6
BYLAYER
 10
34.7858937848
 20
136.5863072234
 11
34.7858937848
 21
135.7863072234
  0
LINE
  8
AP006-BASE2
 62
7
  6
BYLAYER
 10
34.7858937848
 20
134.5863072234
 11
34.7858937848
 21
133.2863072234
  0
LINE
  8
AP006-BASE2
 62
7
  6
BYLAYER
 10
35.1858937821
 20
139.296307225
 11
35.1858937821
 21
140.0963072251
  0
LINE
  8
AP006-BASE2
 62
7
  6
BYLAYER
 10
34.4858937848
 20
137.7863072234
 11
34.7858937848
 21
136.5863072234
  0
LINE
  8
AP006-BASE2
 62
7
  6
BYLAYER
 10
35.4858937821
 20
133.9963072251
 11
35.4858937821
 21
138.1963072251
  0
LINE
  8
AP006-BASE2
 62
7
  6
BYLAYER
 10
34.4305474485
 20
141.2621102266
 11
32.1467939451
 21
140.0669779772
  0
LINE
  8
AP006-BASE2
 62
7
  6
BYLAYER
 10
36.1858937821
 20
138.3963072251
 11
36.1858937821
 21
138.6963072251
  0
LINE
  8
AP006-DIFFUSE2
 62
7
  6
BYLAYER
 10
36.819178757
 20
138.1684804243
 11
36.819178757
 21
139.9091484972
  0
LINE
  8
AP006-BASE2
 62
7
  6
BYLAYER
 10
32.8703489119
 20
139.3305042219
 11
34.4858937848
 21
140.1624186058
  0
LINE
  8
AP006-DIFFUSE2
 62
7
  6
BYLAYER
 10
36.0083209711
 20
139.0939670627
 11
36.6351423334
 21
138.1059258033
  0
LINE
  8
AP006-BASE2
 62
7
  6
BYLAYER
 10
35.8609133855
 20
140.5963072252
 11
35.4567681978
 21
141.2963072251
  0
LINE
  8
AP006-BASE2
 62
7
  6
BYLAYER
 10
35.2858937848
 20
132.7863072234
 11
51.6858937821
 21
132.7963072248
  0
LINE
  8
AP006-BASE2
 62
7
  6
BYLAYER
 10
51.2858937821
 20
133.7963072251
 11
43.7858937821
 21
133.7963072251
  0
LINE
  8
AP006-BASE2
 62
7
  6
BYLAYER
 10
43.1858937821
 20
133.7963072251
 11
35.6858937821
 21
133.7963072251
  0
LINE
  8
AP006-BASE2
 62
7
  6
BYLAYER
 10
43.4858937821
 20
133.4963072251
 11
43.1858937821
 21
133.7963072251
  0
LINE
  8
AP006-BASE2
 62
7
  6
BYLAYER
 10
34.7858937848
 20
135.7863072234
 11
34.4858937848
 21
135.7863072234
  0
LINE
  8
AP006-BASE2
 62
7
  6
BYLAYER
 10
52.4858937821
 20
135.7963072248
 11
52.1858937821
 21
135.7963072248
  0
LINE
  8
AP006-DIFFUSE2
 62
7
  6
BYLAYER
 10
35.5149015455
 20
141.2964489565
 11
35.6272917372
 21
141.2192636754
  0
LINE
  8
AP006-BASE2
 62
7
  6
BYLAYER
 10
34.7858937848
 20
137.7863072234
 11
34.4858937848
 21
137.7863072234
  0
LINE
  8
AP006-BASE2
 62
7
  6
BYLAYER
 10
52.4858937821
 20
137.7963072248
 11
52.1858937821
 21
137.7963072248
  0
LINE
  8
AP006-BASE2
 62
7
  6
BYLAYER
 10
35.5858937821
 20
138.2963072251
 11
36.0858937821
 21
138.2963072251
  0
LINE
  8
AP006-BASE2
 62
7
  6
BYLAYER
 10
50.8858937821
 20
138.2963072251
 11
51.3858937821
 21
138.2963072251
  0
LINE
  8
AP006-DIFFUSE2
 62
7
  6
BYLAYER
 10
51.3444958314
 20
141.2192636754
 11
51.4568860256
 21
141.2964489565
  0
LINE
  8
AP006-BASE2
 62
7
  6
BYLAYER
 10
51.4858937821
 20
138.9963072251
 11
51.085893782
 21
138.9963072251
  0
LINE
  8
AP006-BASE2
 62
7
  6
BYLAYER
 10
35.8858937824
 20
138.9963072251
 11
35.4858937817
 21
138.9963072251
  0
LINE
  8
AP006-BASE2
 62
7
  6
BYLAYER
 10
32.2858937826
 20
139.2963072234
 11
32.731249076
 21
139.2963072234
  0
LINE
  8
AP006-BASE2
 62
7
  6
BYLAYER
 10
54.2146816097
 20
139.2963072248
 11
54.6858937775
 21
139.2963072248
  0
LINE
  8
AP006-BASE2
 62
7
  6
BYLAYER
 10
43.7858937821
 20
133.7963072251
 11
43.4858937821
 21
133.4963072251
  0
LINE
  8
AP006-BASE2
 62
7
  6
BYLAYER
 10
35.3858937821
 20
140.2963072251
 11
35.6877083065
 21
140.2963072251
  0
LINE
  8
AP006-BASE2
 62
7
  6
BYLAYER
 10
51.2840792577
 20
140.2963072251
 11
51.5858937821
 21
140.2963072251
  0
LINE
  8
AP006-DIFFUSE2
 62
7
  6
BYLAYER
 10
36.9858937847
 20
141.1544612334
 11
49.9858937813
 21
141.1544612334
  0
LINE
  8
AP006-BASE2
 62
7
  6
BYLAYER
 10
52.4021402812
 20
141.2963072251
 11
51.5150193662
 21
141.2963072251
  0
LINE
  8
AP006-BASE2
 62
7
  6
BYLAYER
 10
35.4567681978
 20
141.2963072251
 11
34.5696472844
 21
141.2963072251
  0
LINE
  8
AP006-DIFFUSE2
 62
7
  6
BYLAYER
 10
34.6795649446
 20
141.2964489565
 11
35.5149015455
 21
141.2964489565
  0
LINE
  8
AP006-DIFFUSE2
 62
7
  6
BYLAYER
 10
51.4568860256
 20
141.2964489565
 11
52.2922226265
 21
141.2964489565
  0
LINE
  8
AP006-BASE2
 62
7
  6
BYLAYER
 10
51.5150193662
 20
141.2963072251
 11
51.1108741787
 21
140.5963072252
  0
LINE
  8
AP006-DIFFUSE2
 62
7
  6
BYLAYER
 10
49.3996137323
 20
142.1863072212
 11
37.5721738389
 21
142.1863072212
  0
LINE
  8
AP006-DIFFUSE2
 62
7
  6
BYLAYER
 10
50.3366452327
 20
138.1059258033
 11
50.9634665977
 21
139.0939670632
  0
LINE
  8
AP006-DIFFUSE2
 62
7
  6
BYLAYER
 10
50.1526088091
 20
139.9091484972
 11
50.1526088091
 21
138.1684804244
  0
LINE
  8
AP006-BASE2
 62
7
  6
BYLAYER
 10
52.4858937821
 20
140.1624186072
 11
54.0755817738
 21
139.3305042233
  0
LINE
  8
AP006-BASE2
 62
7
  6
BYLAYER
 10
50.7858937821
 20
138.6963072254
 11
50.7858937821
 21
138.3963072251
  0
LINE
  8
AP006-BASE2
 62
7
  6
BYLAYER
 10
54.8249936136
 20
140.0669779822
 11
52.5412401173
 21
141.2621102266
  0
LINE
  8
AP006-BASE2
 62
7
  6
BYLAYER
 10
51.4858937821
 20
138.1963072251
 11
51.4858937821
 21
133.9963072251
  0
LINE
  8
AP006-BASE2
 62
7
  6
BYLAYER
 10
51.7858937821
 20
140.0963072251
 11
51.7858937821
 21
139.2963072247
  0
LINE
  8
AP006-BASE2
 62
7
  6
BYLAYER
 10
52.1858937821
 20
133.2963072248
 11
52.1858937821
 21
134.5963072248
  0
LINE
  8
AP006-BASE2
 62
7
  6
BYLAYER
 10
52.1858937821
 20
135.7963072248
 11
52.1858937821
 21
136.5963072248
  0
LINE
  8
AP006-BASE2
 62
7
  6
BYLAYER
 10
52.1858937821
 20
137.7963072248
 11
52.1858937821
 21
138.7963072248
  0
LINE
  8
AP006-BASE2
 62
7
  6
BYLAYER
 10
52.4858937821
 20
139.0963072256
 11
52.4858937821
 21
140.1624186072
  0
LINE
  8
AP006-BASE2
 62
7
  6
BYLAYER
 10
52.1858937821
 20
136.5963072248
 11
52.4858937821
 21
137.7963072248
  0
LINE
  8
AP006-BASE2
 62
7
  6
BYLAYER
 10
52.1858937821
 20
134.5963072248
 11
52.4858937821
 21
135.7963072248
  0
LINE
  8
AP006-BASE2
 62
7
  6
BYLAYER
 10
54.9858937775
 20
139.5963072256
 11
54.9858937775
 21
139.8011749807
  0
LINE
  8
AP006-BASE2
 62
7
  6
BYLAYER
 10
72.2641253166
 20
132.7863072234
 11
72.2641253166
 21
141.2963072251
  0
LINE
  8
AP006-DIFFUSE2
 62
7
  6
BYLAYER
 10
72.2641253166
 20
141.2964489565
 11
72.2641253166
 21
142.1863072212
  0
LINE
  8
AP006-BASE2
 62
7
  6
BYLAYER
 10
72.2641253166
 20
132.7863072234
 11
272.2641253166
 21
132.7863072234
  0
LINE
  8
AP006-BASE2
 62
7
  6
BYLAYER
 10
272.2641253166
 20
133.2863072234
 11
72.2641253166
 21
133.2863072234
  0
LINE
  8
AP006-BASE2
 62
7
  6
BYLAYER
 10
272.2641253166
 20
134.5863072234
 11
72.2641253166
 21
134.5863072234
  0
LINE
  8
AP006-BASE2
 62
7
  6
BYLAYER
 10
272.2641253166
 20
135.7863072234
 11
72.2641253166
 21
135.7863072234
  0
LINE
  8
AP006-BASE2
 62
7
  6
BYLAYER
 10
272.2641253166
 20
136.5863072234
 11
72.2641253166
 21
136.5863072234
  0
LINE
  8
AP006-BASE2
 62
7
  6
BYLAYER
 10
272.2641253166
 20
137.7863072234
 11
72.2641253166
 21
137.7863072234
  0
LINE
  8
AP006-BASE2
 62
7
  6
BYLAYER
 10
72.2641253166
 20
138.7863072234
 11
272.2641253166
 21
138.7863072234
  0
LINE
  8
AP006-BASE2
 62
7
  6
BYLAYER
 10
272.2641253166
 20
139.0863072234
 11
72.2641253166
 21
139.0863072234
  0
LINE
  8
AP006-BASE2
 62
7
  6
BYLAYER
 10
72.2641253166
 20
139.2963072234
 11
272.2641253166
 21
139.2963072234
  0
LINE
  8
AP006-BASE2
 62
7
  6
BYLAYER
 10
272.2641253166
 20
139.5963072234
 11
72.2641253166
 21
139.5963072234
  0
LINE
  8
AP006-BASE2
 62
7
  6
BYLAYER
 10
72.2641253166
 20
139.801174976
 11
272.2641253166
 21
139.801174976
  0
LINE
  8
AP006-BASE2
 62
7
  6
BYLAYER
 10
272.2641253166
 20
140.0669779773
 11
72.2641253166
 21
140.0669779773
  0
LINE
  8
AP006-BASE2
 62
7
  6
BYLAYER
 10
72.2641253166
 20
141.2621102266
 11
272.2641253166
 21
141.2621102266
  0
LINE
  8
AP006-BASE2
 62
7
  6
BYLAYER
 10
272.2641253166
 20
141.2963072251
 11
72.2641253166
 21
141.2963072251
  0
LINE
  8
AP006-DIFFUSE2
 62
7
  6
BYLAYER
 10
272.2641253166
 20
142.1863072212
 11
72.2641253166
 21
142.1863072212
  0
LINE
  8
AP006-DIFFUSE2
 62
7
  6
BYLAYER
 10
272.2641253166
 20
142.1863072212
 11
272.2641253166
 21
141.2964489565
  0
LINE
  8
AP006-BASE2
 62
7
  6
BYLAYER
 10
272.2641253166
 20
141.2963072251
 11
272.2641253166
 21
132.7863072234
  0
LINE
  8
AP006-BASE2
 62
7
  6
BYLAYER
 10
72.2641253166
 20
87.4926614895
 11
72.2641253166
 21
90.1863326523
  0
LINE
  8
AP006-BASE3
 62
8
  6
HIDDEN
 10
72.2641253166
 20
90.1863326523
 11
72.2641253166
 21
107.7989903342
  0
LINE
  8
AP006-DIFFUSE2
 62
7
  6
BYLAYER
 10
72.2641253166
 20
90.1863326523
 11
72.2641253166
 21
107.7989903342
  0
LINE
  8
AP006-BASE2
 62
7
  6
BYLAYER
 10
72.2641253166
 20
107.7989903342
 11
72.2641253166
 21
110.4926614852
  0
LINE
  8
AP006-BASE2
 62
7
  6
BYLAYER
 10
72.2641253166
 20
87.4926614895
 11
272.2641253166
 21
87.4926614895
  0
LINE
  8
AP006-BASE2
 62
7
  6
BYLAYER
 10
272.2641253166
 20
87.653561653
 11
72.2641253166
 21
87.653561653
  0
LINE
  8
AP006-BASE3
 62
8
  6
HIDDEN
 10
72.2641253166
 20
87.7926614895
 11
272.2641253166
 21
87.7926614895
  0
LINE
  8
AP006-BASE3
 62
8
  6
HIDDEN
 10
272.2641253166
 20
88.2380167837
 11
72.2641253166
 21
88.2380167837
  0
LINE
  8
AP006-BASE3
 62
8
  6
HIDDEN
 10
72.2641253166
 20
88.3771166197
 11
272.2641253166
 21
88.3771166197
  0
LINE
  8
AP006-BASE2
 62
7
  6
BYLAYER
 10
72.2641253166
 20
89.9373151561
 11
272.2641253166
 21
89.9373151561
  0
LINE
  8
AP006-BASE3
 62
8
  6
HIDDEN
 10
272.2641253166
 20
89.9926614925
 11
72.2641253166
 21
89.9926614925
  0
LINE
  8
AP006-BASE2
 62
7
  6
BYLAYER
 10
272.2641253166
 20
90.0764149921
 11
72.2641253166
 21
90.0764149921
  0
LINE
  8
AP006-DIFFUSE2
 62
7
  6
BYLAYER
 10
72.2641253166
 20
90.1863326523
 11
272.2641253166
 21
90.1863326523
  0
LINE
  8
AP006-BASE3
 62
8
  6
HIDDEN
 10
272.2641253166
 20
90.2926614925
 11
72.2641253166
 21
90.2926614925
  0
LINE
  8
AP006-BASE3
 62
8
  6
HIDDEN
 10
272.2641253166
 20
90.6926614898
 11
72.2641253166
 21
90.6926614898
  0
LINE
  8
AP006-BASE3
 62
8
  6
HIDDEN
 10
72.2641253166
 20
90.7926614925
 11
272.2641253166
 21
90.7926614925
  0
LINE
  8
AP006-BASE3
 62
8
  6
HIDDEN
 10
72.2641253166
 20
90.8926614898
 11
272.2641253166
 21
90.8926614898
  0
LINE
  8
AP006-BASE3
 62
8
  6
HIDDEN
 10
272.2641253166
 20
90.9635359055
 11
72.2641253166
 21
90.9635359055
  0
LINE
  8
AP006-BASE3
 62
8
  6
HIDDEN
 10
272.2641253166
 20
90.9926614898
 11
72.2641253166
 21
90.9926614898
  0
LINE
  8
AP006-DIFFUSE3
 62
8
  6
HIDDEN
 10
272.2641253166
 20
91.0216692532
 11
72.2641253166
 21
91.0216692532
  0
LINE
  8
AP006-BASE3
 62
8
  6
HIDDEN
 10
72.2641253166
 20
91.0926614898
 11
272.2641253166
 21
91.0926614898
  0
LINE
  8
AP006-DIFFUSE3
 62
8
  6
HIDDEN
 10
72.2641253166
 20
91.1102124239
 11
272.2641253166
 21
91.1102124239
  0
LINE
  8
AP006-DIFFUSE3
 62
8
  6
HIDDEN
 10
272.2641253166
 20
91.134059445
 11
72.2641253166
 21
91.134059445
  0
LINE
  8
AP006-BASE3
 62
8
  6
HIDDEN
 10
272.2641253166
 20
91.1926614898
 11
72.2641253166
 21
91.1926614898
  0
LINE
  8
AP006-BASE3
 62
8
  6
HIDDEN
 10
72.2641253166
 20
91.3676810933
 11
272.2641253166
 21
91.3676810933
  0
LINE
  8
AP006-BASE3
 62
8
  6
HIDDEN
 10
72.2641253166
 20
91.3926614899
 11
272.2641253166
 21
91.3926614899
  0
LINE
  8
AP006-DIFFUSE3
 62
8
  6
HIDDEN
 10
272.2641253166
 20
91.399414799
 11
72.2641253166
 21
91.399414799
  0
LINE
  8
AP006-DIFFUSE3
 62
8
  6
HIDDEN
 10
272.2641253166
 20
91.4262999955
 11
72.2641253166
 21
91.4262999955
  0
LINE
  8
AP006-DIFFUSE3
 62
8
  6
HIDDEN
 10
72.2641253166
 20
91.5150886786
 11
272.2641253166
 21
91.5150886786
  0
LINE
  8
AP006-DIFFUSE3
 62
8
  6
HIDDEN
 10
272.2641253166
 20
91.521986574
 11
72.2641253166
 21
91.521986574
  0
LINE
  8
AP006-BASE3
 62
8
  6
HIDDEN
 10
272.2641253166
 20
91.5926614898
 11
72.2641253166
 21
91.5926614898
  0
LINE
  8
AP006-BASE3
 62
8
  6
HIDDEN
 10
272.2641253166
 20
91.6926614898
 11
72.2641253166
 21
91.6926614898
  0
LINE
  8
AP006-DIFFUSE3
 62
8
  6
HIDDEN
 10
72.2641253166
 20
91.9926614917
 11
272.2641253166
 21
91.9926614917
  0
LINE
  8
AP006-DIFFUSE3
 62
8
  6
HIDDEN
 10
272.2641253166
 20
92.1419100412
 11
72.2641253166
 21
92.1419100412
  0
LINE
  8
AP006-DIFFUSE3
 62
8
  6
HIDDEN
 10
272.2641253166
 20
92.1593039782
 11
72.2641253166
 21
92.1593039782
  0
LINE
  8
AP006-DIFFUSE3
 62
8
  6
HIDDEN
 10
272.2641253166
 20
92.3259464647
 11
72.2641253166
 21
92.3259464647
  0
LINE
  8
AP006-DIFFUSE3
 62
8
  6
HIDDEN
 10
72.2641253166
 20
92.4926614925
 11
272.2641253166
 21
92.4926614925
  0
LINE
  8
AP006-DIFFUSE2
 62
7
  6
BYLAYER
 10
272.2641253166
 20
93.0789415465
 11
72.2641253166
 21
93.0789415465
  0
LINE
  8
AP006-BASE3
 62
8
  6
HIDDEN
 10
272.2641253166
 20
98.6926614898
 11
72.2641253166
 21
98.6926614898
  0
LINE
  8
AP006-BASE3
 62
8
  6
HIDDEN
 10
272.2641253166
 20
98.9926614898
 11
72.2641253166
 21
98.9926614898
  0
LINE
  8
AP006-BASE3
 62
8
  6
HIDDEN
 10
272.2641253166
 20
99.2926614898
 11
72.2641253166
 21
99.2926614898
  0
LINE
  8
AP006-DIFFUSE2
 62
7
  6
BYLAYER
 10
72.2641253166
 20
104.90638144
 11
272.2641253166
 21
104.90638144
  0
LINE
  8
AP006-DIFFUSE3
 62
8
  6
HIDDEN
 10
272.2641253166
 20
105.492661489
 11
72.2641253166
 21
105.492661489
  0
LINE
  8
AP006-DIFFUSE3
 62
8
  6
HIDDEN
 10
72.2641253166
 20
105.6589720788
 11
272.2641253166
 21
105.6589720788
  0
LINE
  8
AP006-DIFFUSE3
 62
8
  6
HIDDEN
 10
272.2641253166
 20
105.8260190033
 11
72.2641253166
 21
105.8260190033
  0
LINE
  8
AP006-DIFFUSE3
 62
8
  6
HIDDEN
 10
72.2641253166
 20
105.8434129403
 11
272.2641253166
 21
105.8434129403
  0
LINE
  8
AP006-DIFFUSE3
 62
8
  6
HIDDEN
 10
72.2641253166
 20
105.9926614897
 11
272.2641253166
 21
105.9926614897
  0
LINE
  8
AP006-BASE3
 62
8
  6
HIDDEN
 10
272.2641253166
 20
106.2926614898
 11
72.2641253166
 21
106.2926614898
  0
LINE
  8
AP006-BASE3
 62
8
  6
HIDDEN
 10
72.2641253166
 20
106.3926614898
 11
272.2641253166
 21
106.3926614898
  0
LINE
  8
AP006-DIFFUSE3
 62
8
  6
HIDDEN
 10
72.2641253166
 20
106.4619643101
 11
272.2641253166
 21
106.4619643101
  0
LINE
  8
AP006-DIFFUSE3
 62
8
  6
HIDDEN
 10
272.2641253166
 20
106.4702343054
 11
72.2641253166
 21
106.4702343054
  0
LINE
  8
AP006-DIFFUSE3
 62
8
  6
HIDDEN
 10
272.2641253166
 20
106.5590229885
 11
72.2641253166
 21
106.5590229885
  0
LINE
  8
AP006-DIFFUSE3
 62
8
  6
HIDDEN
 10
272.2641253166
 20
106.585908185
 11
72.2641253166
 21
106.585908185
  0
LINE
  8
AP006-BASE3
 62
8
  6
HIDDEN
 10
72.2641253166
 20
106.5908469671
 11
272.2641253166
 21
106.5908469671
  0
LINE
  8
AP006-BASE3
 62
8
  6
HIDDEN
 10
272.2641253166
 20
106.6176418863
 11
72.2641253166
 21
106.6176418863
  0
LINE
  8
AP006-BASE3
 62
8
  6
HIDDEN
 10
72.2641253166
 20
106.7908469654
 11
272.2641253166
 21
106.7908469654
  0
LINE
  8
AP006-DIFFUSE3
 62
8
  6
HIDDEN
 10
72.2641253166
 20
106.851263539
 11
272.2641253166
 21
106.851263539
  0
LINE
  8
AP006-DIFFUSE3
 62
8
  6
HIDDEN
 10
72.2641253166
 20
106.8751105601
 11
272.2641253166
 21
106.8751105601
  0
LINE
  8
AP006-BASE3
 62
8
  6
HIDDEN
 10
272.2641253166
 20
106.8926614898
 11
72.2641253166
 21
106.8926614898
  0
LINE
  8
AP006-DIFFUSE3
 62
8
  6
HIDDEN
 10
272.2641253166
 20
106.9636537333
 11
72.2641253166
 21
106.9636537333
  0
LINE
  8
AP006-BASE3
 62
8
  6
HIDDEN
 10
272.2641253166
 20
106.9926614898
 11
72.2641253166
 21
106.9926614898
  0
LINE
  8
AP006-BASE3
 62
8
  6
HIDDEN
 10
272.2641253166
 20
107.0217870739
 11
72.2641253166
 21
107.0217870739
  0
LINE
  8
AP006-BASE3
 62
8
  6
HIDDEN
 10
272.2641253166
 20
107.0926614898
 11
72.2641253166
 21
107.0926614898
  0
LINE
  8
AP006-BASE3
 62
8
  6
HIDDEN
 10
272.2641253166
 20
107.1926614898
 11
72.2641253166
 21
107.1926614898
  0
LINE
  8
AP006-BASE3
 62
8
  6
HIDDEN
 10
72.2641253166
 20
107.2926614898
 11
272.2641253166
 21
107.2926614898
  0
LINE
  8
AP006-BASE3
 62
8
  6
HIDDEN
 10
272.2641253166
 20
107.6926614898
 11
72.2641253166
 21
107.6926614898
  0
LINE
  8
AP006-DIFFUSE2
 62
7
  6
BYLAYER
 10
272.2641253166
 20
107.7989903342
 11
72.2641253166
 21
107.7989903342
  0
LINE
  8
AP006-BASE2
 62
7
  6
BYLAYER
 10
72.2641253166
 20
107.9089079889
 11
272.2641253166
 21
107.9089079889
  0
LINE
  8
AP006-BASE3
 62
8
  6
HIDDEN
 10
272.2641253166
 20
107.9926614898
 11
72.2641253166
 21
107.9926614898
  0
LINE
  8
AP006-BASE2
 62
7
  6
BYLAYER
 10
272.2641253166
 20
108.0480078251
 11
72.2641253166
 21
108.0480078251
  0
LINE
  8
AP006-BASE3
 62
8
  6
HIDDEN
 10
272.2641253166
 20
109.5823494814
 11
72.2641253166
 21
109.5823494814
  0
LINE
  8
AP006-BASE3
 62
8
  6
HIDDEN
 10
72.2641253166
 20
109.7214493174
 11
272.2641253166
 21
109.7214493174
  0
LINE
  8
AP006-BASE3
 62
8
  6
HIDDEN
 10
272.2641253166
 20
110.1926614852
 11
72.2641253166
 21
110.1926614852
  0
LINE
  8
AP006-BASE2
 62
7
  6
BYLAYER
 10
72.2641253166
 20
110.3317613215
 11
272.2641253166
 21
110.3317613215
  0
LINE
  8
AP006-BASE2
 62
7
  6
BYLAYER
 10
272.2641253166
 20
110.4926614852
 11
72.2641253166
 21
110.4926614852
  0
LINE
  8
AP006-BASE2
 62
7
  6
BYLAYER
 10
272.2641253166
 20
110.4926614852
 11
272.2641253166
 21
107.7989903342
  0
LINE
  8
AP006-DIFFUSE2
 62
7
  6
BYLAYER
 10
272.2641253166
 20
107.7989903342
 11
272.2641253166
 21
90.1863326523
  0
LINE
  8
AP006-BASE3
 62
8
  6
HIDDEN
 10
272.2641253166
 20
107.7989903342
 11
272.2641253166
 21
90.1863326523
  0
LINE
  8
AP006-BASE2
 62
7
  6
BYLAYER
 10
272.2641253166
 20
90.1863326523
 11
272.2641253166
 21
87.4926614895
  0
CIRCLE
  8
AP0069
 62
3
  6
BYLAYER
 10
270.6936305664
 20
49.7764109677
 40
2.5
  0
CIRCLE
  8
AP0069
 62
3
  6
BYLAYER
 10
270.6936305664
 20
49.7764109677
 40
1.25
  0
ARC
  8
AP006-DIFFUSE2
 62
7
  6
BYLAYER
 10
37.6930569191
 20
136.6470155813
 40
5.540610489
 50
91.2501582492
 51
122.9489577562
  0
ARC
  8
AP006-BASE2
 62
7
  6
BYLAYER
 10
35.2858937843
 20
133.2863072229
 40
0.4999999995
 50
179.9999999387
 51
270.0000000613
  0
ARC
  8
AP006-BASE2
 62
7
  6
BYLAYER
 10
35.6858937829
 20
133.9963072259
 40
0.2000000008
 50
180.0000002321
 51
269.9999997708
  0
ARC
  8
AP006-DIFFUSE2
 62
7
  6
BYLAYER
 10
35.2188777992
 20
140.5313697479
 40
0.8000000001
 50
5.5714898435
 51
59.3016988639
  0
ARC
  8
AP006-DIFFUSE2
 62
7
  6
BYLAYER
 10
36.3034447157
 20
139.7694429303
 40
0.6999999995
 50
125.9340573239
 51
236.7395103902
  0
ARC
  8
AP006-DIFFUSE2
 62
7
  6
BYLAYER
 10
36.3191787557
 20
139.9091484969
 40
0.5000000013
 50
0.0000000363
 51
48.1859674234
  0
ARC
  8
AP006-DIFFUSE2
 62
7
  6
BYLAYER
 10
36.9858937847
 20
140.6544612327
 40
0.5000000007
 50
89.9999999941
 51
228.185967517
  0
ARC
  8
AP006-DIFFUSE2
 62
7
  6
BYLAYER
 10
35.7549983893
 20
138.9332571691
 40
0.3000000006
 50
32.3913720182
 51
56.7395103369
  0
ARC
  8
AP006-BASE2
 62
7
  6
BYLAYER
 10
34.7858937852
 20
139.0863072238
 40
0.3000000004
 50
180.0000000691
 51
269.9999999236
  0
ARC
  8
AP006-BASE2
 62
7
  6
BYLAYER
 10
32.2858937822
 20
139.5963072238
 40
0.3000000004
 50
180.0000000691
 51
270.0000000691
  0
ARC
  8
AP006-BASE2
 62
7
  6
BYLAYER
 10
32.2858937819
 20
139.801174976
 40
0.3000000001
 50
117.6239298885
 51
179.999999991
  0
ARC
  8
AP006-BASE2
 62
7
  6
BYLAYER
 10
32.731249076
 20
139.5963072232
 40
0.2999999998
 50
270.0000000019
 51
297.6239297409
  0
ARC
  8
AP006-BASE2
 62
7
  6
BYLAYER
 10
34.5696472844
 20
140.9963072253
 40
0.2999999998
 50
90.0000000019
 51
117.6239297422
  0
ARC
  8
AP006-BASE2
 62
7
  6
BYLAYER
 10
35.4858937819
 20
139.2963072249
 40
0.2999999998
 50
179.9999999713
 51
269.9999999713
  0
ARC
  8
AP006-BASE2
 62
7
  6
BYLAYER
 10
35.8858937823
 20
138.6963072253
 40
0.2999999998
 50
0.0
 51
89.9999999713
  0
ARC
  8
AP006-DIFFUSE2
 62
7
  6
BYLAYER
 10
35.7165909669
 20
140.5791358814
 40
0.2999999993
 50
305.9340567528
 51
5.7208102676
  0
ARC
  8
AP006-BASE2
 62
7
  6
BYLAYER
 10
35.3858937848
 20
140.0963072224
 40
0.2000000027
 50
90.0000007701
 51
179.9999992265
  0
ARC
  8
AP006-BASE2
 62
7
  6
BYLAYER
 10
35.6877083048
 20
140.4963072251
 40
0.2
 50
270.0000004764
 51
30.0000000375
  0
ARC
  8
AP006-DIFFUSE2
 62
7
  6
BYLAYER
 10
36.7195831944
 20
138.1594957681
 40
0.1000000006
 50
212.3913719997
 51
5.1547799715
  0
ARC
  8
AP006-BASE2
 62
7
  6
BYLAYER
 10
36.085893782
 20
138.3963072252
 40
0.1000000001
 50
270.0000000365
 51
359.9999999635
  0
ARC
  8
AP006-BASE2
 62
7
  6
BYLAYER
 10
35.5858937822
 20
138.196307225
 40
0.1000000001
 50
90.0000000365
 51
179.9999999427
  0
ARC
  8
AP006-DIFFUSE2
 62
7
  6
BYLAYER
 10
49.2787306527
 20
136.6470155837
 40
5.5406104866
 50
57.0510422365
 51
88.7498417563
  0
ARC
  8
AP006-BASE2
 62
7
  6
BYLAYER
 10
51.6858937826
 20
133.2963072243
 40
0.4999999995
 50
269.9999999387
 51
0.0000000613
  0
ARC
  8
AP006-BASE2
 62
7
  6
BYLAYER
 10
51.2858937813
 20
133.9963072259
 40
0.2000000008
 50
270.0000002321
 51
359.9999997708
  0
ARC
  8
AP006-DIFFUSE2
 62
7
  6
BYLAYER
 10
51.7529097694
 20
140.5313697479
 40
0.8000000001
 50
120.6983011361
 51
174.5180442006
  0
ARC
  8
AP006-DIFFUSE2
 62
7
  6
BYLAYER
 10
50.6683428529
 20
139.7694429303
 40
0.6999999995
 50
303.2604896412
 51
55.2266572827
  0
ARC
  8
AP006-DIFFUSE2
 62
7
  6
BYLAYER
 10
49.9858937812
 20
140.6544612326
 40
0.5000000008
 50
311.814032535
 51
89.9999999903
  0
ARC
  8
AP006-DIFFUSE2
 62
7
  6
BYLAYER
 10
50.652608809
 20
139.9091484975
 40
0.4999999999
 50
131.8140324756
 51
180.0000000344
  0
ARC
  8
AP006-BASE2
 62
7
  6
BYLAYER
 10
52.4021402808
 20
140.9963072236
 40
0.3000000015
 50
62.3760703078
 51
89.9999999186
  0
ARC
  8
AP006-BASE2
 62
7
  6
BYLAYER
 10
54.6858937772
 20
139.8011749805
 40
0.3000000003
 50
0.0000000314
 51
62.3760702015
  0
ARC
  8
AP006-BASE2
 62
7
  6
BYLAYER
 10
54.6858937771
 20
139.5963072252
 40
0.3000000004
 50
270.0000000691
 51
0.0000000691
  0
ARC
  8
AP006-BASE2
 62
7
  6
BYLAYER
 10
52.1858937817
 20
139.0963072252
 40
0.3000000004
 50
270.0000000764
 51
0.0000000691
  0
ARC
  8
AP006-BASE2
 62
7
  6
BYLAYER
 10
51.0858937819
 20
138.6963072253
 40
0.2999999998
 50
89.9999999713
 51
179.9999999713
  0
ARC
  8
AP006-BASE2
 62
7
  6
BYLAYER
 10
51.4858937823
 20
139.2963072249
 40
0.2999999998
 50
269.9999999713
 51
359.9999999713
  0
ARC
  8
AP006-BASE2
 62
7
  6
BYLAYER
 10
54.2146816097
 20
139.5963072246
 40
0.2999999998
 50
242.3760702578
 51
269.9999999981
  0
ARC
  8
AP006-DIFFUSE2
 62
7
  6
BYLAYER
 10
51.2551966017
 20
140.5791358814
 40
0.2999999993
 50
174.5180441915
 51
231.3228443453
  0
ARC
  8
AP006-DIFFUSE2
 62
7
  6
BYLAYER
 10
51.2167891771
 20
138.9332571713
 40
0.2999999976
 50
123.260489469
 51
147.6086280099
  0
ARC
  8
AP006-BASE2
 62
7
  6
BYLAYER
 10
51.5858937821
 20
140.0963072251
 40
0.2
 50
0.0
 51
90.0
  0
ARC
  8
AP006-BASE2
 62
7
  6
BYLAYER
 10
51.2840792594
 20
140.4963072251
 40
0.2
 50
149.9999999625
 51
269.9999995236
  0
ARC
  8
AP006-DIFFUSE2
 62
7
  6
BYLAYER
 10
50.2522043717
 20
138.1594957681
 40
0.1000000006
 50
174.8452199957
 51
327.608627973
  0
ARC
  8
AP006-BASE2
 62
7
  6
BYLAYER
 10
51.385893782
 20
138.196307225
 40
0.1000000001
 50
0.0000000365
 51
89.9999999427
  0
ARC
  8
AP006-BASE2
 62
7
  6
BYLAYER
 10
50.8858937822
 20
138.3963072252
 40
0.1000000001
 50
180.0000000365
 51
269.9999999635
  0
ENDSEC
  0
EOF
