999
DXF file: E:\PTCStandard\library\Profile\AP017\ap017.dxf
999
Pro/ENGINEER 2011310 by Parametric Technology Corporation
  0
SECTION
  2
HEADER
  9
$EXTMAX
 10
594.0
 20
420.0
 30
0.0
  9
$EXTMIN
 10
0.0
 20
0.0
 30
0.0
  9
$LIMMIN
 10
0.0
 20
0.0
  9
$LIMMAX
 10
594.0
 20
420.0
  9
$VIEWCTR
 10
297.0
 20
210.0
  9
$VIEWSIZE
 40
420.0
  9
$CLAYER
  8
0
  9
$LTSCALE
 40
32.67
  9
$CELTYPE
  6
BYLAYER
  9
$DIMSCALE
 40
1.0
  9
$DIMASZ
 40
7.0
  9
$DIMEXO
 40
3.7125
  9
$DIMDLI
 40
22.572
  9
$DIMEXE
 40
10.692
  9
$DIMCEN
 40
5.346
  9
$DIMLFAC
 40
1.0
  9
$DIMBLK
  1
_FILLED
  9
$DIMTXT
 40
3.5
  9
$PDMODE
 70
3
  9
$PDSIZE
 40
8.0
  9
$TILEMODE
 70
1
  0
ENDSEC
  0
SECTION
  2
TABLES
  0
TABLE
  2
LTYPE
 70
6
  0
LTYPE
  2
BYBLOCK
 70
0
  3

 72
65
 73
0
 40
0.0
  0
LTYPE
  2
BYLAYER
 70
0
  3

 72
65
 73
0
 40
0.0
  0
LTYPE
  2
CONTINUOUS
 70
64
  3
Solid line
 72
65
 73
0
 40
0.0
  0
LTYPE
  2
CENTER
 70
64
  3
____ _ ____ _ ____ _ ____ _ ____ _ ____ _ ____
 72
65
 73
4
 40
0.6
 49
0.375
 49
-0.075
 49
0.075
 49
-0.075
  0
LTYPE
  2
HIDDEN
 70
64
  3
- - - - - - - - - - - - - - - - - - - -
 72
65
 73
2
 40
0.2
 49
0.1
 49
-0.1
  0
LTYPE
  2
PHANTOM
 70
64
  3
_____ _ _ _____ _ _ _____ _ _ _____
 72
65
 73
6
 40
0.8
 49
0.45
 49
-0.05
 49
0.1
 49
-0.05
 49
0.1
 49
-0.05
  0
LTYPE
  2
DOT
 70
64
  3
. . . . . . . . . . . . . . . . . . . .
 72
65
 73
2
 40
0.2
 49
0.1
 49
-0.1
  0
LTYPE
  2
DASHED
 70
64
  3
- - - - - - - - - - - - - - - - - - - -
 72
65
 73
2
 40
0.2
 49
0.1
 49
-0.1
  0
ENDTAB
  0
TABLE
  2
LAYER
 70
36
  0
LAYER
  2
0
 70
0
 62
7
  6
CONTINUOUS
  0
LAYER
  2
DEFAULT_1
 70
0
 62
7
  6
CENTER
  0
LAYER
  2
DEFAULT_2
 70
0
 62
8
  6
HIDDEN
  0
LAYER
  2
DEFAULT_3
 70
0
 62
7
  6
PHANTOM
  0
LAYER
  2
01_ALL_DTM_PLN
 70
0
 62
7
  6
CONTINUOUS
  0
LAYER
  2
01__ASM_ALL_DTM_PLN
 70
0
 62
7
  6
CONTINUOUS
  0
LAYER
  2
01__ASM_DEF_DTM_PLN
 70
0
 62
7
  6
CONTINUOUS
  0
LAYER
  2
01___PRT_ALL_DTM_PLN
 70
0
 62
7
  6
CONTINUOUS
  0
LAYER
  2
01___PRT_DEF_DTM_PLN
 70
0
 62
7
  6
CONTINUOUS
  0
LAYER
  2
02_ALL_AXES
 70
0
 62
7
  6
CONTINUOUS
  0
LAYER
  2
02__ASM_ALL_AXES
 70
0
 62
7
  6
CONTINUOUS
  0
LAYER
  2
02___PRT_ALL_AXES
 70
0
 62
7
  6
CONTINUOUS
  0
LAYER
  2
03_ALL_CURVES
 70
0
 62
7
  6
CONTINUOUS
  0
LAYER
  2
03__ASM_ALL_CURVES
 70
0
 62
7
  6
CONTINUOUS
  0
LAYER
  2
03___PRT_ALL_CURVES
 70
0
 62
7
  6
CONTINUOUS
  0
LAYER
  2
04_ALL_DTM_PNT
 70
0
 62
7
  6
CONTINUOUS
  0
LAYER
  2
04__ASM_ALL_DTM_PNT
 70
0
 62
7
  6
CONTINUOUS
  0
LAYER
  2
04___PRT_ALL_DTM_PNT
 70
0
 62
7
  6
CONTINUOUS
  0
LAYER
  2
05_ALL_DTM_CSYS
 70
0
 62
7
  6
CONTINUOUS
  0
LAYER
  2
05__ASM_ALL_DTM_CSYS
 70
0
 62
7
  6
CONTINUOUS
  0
LAYER
  2
05__ASM_DEF_DTM_CSYS
 70
0
 62
7
  6
CONTINUOUS
  0
LAYER
  2
05___PRT_ALL_DTM_CSYS
 70
0
 62
7
  6
CONTINUOUS
  0
LAYER
  2
05___PRT_DEF_DTM_CSYS
 70
0
 62
7
  6
CONTINUOUS
  0
LAYER
  2
06_ALL_SURFS
 70
0
 62
7
  6
CONTINUOUS
  0
LAYER
  2
06__ASM_ALL_SURFS
 70
0
 62
7
  6
CONTINUOUS
  0
LAYER
  2
06___PRT_ALL_SURFS
 70
0
 62
7
  6
CONTINUOUS
  0
LAYER
  2
07__ASM_ALL_SKELETONS
 70
0
 62
7
  6
CONTINUOUS
  0
LAYER
  2
INTFCLR_10
 70
0
 62
7
  6
CONTINUOUS
  0
LAYER
  2
INTFCLR_11
 70
0
 62
7
  6
CONTINUOUS
  0
LAYER
  2
AP0179
 70
0
 62
7
  6
CONTINUOUS
  0
LAYER
  2
AP0174
 70
0
 62
7
  6
CONTINUOUS
  0
LAYER
  2
ENDCAP3
 70
0
 62
7
  6
CONTINUOUS
  0
LAYER
  2
BASE3
 70
0
 62
7
  6
CONTINUOUS
  0
LAYER
  2
ENDCAP2
 70
0
 62
7
  6
CONTINUOUS
  0
LAYER
  2
DIFFUSE3
 70
0
 62
7
  6
CONTINUOUS
  0
LAYER
  2
BASE2
 70
0
 62
7
  6
CONTINUOUS
  0
LAYER
  2
DIFFUSE2
 70
0
 62
7
  6
CONTINUOUS
  0
ENDTAB
  0
TABLE
  2
STYLE
 70
1
  0
STYLE
  2
STANDARD
 70
0
 40
0.0
 41
0.85
 50
0.0
 71
0
 42
0.2
  3
SIMHEI.SHX
  4

  0
STYLE
  2
TEXTSTYLE_1
 70
0
 40
0.0
 41
0.8
 50
0.0
 71
0
 42
0.2
  3
gdt
  4

  0
STYLE
  2
TEXTSTYLE_2
 70
0
 40
0.0
 41
1.0
 50
0.0
 71
0
 42
0.2
  3
TXT.TTF
  4

  0
STYLE
  2
TEXTSTYLE_3
 70
0
 40
0.0
 41
1.0
 50
0.0
 71
0
 42
0.2
  3
TXT.TTF
  4

  0
STYLE
  2
TEXTSTYLE_4
 70
0
 40
0.0
 41
1.0
 50
0.0
 71
0
 42
0.2
  3
TXT.TTF
  4

  0
STYLE
  2
TEXTSTYLE_5
 70
0
 40
0.0
 41
1.0
 50
0.0
 71
0
 42
0.2
  3
TXT.TTF
  4

  0
STYLE
  2
TEXTSTYLE_6
 70
0
 40
0.0
 41
1.0
 50
0.0
 71
0
 42
0.2
  3
TXT.TTF
  4

  0
STYLE
  2
TEXTSTYLE_7
 70
0
 40
0.0
 41
0.75
 50
0.0
 71
0
 42
0.2
  3
SIMHEI.SHX
  4

  0
STYLE
  2
TEXTSTYLE_8
 70
0
 40
0.0
 41
0.55
 50
0.0
 71
0
 42
0.2
  3
gdt
  4

  0
ENDTAB
  0
ENDSEC
  0
SECTION
  2
BLOCKS
  0
BLOCK
  8
AP0179
 62
7
  6
BYLAYER
  2
SYMBOL_283_BL0
 70
64
 10
374.7813345799
 20
34.864330558
  0
LINE
  8
AP0179
 62
7
  6
BYLAYER
 10
344.006198458
 20
42.5069798671
 11
344.006198458
 21
40.367498696
  0
LINE
  8
AP0179
 62
7
  6
BYLAYER
 10
346.0152823568
 20
40.367498696
 11
346.0152823568
 21
42.5069798671
  0
LINE
  8
AP0179
 62
7
  6
BYLAYER
 10
347.4558617457
 20
42.5069798671
 11
347.4558617457
 21
40.367498696
  0
LINE
  8
AP0179
 62
7
  6
BYLAYER
 10
349.4373483381
 20
40.367498696
 11
349.4373483381
 21
42.5069798671
  0
LINE
  8
AP0179
 62
7
  6
BYLAYER
 10
350.9248431478
 20
42.5069798671
 11
350.9248431478
 21
40.367498696
  0
LINE
  8
AP0179
 62
7
  6
BYLAYER
 10
352.9311673159
 20
40.367498696
 11
352.9311673159
 21
42.5069798671
  0
LINE
  8
AP0179
 62
7
  6
BYLAYER
 10
366.346858271
 20
26.6331711387
 11
369.1787979746
 21
26.6331711387
  0
LINE
  8
AP0179
 62
7
  6
BYLAYER
 10
369.1787979746
 20
26.6331711387
 11
369.1787979746
 21
26.1748482372
  0
LINE
  8
AP0179
 62
7
  6
BYLAYER
 10
369.1787979746
 20
26.1748482372
 11
367.0696226802
 21
26.1748482372
  0
LINE
  8
AP0179
 62
7
  6
BYLAYER
 10
367.0696226802
 20
26.1748482372
 11
367.0696226802
 21
24.5831137776
  0
LINE
  8
AP0179
 62
7
  6
BYLAYER
 10
367.0696226802
 20
24.5831137776
 11
369.1787979746
 21
24.5831137776
  0
LINE
  8
AP0179
 62
7
  6
BYLAYER
 10
369.1787979746
 20
24.5831137776
 11
369.1787979746
 21
24.1311476431
  0
LINE
  8
AP0179
 62
7
  6
BYLAYER
 10
369.1787979746
 20
24.1311476431
 11
367.0696226802
 21
24.1311476431
  0
LINE
  8
AP0179
 62
7
  6
BYLAYER
 10
367.0696226802
 20
24.1311476431
 11
367.0696226802
 21
22.2412808106
  0
LINE
  8
AP0179
 62
7
  6
BYLAYER
 10
367.0696226802
 20
22.2412808106
 11
369.1787979746
 21
22.2412808106
  0
LINE
  8
AP0179
 62
7
  6
BYLAYER
 10
369.1787979746
 20
22.2412808106
 11
369.1787979746
 21
21.8083849772
  0
LINE
  8
AP0179
 62
7
  6
BYLAYER
 10
369.1787979746
 20
21.8083849772
 11
366.346858271
 21
21.8083849772
  0
LINE
  8
AP0179
 62
7
  6
BYLAYER
 10
366.346858271
 20
21.8083849772
 11
366.346858271
 21
26.6331711387
  0
LINE
  8
AP0179
 62
7
  6
BYLAYER
 10
389.8983622095
 20
24.1915369297
 11
389.8983622095
 21
24.1769163656
  0
ARC
  8
AP0179
 62
7
  6
BYLAYER
 10
392.8233249602
 20
24.131204526
 40
2.9253199253
 50
179.1046442283
 51
200.8922339549
  0
ARC
  8
AP0179
 62
7
  6
BYLAYER
 10
392.3591855469
 20
24.0462299263
 40
2.4628999342
 50
202.8963230435
 51
250.070082015
  0
ARC
  8
AP0179
 62
7
  6
BYLAYER
 10
392.4794077055
 20
24.411048466
 40
2.8468723348
 50
250.2981849841
 51
270.5013647429
  0
LINE
  8
AP0179
 62
7
  6
BYLAYER
 10
392.5043188458
 20
21.5642851239
 11
392.7938695831
 21
21.5642851239
  0
LINE
  8
AP0179
 62
7
  6
BYLAYER
 10
392.7938695831
 20
21.5642851239
 11
392.9928363906
 21
21.5712775676
  0
LINE
  8
AP0179
 62
7
  6
BYLAYER
 10
392.9928363906
 20
21.5712775676
 11
393.191803198
 21
21.5928905755
  0
LINE
  8
AP0179
 62
7
  6
BYLAYER
 10
393.191803198
 20
21.5928905755
 11
393.3945840657
 21
21.6291241475
  0
LINE
  8
AP0179
 62
7
  6
BYLAYER
 10
393.3945840657
 20
21.6291241475
 11
393.6043573771
 21
21.6729858398
  0
LINE
  8
AP0179
 62
7
  6
BYLAYER
 10
393.6043573771
 20
21.6729858398
 11
393.651397453
 21
21.6869707273
  0
LINE
  8
AP0179
 62
7
  6
BYLAYER
 10
393.651397453
 20
21.6869707273
 11
393.7057478109
 21
21.7015912914
  0
LINE
  8
AP0179
 62
7
  6
BYLAYER
 10
393.7057478109
 20
21.7015912914
 11
394.0099191124
 21
21.8026638869
  0
LINE
  8
AP0179
 62
7
  6
BYLAYER
 10
394.0099191124
 20
21.8026638869
 11
394.1109917079
 21
21.8465255792
  0
LINE
  8
AP0179
 62
7
  6
BYLAYER
 10
394.1109917079
 20
21.8465255792
 11
394.2123821417
 21
21.8973797153
  0
LINE
  8
AP0179
 62
7
  6
BYLAYER
 10
394.2123821417
 20
21.8973797153
 11
394.3064622935
 21
21.9552262951
  0
LINE
  8
AP0179
 62
7
  6
BYLAYER
 10
394.3064622935
 20
21.9552262951
 11
394.4078527273
 21
22.0200653186
  0
LINE
  8
AP0179
 62
7
  6
BYLAYER
 10
394.4078527273
 20
22.0200653186
 11
394.4656993071
 21
22.4688530696
  0
LINE
  8
AP0179
 62
7
  6
BYLAYER
 10
394.4656993071
 20
22.4688530696
 11
394.1761485697
 21
22.4618606259
  0
ARC
  8
AP0179
 62
7
  6
BYLAYER
 10
392.799100623
 20
24.0979477164
 40
2.1384672116
 50
300.1226166813
 51
310.0863647934
  0
ARC
  8
AP0179
 62
7
  6
BYLAYER
 10
392.6650798273
 20
24.3073564034
 40
2.3868791644
 50
290.9261388757
 51
300.3825747552
  0
ARC
  8
AP0179
 62
7
  6
BYLAYER
 10
392.672769603
 20
24.1699223763
 40
2.2561527278
 50
282.3564329875
 51
291.9903650689
  0
ARC
  8
AP0179
 62
7
  6
BYLAYER
 10
392.5869962834
 20
24.5311589169
 40
2.6273841832
 50
274.3560974414
 51
282.4978406016
  0
ARC
  8
AP0179
 62
7
  6
BYLAYER
 10
392.9118726541
 20
23.8860590974
 40
1.9786666682
 50
247.3413638217
 51
266.3689009432
  0
ARC
  8
AP0179
 62
7
  6
BYLAYER
 10
393.020846386
 20
24.111038418
 40
2.228305621
 50
229.1447438403
 51
246.9841673426
  0
ARC
  8
AP0179
 62
7
  6
BYLAYER
 10
392.5802960465
 20
23.5978222977
 40
1.5519430064
 50
197.9155448152
 51
229.0523049251
  0
ARC
  8
AP0179
 62
7
  6
BYLAYER
 10
394.4203335269
 20
24.1960721783
 40
3.4867908655
 50
180.1894261358
 51
197.9684336648
  0
LINE
  8
AP0179
 62
7
  6
BYLAYER
 10
390.9335617173
 20
24.184544486
 11
390.9335617173
 21
24.2709965173
  0
ARC
  8
AP0179
 62
7
  6
BYLAYER
 10
393.4884870691
 20
24.314222136
 40
2.5552909829
 50
160.1190365148
 51
180.9692687312
  0
ARC
  8
AP0179
 62
7
  6
BYLAYER
 10
392.900900733
 20
24.50352549
 40
1.9384708199
 50
135.1351303734
 51
159.4747438859
  0
ARC
  8
AP0179
 62
7
  6
BYLAYER
 10
392.9092347377
 20
24.51589719
 40
1.9357056989
 50
95.5684905603
 51
135.5687020976
  0
LINE
  8
AP0179
 62
7
  6
BYLAYER
 10
392.7214024392
 20
26.4424681284
 11
392.7576360112
 21
26.4424681284
  0
LINE
  8
AP0179
 62
7
  6
BYLAYER
 10
392.7576360112
 20
26.4424681284
 11
392.8370955988
 21
26.4316616245
  0
LINE
  8
AP0179
 62
7
  6
BYLAYER
 10
392.8370955988
 20
26.4316616245
 11
392.9241833069
 21
26.4208551206
  0
LINE
  8
AP0179
 62
7
  6
BYLAYER
 10
392.9241833069
 20
26.4208551206
 11
393.2172302661
 21
26.3452095931
  0
ARC
  8
AP0179
 62
7
  6
BYLAYER
 10
392.5840744254
 20
24.3735827564
 40
2.0707966346
 50
63.4314101522
 51
72.196424709
  0
ARC
  8
AP0179
 62
7
  6
BYLAYER
 10
392.5723065776
 20
24.3527741257
 40
2.0946716107
 50
54.371244206
 51
63.3980911646
  0
LINE
  8
AP0179
 62
7
  6
BYLAYER
 10
393.7925176806
 20
26.0553410174
 11
394.0604554101
 21
25.8417536458
  0
LINE
  8
AP0179
 62
7
  6
BYLAYER
 10
394.0604554101
 20
25.8417536458
 11
394.4078527273
 21
25.8417536458
  0
LINE
  8
AP0179
 62
7
  6
BYLAYER
 10
394.4078527273
 20
25.8417536458
 11
394.5817103051
 21
26.3992421127
  0
ARC
  8
AP0179
 62
7
  6
BYLAYER
 10
393.6938278359
 20
24.9734012813
 40
1.6796896605
 50
58.0891485033
 51
67.5454670452
  0
ARC
  8
AP0179
 62
7
  6
BYLAYER
 10
393.3689179966
 20
24.0612104602
 40
2.6472578651
 50
68.5873384549
 51
81.3423857767
  0
LINE
  8
AP0179
 62
7
  6
BYLAYER
 10
393.7674084509
 20
26.6783041845
 11
393.4670512096
 21
26.7107236963
  0
LINE
  8
AP0179
 62
7
  6
BYLAYER
 10
393.4670512096
 20
26.7107236963
 11
393.1555696261
 21
26.7323367041
  0
ARC
  8
AP0179
 62
7
  6
BYLAYER
 10
393.1193077625
 20
27.4813372146
 40
0.7498777817
 50
261.6918862418
 51
272.7717347723
  0
ARC
  8
AP0179
 62
7
  6
BYLAYER
 10
392.9745875849
 20
27.4290727002
 40
0.690701545
 50
260.9563938617
 51
273.01803113
  0
LINE
  8
AP0179
 62
7
  6
BYLAYER
 10
392.8660188887
 20
26.7469572682
 11
392.5764681513
 21
26.7393291478
  0
ARC
  8
AP0179
 62
7
  6
BYLAYER
 10
392.5315842635
 20
23.6990980638
 40
3.0405623834
 50
89.1541858308
 51
110.4524797124
  0
ARC
  8
AP0179
 62
7
  6
BYLAYER
 10
392.3047792819
 20
24.3876173322
 40
2.3163634422
 50
111.1471074556
 51
136.8410387207
  0
ARC
  8
AP0179
 62
7
  6
BYLAYER
 10
392.6043686132
 20
24.0993447912
 40
2.7320923203
 50
136.728707552
 51
157.5391803557
  0
ARC
  8
AP0179
 62
7
  6
BYLAYER
 10
392.3976141225
 20
24.2087768956
 40
2.4993113734
 50
158.0467340334
 51
180.395222912
  0
LINE
  8
AP0179
 62
7
  6
BYLAYER
 10
397.3176628267
 20
24.1915369297
 11
397.3176628267
 21
24.1769163656
  0
ARC
  8
AP0179
 62
7
  6
BYLAYER
 10
400.2426255774
 20
24.131204526
 40
2.9253199253
 50
179.1046442283
 51
200.8922339548
  0
ARC
  8
AP0179
 62
7
  6
BYLAYER
 10
399.7784861641
 20
24.0462299263
 40
2.4628999342
 50
202.8963230435
 51
250.0700820149
  0
ARC
  8
AP0179
 62
7
  6
BYLAYER
 10
399.8987083227
 20
24.411048466
 40
2.8468723348
 50
250.2981849841
 51
270.5013647429
  0
LINE
  8
AP0179
 62
7
  6
BYLAYER
 10
399.923619463
 20
21.5642851239
 11
400.2131702004
 21
21.5642851239
  0
LINE
  8
AP0179
 62
7
  6
BYLAYER
 10
400.2131702004
 20
21.5642851239
 11
400.4121370078
 21
21.5712775676
  0
LINE
  8
AP0179
 62
7
  6
BYLAYER
 10
400.4121370078
 20
21.5712775676
 11
400.6111038153
 21
21.5928905755
  0
LINE
  8
AP0179
 62
7
  6
BYLAYER
 10
400.6111038153
 20
21.5928905755
 11
400.8138846829
 21
21.6291241475
  0
LINE
  8
AP0179
 62
7
  6
BYLAYER
 10
400.8138846829
 20
21.6291241475
 11
401.0236579943
 21
21.6729858398
  0
LINE
  8
AP0179
 62
7
  6
BYLAYER
 10
401.0236579943
 20
21.6729858398
 11
401.0706980702
 21
21.6869707273
  0
LINE
  8
AP0179
 62
7
  6
BYLAYER
 10
401.0706980702
 20
21.6869707273
 11
401.1250484281
 21
21.7015912914
  0
LINE
  8
AP0179
 62
7
  6
BYLAYER
 10
401.1250484281
 20
21.7015912914
 11
401.4292197296
 21
21.8026638869
  0
LINE
  8
AP0179
 62
7
  6
BYLAYER
 10
401.4292197296
 20
21.8026638869
 11
401.5302923251
 21
21.8465255792
  0
LINE
  8
AP0179
 62
7
  6
BYLAYER
 10
401.5302923251
 20
21.8465255792
 11
401.6316827589
 21
21.8973797153
  0
LINE
  8
AP0179
 62
7
  6
BYLAYER
 10
401.6316827589
 20
21.8973797153
 11
401.7257629107
 21
21.9552262951
  0
LINE
  8
AP0179
 62
7
  6
BYLAYER
 10
401.7257629107
 20
21.9552262951
 11
401.8271533445
 21
22.0200653186
  0
LINE
  8
AP0179
 62
7
  6
BYLAYER
 10
401.8271533445
 20
22.0200653186
 11
401.8849999243
 21
22.4688530696
  0
LINE
  8
AP0179
 62
7
  6
BYLAYER
 10
401.8849999243
 20
22.4688530696
 11
401.595449187
 21
22.4618606259
  0
ARC
  8
AP0179
 62
7
  6
BYLAYER
 10
400.2184012402
 20
24.0979477165
 40
2.1384672117
 50
300.1226166814
 51
310.0863647934
  0
ARC
  8
AP0179
 62
7
  6
BYLAYER
 10
400.0843804446
 20
24.3073564034
 40
2.3868791643
 50
290.9261388756
 51
300.3825747552
  0
ARC
  8
AP0179
 62
7
  6
BYLAYER
 10
400.0920702202
 20
24.1699223763
 40
2.2561527278
 50
282.3564329875
 51
291.990365069
  0
ARC
  8
AP0179
 62
7
  6
BYLAYER
 10
400.0062969007
 20
24.5311589168
 40
2.6273841832
 50
274.3560974413
 51
282.4978406017
  0
ARC
  8
AP0179
 62
7
  6
BYLAYER
 10
400.3311732713
 20
23.8860590974
 40
1.9786666681
 50
247.3413638216
 51
266.3689009432
  0
ARC
  8
AP0179
 62
7
  6
BYLAYER
 10
400.4401470032
 20
24.111038418
 40
2.228305621
 50
229.1447438403
 51
246.9841673426
  0
ARC
  8
AP0179
 62
7
  6
BYLAYER
 10
399.9995966638
 20
23.5978222977
 40
1.5519430064
 50
197.9155448152
 51
229.0523049251
  0
ARC
  8
AP0179
 62
7
  6
BYLAYER
 10
401.8396341441
 20
24.1960721783
 40
3.4867908655
 50
180.1894261358
 51
197.9684336648
  0
LINE
  8
AP0179
 62
7
  6
BYLAYER
 10
398.3528623345
 20
24.184544486
 11
398.3528623345
 21
24.2709965173
  0
ARC
  8
AP0179
 62
7
  6
BYLAYER
 10
400.9077876863
 20
24.314222136
 40
2.5552909829
 50
160.1190365147
 51
180.9692687312
  0
ARC
  8
AP0179
 62
7
  6
BYLAYER
 10
400.3202013502
 20
24.50352549
 40
1.9384708199
 50
135.1351303734
 51
159.4747438859
  0
ARC
  8
AP0179
 62
7
  6
BYLAYER
 10
400.328535355
 20
24.51589719
 40
1.9357056989
 50
95.5684905604
 51
135.5687020976
  0
LINE
  8
AP0179
 62
7
  6
BYLAYER
 10
400.1407030564
 20
26.4424681284
 11
400.1769366284
 21
26.4424681284
  0
LINE
  8
AP0179
 62
7
  6
BYLAYER
 10
400.1769366284
 20
26.4424681284
 11
400.256396216
 21
26.4316616245
  0
LINE
  8
AP0179
 62
7
  6
BYLAYER
 10
400.256396216
 20
26.4316616245
 11
400.3434839241
 21
26.4208551206
  0
LINE
  8
AP0179
 62
7
  6
BYLAYER
 10
400.3434839241
 20
26.4208551206
 11
400.6365308833
 21
26.3452095931
  0
ARC
  8
AP0179
 62
7
  6
BYLAYER
 10
400.0016961471
 20
24.3694792717
 40
2.0752169634
 50
54.3289773468
 51
72.1869316133
  0
LINE
  8
AP0179
 62
7
  6
BYLAYER
 10
401.2118182978
 20
26.0553410174
 11
401.4797560274
 21
25.8417536458
  0
LINE
  8
AP0179
 62
7
  6
BYLAYER
 10
401.4797560274
 20
25.8417536458
 11
401.8271533445
 21
25.8417536458
  0
LINE
  8
AP0179
 62
7
  6
BYLAYER
 10
401.8271533445
 20
25.8417536458
 11
402.0010109223
 21
26.3992421127
  0
ARC
  8
AP0179
 62
7
  6
BYLAYER
 10
401.1131284531
 20
24.9734012813
 40
1.6796896605
 50
58.0891485032
 51
67.5454670453
  0
ARC
  8
AP0179
 62
7
  6
BYLAYER
 10
400.7882186138
 20
24.0612104602
 40
2.6472578651
 50
68.5873384549
 51
81.3423857767
  0
LINE
  8
AP0179
 62
7
  6
BYLAYER
 10
401.1867090681
 20
26.6783041845
 11
400.8863518269
 21
26.7107236963
  0
LINE
  8
AP0179
 62
7
  6
BYLAYER
 10
400.8863518269
 20
26.7107236963
 11
400.5748702433
 21
26.7323367041
  0
ARC
  8
AP0179
 62
7
  6
BYLAYER
 10
400.5386083798
 20
27.4813372146
 40
0.7498777817
 50
261.6918862419
 51
272.7717347724
  0
ARC
  8
AP0179
 62
7
  6
BYLAYER
 10
400.3938882021
 20
27.4290727002
 40
0.690701545
 50
260.9563938617
 51
273.01803113
  0
LINE
  8
AP0179
 62
7
  6
BYLAYER
 10
400.2853195059
 20
26.7469572682
 11
399.9957687686
 21
26.7393291478
  0
ARC
  8
AP0179
 62
7
  6
BYLAYER
 10
399.9508848808
 20
23.6990980639
 40
3.0405623834
 50
89.1541858308
 51
110.4524797125
  0
ARC
  8
AP0179
 62
7
  6
BYLAYER
 10
399.7240798991
 20
24.3876173322
 40
2.3163634422
 50
111.1471074555
 51
136.8410387208
  0
ARC
  8
AP0179
 62
7
  6
BYLAYER
 10
400.0236692304
 20
24.0993447912
 40
2.7320923203
 50
136.728707552
 51
157.5391803557
  0
ARC
  8
AP0179
 62
7
  6
BYLAYER
 10
399.8169147397
 20
24.2087768956
 40
2.4993113734
 50
158.0467340334
 51
180.3952229121
  0
LINE
  8
AP0179
 62
7
  6
BYLAYER
 10
370.8477671534
 20
26.6897463651
 11
373.9470089097
 21
23.280612217
  0
LINE
  8
AP0179
 62
7
  6
BYLAYER
 10
373.9470089097
 20
23.280612217
 11
373.9470089097
 21
26.6897463651
  0
LINE
  8
AP0179
 62
7
  6
BYLAYER
 10
373.9470089097
 20
26.6897463651
 11
374.6723160257
 21
26.6897463651
  0
LINE
  8
AP0179
 62
7
  6
BYLAYER
 10
374.6723160257
 20
26.6897463651
 11
374.6723160257
 21
21.8083849772
  0
LINE
  8
AP0179
 62
7
  6
BYLAYER
 10
374.6723160257
 20
21.8083849772
 11
374.1157810739
 21
21.8083849772
  0
LINE
  8
AP0179
 62
7
  6
BYLAYER
 10
374.1157810739
 20
21.8083849772
 11
370.9532894858
 21
25.322405781
  0
LINE
  8
AP0179
 62
7
  6
BYLAYER
 10
370.9532894858
 20
25.322405781
 11
370.9532894858
 21
21.8083849772
  0
LINE
  8
AP0179
 62
7
  6
BYLAYER
 10
370.9532894858
 20
21.8083849772
 11
370.2276645314
 21
21.8083849772
  0
LINE
  8
AP0179
 62
7
  6
BYLAYER
 10
370.2276645314
 20
21.8083849772
 11
370.2276645314
 21
26.6897463651
  0
LINE
  8
AP0179
 62
7
  6
BYLAYER
 10
370.2276645314
 20
26.6897463651
 11
370.8477671534
 21
26.6897463651
  0
LINE
  8
AP0179
 62
7
  6
BYLAYER
 10
396.4245220468
 20
39.4291902818
 11
396.4245220468
 21
40.6489912203
  0
LINE
  8
AP0179
 62
7
  6
BYLAYER
 10
396.4245220468
 20
40.6489912203
 11
389.2933780985
 21
40.6489912203
  0
LINE
  8
AP0179
 62
7
  6
BYLAYER
 10
389.2933780985
 20
40.6489912203
 11
389.2933780985
 21
39.4291902818
  0
LINE
  8
AP0179
 62
7
  6
BYLAYER
 10
389.2933780985
 20
39.4291902818
 11
396.4245220468
 21
39.4291902818
  0
LINE
  8
AP0179
 62
7
  6
BYLAYER
 10
389.2933780985
 20
41.6059278163
 11
396.4245220468
 21
41.6059278163
  0
LINE
  8
AP0179
 62
7
  6
BYLAYER
 10
396.4245220468
 20
41.6059278163
 11
396.4245220468
 21
42.863675051
  0
LINE
  8
AP0179
 62
7
  6
BYLAYER
 10
396.4245220468
 20
42.863675051
 11
389.2933780985
 21
42.863675051
  0
LINE
  8
AP0179
 62
7
  6
BYLAYER
 10
389.2933780985
 20
42.863675051
 11
389.2933780985
 21
41.6059278163
  0
LINE
  8
AP0179
 62
7
  6
BYLAYER
 10
396.4245220468
 20
44.9658998585
 11
389.2933780985
 21
44.9658998585
  0
LINE
  8
AP0179
 62
7
  6
BYLAYER
 10
389.2933780985
 20
44.9658998585
 11
389.2933780985
 21
43.8213015797
  0
LINE
  8
AP0179
 62
7
  6
BYLAYER
 10
389.2933780985
 20
43.8213015797
 11
396.4245220468
 21
43.8213015797
  0
LINE
  8
AP0179
 62
7
  6
BYLAYER
 10
396.4245220468
 20
43.8213015797
 11
396.4245220468
 21
44.9658998585
  0
LINE
  8
AP0179
 62
7
  6
BYLAYER
 10
337.6089806413
 20
38.5851461734
 11
337.6089806413
 21
31.0581526012
  0
LINE
  8
AP0179
 62
7
  6
BYLAYER
 10
339.3309442994
 20
31.0581526012
 11
337.6089806413
 21
31.0581526012
  0
LINE
  8
AP0179
 62
7
  6
BYLAYER
 10
339.3309442994
 20
31.0645420767
 11
339.3309442994
 21
40.5920487921
  0
LINE
  8
AP0179
 62
7
  6
BYLAYER
 10
339.3309442994
 20
40.5920487921
 11
341.524830565
 21
42.9053729918
  0
LINE
  8
AP0179
 62
7
  6
BYLAYER
 10
339.8170654134
 20
43.8962984501
 11
341.524830565
 21
42.9053729918
  0
LINE
  8
AP0179
 62
7
  6
BYLAYER
 10
334.8337793928
 20
38.1591785398
 11
335.8190534835
 21
36.7450048113
  0
LINE
  8
AP0179
 62
7
  6
BYLAYER
 10
335.0485716461
 20
43.0865480711
 11
336.3102682379
 21
41.8616714187
  0
LINE
  8
AP0179
 62
7
  6
BYLAYER
 10
336.3102682379
 20
41.8616714187
 11
341.3024751821
 21
46.8423490167
  0
LINE
  8
AP0179
 62
7
  6
BYLAYER
 10
341.3024751821
 20
46.8423490167
 11
339.1032888898
 21
47.6087321185
  0
LINE
  8
AP0179
 62
7
  6
BYLAYER
 10
341.7397765782
 20
46.1219899487
 11
341.7397765782
 21
44.847250286
  0
LINE
  8
AP0179
 62
7
  6
BYLAYER
 10
341.7515501687
 20
44.8474968776
 11
346.9991996516
 21
44.9574061535
  0
LINE
  8
AP0179
 62
7
  6
BYLAYER
 10
341.7397765782
 20
46.1219899487
 11
347.1700141356
 21
46.0293237788
  0
LINE
  8
AP0179
 62
7
  6
BYLAYER
 10
347.1751516226
 20
47.9045065282
 11
347.1700141356
 21
46.0293237788
  0
LINE
  8
AP0179
 62
7
  6
BYLAYER
 10
349.4525107084
 20
47.5928679165
 11
348.816991376
 21
46.0335882431
  0
LINE
  8
AP0179
 62
7
  6
BYLAYER
 10
349.4525107084
 20
47.5928679165
 11
347.1751516226
 21
47.9045065282
  0
LINE
  8
AP0179
 62
7
  6
BYLAYER
 10
348.816991376
 20
46.0335882431
 11
355.481941097
 21
46.0844962012
  0
LINE
  8
AP0179
 62
7
  6
BYLAYER
 10
355.481941097
 20
44.8604109761
 11
348.4869593555
 21
44.9513030751
  0
LINE
  8
AP0179
 62
7
  6
BYLAYER
 10
348.4869593555
 20
44.9513030751
 11
348.164313202
 21
43.5416978798
  0
LINE
  8
AP0179
 62
7
  6
BYLAYER
 10
347.0022101604
 20
44.9705957589
 11
346.6774795062
 21
43.547889675
  0
LINE
  8
AP0179
 62
7
  6
BYLAYER
 10
346.6774795062
 20
43.547889675
 11
342.4480582283
 21
43.6596065063
  0
LINE
  8
AP0179
 62
7
  6
BYLAYER
 10
342.4480582283
 20
43.6596065063
 11
342.4294017806
 21
39.2399922384
  0
LINE
  8
AP0179
 62
7
  6
BYLAYER
 10
342.4294017806
 20
39.2399922384
 11
354.535303688
 21
39.2381698838
  0
LINE
  8
AP0179
 62
7
  6
BYLAYER
 10
354.5554264866
 20
43.6531118991
 11
354.535303688
 21
39.2381698838
  0
LINE
  8
AP0179
 62
7
  6
BYLAYER
 10
354.5554264866
 20
43.6531118991
 11
348.164313202
 21
43.5416978798
  0
LINE
  8
AP0179
 62
7
  6
BYLAYER
 10
347.4558617457
 20
42.5069798671
 11
349.4373483381
 21
42.5069798671
  0
LINE
  8
AP0179
 62
7
  6
BYLAYER
 10
350.9496807234
 20
42.5069798671
 11
352.9311673159
 21
42.5069798671
  0
LINE
  8
AP0179
 62
7
  6
BYLAYER
 10
344.0337957643
 20
42.5069798671
 11
346.0152823568
 21
42.5069798671
  0
LINE
  8
AP0179
 62
7
  6
BYLAYER
 10
344.0337957643
 20
40.367498696
 11
346.0152823568
 21
40.367498696
  0
LINE
  8
AP0179
 62
7
  6
BYLAYER
 10
347.4558617457
 20
40.367498696
 11
349.4373483381
 21
40.367498696
  0
LINE
  8
AP0179
 62
7
  6
BYLAYER
 10
350.9496807234
 20
40.367498696
 11
352.9311673159
 21
40.367498696
  0
LINE
  8
AP0179
 62
7
  6
BYLAYER
 10
341.1759053618
 20
37.0222417812
 11
355.1528831066
 21
37.0454908201
  0
LINE
  8
AP0179
 62
7
  6
BYLAYER
 10
355.1528831066
 20
37.0741584839
 11
355.1528831066
 21
38.2732086323
  0
LINE
  8
AP0179
 62
7
  6
BYLAYER
 10
355.1528831066
 20
38.2732086323
 11
341.1759053618
 21
38.287748384
  0
LINE
  8
AP0179
 62
7
  6
BYLAYER
 10
341.1759053618
 20
38.2866267847
 11
341.1759053618
 21
37.0222417812
  0
LINE
  8
AP0179
 62
7
  6
BYLAYER
 10
341.9874590499
 20
35.7337708315
 11
340.0920465616
 21
32.2060375578
  0
LINE
  8
AP0179
 62
7
  6
BYLAYER
 10
340.1291757076
 20
32.1951604525
 11
342.0071335894
 21
31.6450065204
  0
LINE
  8
AP0179
 62
7
  6
BYLAYER
 10
343.553270776
 20
35.5114070361
 11
342.0071335894
 21
31.6450065204
  0
LINE
  8
AP0179
 62
7
  6
BYLAYER
 10
343.553270776
 20
35.5114070361
 11
341.9874590499
 21
35.7337708315
  0
LINE
  8
AP0179
 62
7
  6
BYLAYER
 10
344.4089799853
 20
35.9685303998
 11
346.0152823568
 21
35.8728879685
  0
LINE
  8
AP0179
 62
7
  6
BYLAYER
 10
346.0159330837
 20
35.8728492229
 11
346.0159330837
 21
33.0076457944
  0
LINE
  8
AP0179
 62
7
  6
BYLAYER
 10
344.4089799853
 20
35.9685303998
 11
344.4089799853
 21
31.9645051055
  0
LINE
  8
AP0179
 62
7
  6
BYLAYER
 10
344.4089799853
 20
31.9645051055
 11
347.11013077
 21
31.5437527423
  0
LINE
  8
AP0179
 62
7
  6
BYLAYER
 10
347.11013077
 20
31.5437527423
 11
350.0149460876
 21
31.5764988044
  0
LINE
  8
AP0179
 62
7
  6
BYLAYER
 10
350.0149460876
 20
31.5764988044
 11
352.157816447
 21
32.2370108384
  0
LINE
  8
AP0179
 62
7
  6
BYLAYER
 10
352.157816447
 20
32.2370108384
 11
352.9762444732
 21
33.597370936
  0
LINE
  8
AP0179
 62
7
  6
BYLAYER
 10
352.9762444732
 20
33.597370936
 11
351.2339340617
 21
34.289735724
  0
LINE
  8
AP0179
 62
7
  6
BYLAYER
 10
351.2339340617
 20
34.289735724
 11
351.017295063
 21
33.3032545692
  0
LINE
  8
AP0179
 62
7
  6
BYLAYER
 10
351.017295063
 20
33.3032545692
 11
350.2210066738
 21
32.7944925793
  0
LINE
  8
AP0179
 62
7
  6
BYLAYER
 10
350.2210066738
 20
32.7944925793
 11
348.472686429
 21
32.6906636018
  0
LINE
  8
AP0179
 62
7
  6
BYLAYER
 10
348.472686429
 20
32.6906636018
 11
346.7091911799
 21
32.7569544105
  0
LINE
  8
AP0179
 62
7
  6
BYLAYER
 10
346.7091911799
 20
32.7569544105
 11
346.0159330837
 21
33.0076457944
  0
LINE
  8
AP0179
 62
7
  6
BYLAYER
 10
349.1051029949
 20
36.7587553108
 11
350.3201772446
 21
34.4241382675
  0
LINE
  8
AP0179
 62
7
  6
BYLAYER
 10
350.3201772446
 20
34.4241382675
 11
348.4719324417
 21
33.8942023523
  0
LINE
  8
AP0179
 62
7
  6
BYLAYER
 10
348.4719324417
 20
33.8942023523
 11
347.3387008976
 21
36.3546633248
  0
LINE
  8
AP0179
 62
7
  6
BYLAYER
 10
347.3387008976
 20
36.3546633248
 11
349.1051029949
 21
36.7587553108
  0
LINE
  8
AP0179
 62
7
  6
BYLAYER
 10
351.6108159175
 20
35.5340901993
 11
353.056566881
 21
36.3590724778
  0
LINE
  8
AP0179
 62
7
  6
BYLAYER
 10
353.056566881
 20
36.3590724778
 11
356.3938795478
 21
33.5139429091
  0
LINE
  8
AP0179
 62
7
  6
BYLAYER
 10
356.3938795478
 20
33.5139429091
 11
354.6362892984
 21
32.4358982932
  0
LINE
  8
AP0179
 62
7
  6
BYLAYER
 10
354.6362892984
 20
32.4358982932
 11
351.6108159175
 21
35.5340901993
  0
LINE
  8
AP0179
 62
7
  6
BYLAYER
 10
360.4788928855
 20
36.1052320235
 11
358.820303489
 21
32.2386781936
  0
LINE
  8
AP0179
 62
7
  6
BYLAYER
 10
358.820303489
 20
32.2386781936
 11
361.0673619934
 21
31.8821027127
  0
LINE
  8
AP0179
 62
7
  6
BYLAYER
 10
361.0673619934
 20
31.8821027127
 11
362.4433520787
 21
35.7266113239
  0
LINE
  8
AP0179
 62
7
  6
BYLAYER
 10
362.4504891583
 20
35.7465522844
 11
360.4788928855
 21
36.1052320235
  0
LINE
  8
AP0179
 62
7
  6
BYLAYER
 10
364.3466503743
 20
36.4461931362
 11
364.3674966225
 21
32.5305728449
  0
LINE
  8
AP0179
 62
7
  6
BYLAYER
 10
364.3674966225
 20
32.5305728449
 11
364.7882122217
 21
31.7897475506
  0
LINE
  8
AP0179
 62
7
  6
BYLAYER
 10
364.7882122217
 20
31.7897475506
 11
366.3256797737
 21
31.3832171693
  0
LINE
  8
AP0179
 62
7
  6
BYLAYER
 10
366.3256797737
 20
31.3832171693
 11
372.7574855896
 21
31.4031842804
  0
LINE
  8
AP0179
 62
7
  6
BYLAYER
 10
372.7574855896
 20
31.4031842804
 11
373.9810701557
 21
31.6779317286
  0
LINE
  8
AP0179
 62
7
  6
BYLAYER
 10
373.9810701557
 20
31.6779317286
 11
374.9211217445
 21
32.4350845802
  0
LINE
  8
AP0179
 62
7
  6
BYLAYER
 10
374.9211217445
 20
32.4350845802
 11
375.7459446416
 21
34.0557738258
  0
LINE
  8
AP0179
 62
7
  6
BYLAYER
 10
375.7459446416
 20
34.0557738258
 11
373.5506615504
 21
34.8823172738
  0
LINE
  8
AP0179
 62
7
  6
BYLAYER
 10
373.5199678524
 20
34.8938737218
 11
373.2782278462
 21
33.7289533771
  0
LINE
  8
AP0179
 62
7
  6
BYLAYER
 10
373.2782278462
 20
33.7289533771
 11
373.0114672424
 21
33.1650821607
  0
LINE
  8
AP0179
 62
7
  6
BYLAYER
 10
373.0114672424
 20
33.1650821607
 11
372.4507907637
 21
32.7976873171
  0
LINE
  8
AP0179
 62
7
  6
BYLAYER
 10
372.4507907637
 20
32.7976873171
 11
371.0802482603
 21
32.6091977886
  0
LINE
  8
AP0179
 62
7
  6
BYLAYER
 10
371.0802482603
 20
32.6091977886
 11
367.5388814419
 21
32.6155872642
  0
LINE
  8
AP0179
 62
7
  6
BYLAYER
 10
367.5388814419
 20
32.6155872642
 11
366.6651206618
 21
32.777720206
  0
LINE
  8
AP0179
 62
7
  6
BYLAYER
 10
366.6651206618
 20
32.777720206
 11
366.3632179425
 21
33.1419203118
  0
LINE
  8
AP0179
 62
7
  6
BYLAYER
 10
366.3632179425
 20
33.1419203118
 11
366.2993231871
 21
35.3742433288
  0
LINE
  8
AP0179
 62
7
  6
BYLAYER
 10
366.2993231871
 20
35.3742433288
 11
366.6958823691
 21
36.2443060117
  0
LINE
  8
AP0179
 62
7
  6
BYLAYER
 10
366.6958823691
 20
36.2443060117
 11
364.3466503743
 21
36.4461931362
  0
LINE
  8
AP0179
 62
7
  6
BYLAYER
 10
368.2882505304
 20
36.6163519936
 11
370.3037109044
 21
34.0471344427
  0
LINE
  8
AP0179
 62
7
  6
BYLAYER
 10
370.3037109044
 20
34.0471344427
 11
372.1822616122
 21
34.7772515735
  0
LINE
  8
AP0179
 62
7
  6
BYLAYER
 10
372.1822616122
 20
34.7772515735
 11
370.1062378081
 21
37.2169267045
  0
LINE
  8
AP0179
 62
7
  6
BYLAYER
 10
370.1062378081
 20
37.2169267045
 11
368.2882505304
 21
36.6163519936
  0
LINE
  8
AP0179
 62
7
  6
BYLAYER
 10
375.2061114654
 20
35.8832130957
 11
378.3957930414
 21
32.7050709164
  0
LINE
  8
AP0179
 62
7
  6
BYLAYER
 10
378.3957930414
 20
32.7050709164
 11
380.2927686567
 21
33.8319384026
  0
LINE
  8
AP0179
 62
7
  6
BYLAYER
 10
380.2321022805
 20
33.7959005292
 11
376.6834587523
 21
36.7764269064
  0
LINE
  8
AP0179
 62
7
  6
BYLAYER
 10
376.6834587523
 20
36.7764269064
 11
375.2061114654
 21
35.8832130957
  0
LINE
  8
AP0179
 62
7
  6
BYLAYER
 10
377.0077934008
 20
47.0196452053
 11
377.0099440042
 21
37.5053757775
  0
LINE
  8
AP0179
 62
7
  6
BYLAYER
 10
377.0099440042
 20
37.5053757775
 11
361.2261908097
 21
37.513578444
  0
LINE
  8
AP0179
 62
7
  6
BYLAYER
 10
361.2261908097
 20
37.513578444
 11
361.2846954834
 21
46.993411935
  0
LINE
  8
AP0179
 62
7
  6
BYLAYER
 10
361.2846954834
 20
46.993411935
 11
377.0077934008
 21
47.0196452053
  0
LINE
  8
AP0179
 62
7
  6
BYLAYER
 10
363.2498001419
 20
45.7165465899
 11
363.2498001419
 21
38.7721444143
  0
LINE
  8
AP0179
 62
7
  6
BYLAYER
 10
363.2498001419
 20
38.7721444143
 11
374.9869345119
 21
38.7721444143
  0
LINE
  8
AP0179
 62
7
  6
BYLAYER
 10
374.9869345119
 20
38.7721444143
 11
374.9869345119
 21
45.7165465899
  0
LINE
  8
AP0179
 62
7
  6
BYLAYER
 10
374.9869345119
 20
45.7165465899
 11
363.2498001419
 21
45.7165465899
  0
LINE
  8
AP0179
 62
7
  6
BYLAYER
 10
364.9016254126
 20
43.8299155222
 11
368.1737190807
 21
43.8131519294
  0
LINE
  8
AP0179
 62
7
  6
BYLAYER
 10
368.2624895469
 20
45.119790897
 11
368.1737190807
 21
43.8131519294
  0
LINE
  8
AP0179
 62
7
  6
BYLAYER
 10
370.2432269645
 20
44.8410500265
 11
369.900631858
 21
43.7241200622
  0
LINE
  8
AP0179
 62
7
  6
BYLAYER
 10
369.900631858
 20
43.7241200622
 11
373.5689489833
 21
43.8373553754
  0
LINE
  8
AP0179
 62
7
  6
BYLAYER
 10
373.5689489833
 20
43.8373553754
 11
373.5689489833
 21
42.5854886689
  0
LINE
  8
AP0179
 62
7
  6
BYLAYER
 10
373.5689489833
 20
42.5854886689
 11
369.6383200506
 21
42.7177531455
  0
LINE
  8
AP0179
 62
7
  6
BYLAYER
 10
369.6383200506
 20
42.7177531455
 11
369.3738633775
 21
42.06315742
  0
LINE
  8
AP0179
 62
7
  6
BYLAYER
 10
369.3738633775
 20
42.06315742
 11
373.9398937031
 21
40.4565911943
  0
LINE
  8
AP0179
 62
7
  6
BYLAYER
 10
368.0131483879
 20
42.7183052983
 11
364.882456986
 21
42.5943506896
  0
LINE
  8
AP0179
 62
7
  6
BYLAYER
 10
364.7370964174
 20
43.6350365182
 11
364.7370964174
 21
42.6215059606
  0
LINE
  8
AP0179
 62
7
  6
BYLAYER
 10
368.0131483879
 20
42.7183052983
 11
367.4390458866
 21
41.7741017671
  0
LINE
  8
AP0179
 62
7
  6
BYLAYER
 10
367.4390458866
 20
41.7741017671
 11
366.5221561465
 21
41.0353186577
  0
LINE
  8
AP0179
 62
7
  6
BYLAYER
 10
366.5221561465
 20
41.0353186577
 11
365.1300491632
 21
40.4954079745
  0
LINE
  8
AP0179
 62
7
  6
BYLAYER
 10
365.1300491632
 20
40.4954079745
 11
363.9153965466
 21
40.2097919846
  0
LINE
  8
AP0179
 62
7
  6
BYLAYER
 10
363.9153965466
 20
40.2097919846
 11
364.7019543019
 21
39.6152577188
  0
LINE
  8
AP0179
 62
7
  6
BYLAYER
 10
364.7019543019
 20
39.6152577188
 11
365.1974899936
 21
39.0725705161
  0
LINE
  8
AP0179
 62
7
  6
BYLAYER
 10
365.1974899936
 20
39.0725705161
 11
366.7625601638
 21
39.6807498431
  0
LINE
  8
AP0179
 62
7
  6
BYLAYER
 10
366.7625601638
 20
39.6807498431
 11
368.0548315918
 21
40.4562724368
  0
LINE
  8
AP0179
 62
7
  6
BYLAYER
 10
368.0548315918
 20
40.4562724368
 11
368.7550726281
 21
41.1396884596
  0
LINE
  8
AP0179
 62
7
  6
BYLAYER
 10
368.7550726281
 20
41.1396884596
 11
369.7736005122
 21
40.7206369873
  0
LINE
  8
AP0179
 62
7
  6
BYLAYER
 10
369.7736005122
 20
40.7206369873
 11
371.3533983396
 21
39.945913078
  0
LINE
  8
AP0179
 62
7
  6
BYLAYER
 10
371.3533983396
 20
39.945913078
 11
372.6007403367
 21
39.2052511634
  0
LINE
  8
AP0179
 62
7
  6
BYLAYER
 10
372.6007403367
 20
39.2052511634
 11
373.9398937031
 21
40.4565911943
  0
LINE
  8
AP0179
 62
7
  6
BYLAYER
 10
383.6994624528
 20
46.3151100117
 11
387.5378739303
 21
46.1455553204
  0
LINE
  8
AP0179
 62
7
  6
BYLAYER
 10
387.5459267282
 20
44.9712013391
 11
383.6994624528
 21
44.826865204
  0
LINE
  8
AP0179
 62
7
  6
BYLAYER
 10
383.6994624528
 20
46.3151100117
 11
383.6994624528
 21
44.826865204
  0
LINE
  8
AP0179
 62
7
  6
BYLAYER
 10
389.2914925841
 20
46.148496459
 11
396.4199672149
 21
46.148496459
  0
LINE
  8
AP0179
 62
7
  6
BYLAYER
 10
396.2770798298
 20
47.9618054173
 11
396.4199672149
 21
46.148496459
  0
LINE
  8
AP0179
 62
7
  6
BYLAYER
 10
398.1253008544
 20
46.8185288115
 11
398.1253008544
 21
46.1403338232
  0
LINE
  8
AP0179
 62
7
  6
BYLAYER
 10
398.1253008544
 20
46.1403338232
 11
402.2800573246
 21
46.3075560822
  0
LINE
  8
AP0179
 62
7
  6
BYLAYER
 10
402.2800573246
 20
46.3075560822
 11
402.2800573246
 21
44.8181735445
  0
LINE
  8
AP0179
 62
7
  6
BYLAYER
 10
402.2800573246
 20
44.8181735445
 11
398.1253008544
 21
44.9741998068
  0
LINE
  8
AP0179
 62
7
  6
BYLAYER
 10
387.3050487799
 20
47.7568531864
 11
387.5378739303
 21
46.1455553204
  0
LINE
  8
AP0179
 62
7
  6
BYLAYER
 10
387.3050487799
 20
47.7568531864
 11
388.9084823872
 21
47.6116863578
  0
LINE
  8
AP0179
 62
7
  6
BYLAYER
 10
388.9084823872
 20
47.6116863578
 11
389.8512143241
 21
47.5987561192
  0
LINE
  8
AP0179
 62
7
  6
BYLAYER
 10
389.8512143241
 20
47.5987561192
 11
389.426029906
 21
47.1780007054
  0
LINE
  8
AP0179
 62
7
  6
BYLAYER
 10
389.426029906
 20
47.1780007054
 11
389.3014351329
 21
46.7778597997
  0
LINE
  8
AP0179
 62
7
  6
BYLAYER
 10
389.3014351329
 20
46.7778597997
 11
389.2914925841
 21
46.148496459
  0
LINE
  8
AP0179
 62
7
  6
BYLAYER
 10
396.2770798298
 20
47.9618054173
 11
396.9847794704
 21
47.8752522238
  0
LINE
  8
AP0179
 62
7
  6
BYLAYER
 10
396.9847794704
 20
47.8752522238
 11
398.08137321
 21
47.8049679929
  0
LINE
  8
AP0179
 62
7
  6
BYLAYER
 10
398.08137321
 20
47.8049679929
 11
398.9422199332
 21
47.7856592813
  0
LINE
  8
AP0179
 62
7
  6
BYLAYER
 10
398.9422199332
 20
47.7856592813
 11
398.2698627385
 21
47.2059546609
  0
LINE
  8
AP0179
 62
7
  6
BYLAYER
 10
398.2698627385
 20
47.2059546609
 11
398.1253008544
 21
46.8185288115
  0
LINE
  8
AP0179
 62
7
  6
BYLAYER
 10
387.5459267282
 20
44.9712013391
 11
387.5459267282
 21
39.4226862948
  0
LINE
  8
AP0179
 62
7
  6
BYLAYER
 10
387.5459267282
 20
39.4226862948
 11
382.8720253703
 21
39.5929042501
  0
LINE
  8
AP0179
 62
7
  6
BYLAYER
 10
382.8720253703
 20
38.1536045974
 11
388.8892195413
 21
38.3284695243
  0
LINE
  8
AP0179
 62
7
  6
BYLAYER
 10
382.8720253703
 20
39.5929042501
 11
382.8720253703
 21
38.1536045974
  0
LINE
  8
AP0179
 62
7
  6
BYLAYER
 10
388.8892195413
 20
38.3284695243
 11
385.7712498968
 21
36.4221173174
  0
LINE
  8
AP0179
 62
7
  6
BYLAYER
 10
385.7712498968
 20
36.4221173174
 11
382.2953594192
 21
35.0595966176
  0
LINE
  8
AP0179
 62
7
  6
BYLAYER
 10
382.2953594192
 20
35.0595966176
 11
383.0141912011
 21
34.6666089127
  0
LINE
  8
AP0179
 62
7
  6
BYLAYER
 10
383.0141912011
 20
34.6666089127
 11
383.7798121929
 21
33.8520700863
  0
LINE
  8
AP0179
 62
7
  6
BYLAYER
 10
383.7916032658
 20
33.8462878109
 11
386.7855791388
 21
35.3391012133
  0
LINE
  8
AP0179
 62
7
  6
BYLAYER
 10
386.7855791388
 20
35.3391012133
 11
389.509093088
 21
37.2016333334
  0
LINE
  8
AP0179
 62
7
  6
BYLAYER
 10
389.509093088
 20
37.2016333334
 11
390.5186151254
 21
38.1824178288
  0
LINE
  8
AP0179
 62
7
  6
BYLAYER
 10
388.3030795797
 20
35.7656636164
 11
392.1782402717
 21
35.6338670734
  0
LINE
  8
AP0179
 62
7
  6
BYLAYER
 10
392.1751017573
 20
34.5889446748
 11
388.3030795797
 21
34.4415043794
  0
LINE
  8
AP0179
 62
7
  6
BYLAYER
 10
388.3030795797
 20
35.7656636164
 11
388.3030795797
 21
34.4415043794
  0
LINE
  8
AP0179
 62
7
  6
BYLAYER
 10
392.0111878714
 20
37.5478367553
 11
392.1607254373
 21
36.2096672557
  0
LINE
  8
AP0179
 62
7
  6
BYLAYER
 10
392.1607254373
 20
36.2096672557
 11
392.1782402717
 21
35.6338670734
  0
LINE
  8
AP0179
 62
7
  6
BYLAYER
 10
392.0111878714
 20
37.5478367553
 11
392.755745347
 21
37.4811728883
  0
LINE
  8
AP0179
 62
7
  6
BYLAYER
 10
392.755745347
 20
37.4811728883
 11
393.8587285622
 21
37.4396412973
  0
LINE
  8
AP0179
 62
7
  6
BYLAYER
 10
393.8587285622
 20
37.4396412973
 11
394.5094580443
 21
37.4201750307
  0
LINE
  8
AP0179
 62
7
  6
BYLAYER
 10
394.5094580443
 20
37.4201750307
 11
393.9769338597
 21
36.9396648362
  0
LINE
  8
AP0179
 62
7
  6
BYLAYER
 10
393.9769338597
 20
36.9396648362
 11
393.8587285622
 21
36.5770620993
  0
LINE
  8
AP0179
 62
7
  6
BYLAYER
 10
393.8587285622
 20
36.5770620993
 11
393.8515598525
 21
35.6361689544
  0
LINE
  8
AP0179
 62
7
  6
BYLAYER
 10
393.8515598525
 20
35.6361689544
 11
395.9105488951
 21
35.6785421014
  0
LINE
  8
AP0179
 62
7
  6
BYLAYER
 10
395.9105488951
 20
35.6785421014
 11
397.6780375665
 21
35.7635984045
  0
LINE
  8
AP0179
 62
7
  6
BYLAYER
 10
397.6780375665
 20
35.7635984045
 11
397.6780375665
 21
34.4437524508
  0
LINE
  8
AP0179
 62
7
  6
BYLAYER
 10
397.6780375665
 20
34.4437524508
 11
393.8523390866
 21
34.5830422209
  0
LINE
  8
AP0179
 62
7
  6
BYLAYER
 10
393.8523390866
 20
34.5830422209
 11
393.8523390866
 21
32.9641411939
  0
LINE
  8
AP0179
 62
7
  6
BYLAYER
 10
392.1751017573
 20
34.5889446748
 11
392.1751017573
 21
32.9621413184
  0
LINE
  8
AP0179
 62
7
  6
BYLAYER
 10
392.1751017573
 20
32.9621413184
 11
384.6435074639
 21
33.1091628032
  0
LINE
  8
AP0179
 62
7
  6
BYLAYER
 10
384.6435074639
 20
33.1091628032
 11
384.6435074639
 21
31.65140682
  0
LINE
  8
AP0179
 62
7
  6
BYLAYER
 10
384.6435074639
 20
31.65140682
 11
393.6989916737
 21
31.7897475506
  0
LINE
  8
AP0179
 62
7
  6
BYLAYER
 10
393.6989916737
 20
31.7897475506
 11
401.4558149799
 21
31.6499925077
  0
LINE
  8
AP0179
 62
7
  6
BYLAYER
 10
401.4558149799
 20
31.6499925077
 11
401.4558149799
 21
33.1129510669
  0
LINE
  8
AP0179
 62
7
  6
BYLAYER
 10
401.4558149799
 20
33.1129510669
 11
393.8523390866
 21
32.9641411939
  0
LINE
  8
AP0179
 62
7
  6
BYLAYER
 10
401.7412825632
 20
34.122918941
 11
398.8513050127
 21
35.5691223328
  0
LINE
  8
AP0179
 62
7
  6
BYLAYER
 10
398.8513050127
 20
35.5691223328
 11
396.6812793822
 21
37.2575412444
  0
LINE
  8
AP0179
 62
7
  6
BYLAYER
 10
396.6812793822
 20
37.2575412444
 11
396.0263581393
 21
38.1824178288
  0
LINE
  8
AP0179
 62
7
  6
BYLAYER
 10
397.6230898635
 20
38.3297352655
 11
398.8481102749
 21
37.2934820443
  0
LINE
  8
AP0179
 62
7
  6
BYLAYER
 10
398.8481102749
 20
37.2934820443
 11
400.5980278885
 21
36.4269094241
  0
LINE
  8
AP0179
 62
7
  6
BYLAYER
 10
400.5980278885
 20
36.4269094241
 11
402.9340640026
 21
35.8540488792
  0
LINE
  8
AP0179
 62
7
  6
BYLAYER
 10
402.9340640026
 20
35.8540488792
 11
402.3958665688
 21
35.3630617466
  0
LINE
  8
AP0179
 62
7
  6
BYLAYER
 10
402.3958665688
 20
35.3630617466
 11
401.9494019654
 21
34.7017510282
  0
LINE
  8
AP0179
 62
7
  6
BYLAYER
 10
401.9494019654
 20
34.7017510282
 11
401.7412825632
 21
34.122918941
  0
LINE
  8
AP0179
 62
7
  6
BYLAYER
 10
402.8966417142
 20
38.1367163742
 11
397.6230898635
 21
38.3297352655
  0
LINE
  8
AP0179
 62
7
  6
BYLAYER
 10
402.8966417142
 20
39.5919919994
 11
398.1253008544
 21
39.4220642938
  0
LINE
  8
AP0179
 62
7
  6
BYLAYER
 10
402.8966417142
 20
39.5919919994
 11
402.8966417142
 21
38.1367163742
  0
LINE
  8
AP0179
 62
7
  6
BYLAYER
 10
398.1253008544
 20
44.9741998068
 11
398.1253008544
 21
39.4220642938
  0
LINE
  8
AP0179
 62
7
  6
BYLAYER
 10
405.9012925872
 20
47.3656915494
 11
405.9012925872
 21
31.6619580398
  0
LINE
  8
AP0179
 62
7
  6
BYLAYER
 10
406.6999770297
 20
30.8632735972
 11
414.0350949502
 21
30.8632735972
  0
LINE
  8
AP0179
 62
7
  6
BYLAYER
 10
414.8337793928
 20
31.6619580398
 11
414.8337793928
 21
47.3656915494
  0
LINE
  8
AP0179
 62
7
  6
BYLAYER
 10
414.0350949502
 20
48.164375992
 11
406.6999770297
 21
48.164375992
  0
LINE
  8
AP0179
 62
7
  6
BYLAYER
 10
409.9686962275
 20
45.8194384686
 11
407.0769560866
 21
45.8194384686
  0
LINE
  8
AP0179
 62
7
  6
BYLAYER
 10
407.0769560866
 20
45.8194384686
 11
407.0769560866
 21
44.7955250133
  0
LINE
  8
AP0179
 62
7
  6
BYLAYER
 10
407.0769560866
 20
44.7955250133
 11
409.8591849736
 21
44.7955250133
  0
LINE
  8
AP0179
 62
7
  6
BYLAYER
 10
410.450767871
 20
44.7955250133
 11
413.6581158934
 21
44.7955250133
  0
LINE
  8
AP0179
 62
7
  6
BYLAYER
 10
413.6581158934
 20
44.7955250133
 11
413.6581158934
 21
45.8194384686
  0
LINE
  8
AP0179
 62
7
  6
BYLAYER
 10
413.6581158934
 20
45.8194384686
 11
410.5576359195
 21
45.8194384686
  0
LINE
  8
AP0179
 62
7
  6
BYLAYER
 10
410.5576359195
 20
45.8194384686
 11
410.6707905345
 21
47.1314203564
  0
LINE
  8
AP0179
 62
7
  6
BYLAYER
 10
410.0757413484
 20
47.3064348229
 11
410.6707905345
 21
47.1314203564
  0
LINE
  8
AP0179
 62
7
  6
BYLAYER
 10
410.0757413484
 20
47.3064348229
 11
409.9686962275
 21
45.8194384686
  0
LINE
  8
AP0179
 62
7
  6
BYLAYER
 10
409.8591849736
 20
44.7955250133
 11
409.6688654498
 21
43.4665141009
  0
LINE
  8
AP0179
 62
7
  6
BYLAYER
 10
410.450767871
 20
44.7955250133
 11
410.2753208859
 21
43.4665141009
  0
LINE
  8
AP0179
 62
7
  6
BYLAYER
 10
410.2753208859
 20
43.4665141009
 11
413.4073289784
 21
43.4665141009
  0
LINE
  8
AP0179
 62
7
  6
BYLAYER
 10
413.4073289784
 20
43.4665141009
 11
413.4073289784
 21
42.4426006455
  0
LINE
  8
AP0179
 62
7
  6
BYLAYER
 10
413.4073289784
 20
42.4426006455
 11
410.1062888852
 21
42.4426006455
  0
LINE
  8
AP0179
 62
7
  6
BYLAYER
 10
410.1062888852
 20
42.4426006455
 11
409.7427758198
 21
40.905931778
  0
LINE
  8
AP0179
 62
7
  6
BYLAYER
 10
409.4773326088
 20
42.4426006455
 11
409.049426189
 21
40.905931778
  0
LINE
  8
AP0179
 62
7
  6
BYLAYER
 10
409.4773326088
 20
42.4426006455
 11
407.3421193216
 21
42.4426006455
  0
LINE
  8
AP0179
 62
7
  6
BYLAYER
 10
407.3421193216
 20
43.4665141009
 11
409.6688654498
 21
43.4665141009
  0
LINE
  8
AP0179
 62
7
  6
BYLAYER
 10
407.3421193216
 20
43.4665141009
 11
407.3421193216
 21
42.4426006455
  0
LINE
  8
AP0179
 62
7
  6
BYLAYER
 10
409.049426189
 20
40.905931778
 11
406.7894296873
 21
40.905931778
  0
LINE
  8
AP0179
 62
7
  6
BYLAYER
 10
406.7894296873
 20
40.905931778
 11
406.7894296873
 21
39.8804209537
  0
LINE
  8
AP0179
 62
7
  6
BYLAYER
 10
406.7894296873
 20
39.8804209537
 11
408.7116915049
 21
39.8804209537
  0
LINE
  8
AP0179
 62
7
  6
BYLAYER
 10
408.7116915049
 20
39.8804209537
 11
406.6599280622
 21
36.696422914
  0
LINE
  8
AP0179
 62
7
  6
BYLAYER
 10
409.4272266661
 20
39.8804209537
 11
408.6747783723
 21
38.1674450894
  0
LINE
  8
AP0179
 62
7
  6
BYLAYER
 10
409.4272266661
 20
39.8804209537
 11
411.2799321683
 21
39.8804209537
  0
LINE
  8
AP0179
 62
7
  6
BYLAYER
 10
411.2799321683
 20
39.8804209537
 11
411.9349452481
 21
38.0559927511
  0
LINE
  8
AP0179
 62
7
  6
BYLAYER
 10
411.8889807033
 20
39.8804209537
 11
412.551139256
 21
38.5577995169
  0
LINE
  8
AP0179
 62
7
  6
BYLAYER
 10
412.551139256
 20
38.5577995169
 11
413.3154802675
 21
37.6249360879
  0
LINE
  8
AP0179
 62
7
  6
BYLAYER
 10
413.3154802675
 20
37.6249360879
 11
414.0826289268
 21
37.0084960329
  0
LINE
  8
AP0179
 62
7
  6
BYLAYER
 10
411.8889807033
 20
39.8804209537
 11
413.9600186126
 21
39.8804209537
  0
LINE
  8
AP0179
 62
7
  6
BYLAYER
 10
413.9600186126
 20
40.905931778
 11
413.9600186126
 21
39.8804209537
  0
LINE
  8
AP0179
 62
7
  6
BYLAYER
 10
413.9600186126
 20
40.905931778
 11
409.7427758198
 21
40.905931778
  0
LINE
  8
AP0179
 62
7
  6
BYLAYER
 10
412.370665587
 20
37.3238296869
 11
412.9313130506
 21
36.5626857793
  0
LINE
  8
AP0179
 62
7
  6
BYLAYER
 10
412.9313130506
 20
36.5626857793
 11
413.7189248493
 21
35.7449176731
  0
LINE
  8
AP0179
 62
7
  6
BYLAYER
 10
414.0826289268
 20
37.0084960329
 11
413.7189248493
 21
35.7449176731
  0
LINE
  8
AP0179
 62
7
  6
BYLAYER
 10
412.370665587
 20
37.3238296869
 11
411.2868970409
 21
35.9836201327
  0
LINE
  8
AP0179
 62
7
  6
BYLAYER
 10
410.9846117938
 20
36.9253549411
 11
411.2868970409
 21
35.9836201327
  0
LINE
  8
AP0179
 62
7
  6
BYLAYER
 10
411.9349452481
 20
38.0559927511
 11
410.9846117938
 21
36.9253549411
  0
LINE
  8
AP0179
 62
7
  6
BYLAYER
 10
410.7141650381
 20
39.0817365112
 11
410.7141650381
 21
33.141490251
  0
LINE
  8
AP0179
 62
7
  6
BYLAYER
 10
410.7141650381
 20
39.0817365112
 11
410.1407096083
 21
39.0817365112
  0
LINE
  8
AP0179
 62
7
  6
BYLAYER
 10
410.1407096083
 20
39.0817365112
 11
410.1407096083
 21
33.8120165591
  0
LINE
  8
AP0179
 62
7
  6
BYLAYER
 10
410.1407096083
 20
33.8120165591
 11
410.0863990662
 21
33.3008585159
  0
LINE
  8
AP0179
 62
7
  6
BYLAYER
 10
410.0863990662
 20
33.3008585159
 11
409.9649990309
 21
33.0580584454
  0
LINE
  8
AP0179
 62
7
  6
BYLAYER
 10
409.9649990309
 20
33.0580584454
 11
409.7277897515
 21
32.9510347301
  0
LINE
  8
AP0179
 62
7
  6
BYLAYER
 10
409.7277897515
 20
32.9510347301
 11
408.8306145359
 21
33.0739588319
  0
LINE
  8
AP0179
 62
7
  6
BYLAYER
 10
408.8306145359
 20
33.0739588319
 11
408.9197166325
 21
31.7474513683
  0
LINE
  8
AP0179
 62
7
  6
BYLAYER
 10
408.9197166325
 20
31.7474513683
 11
410.0366829095
 21
31.7152205006
  0
LINE
  8
AP0179
 62
7
  6
BYLAYER
 10
410.0366829095
 20
31.7152205006
 11
410.4737610209
 21
32.158739763
  0
LINE
  8
AP0179
 62
7
  6
BYLAYER
 10
410.4737610209
 20
32.158739763
 11
410.7141650381
 21
33.141490251
  0
LINE
  8
AP0179
 62
7
  6
BYLAYER
 10
410.8177776389
 20
34.7995691177
 11
413.2903095835
 21
32.7669407452
  0
LINE
  8
AP0179
 62
7
  6
BYLAYER
 10
413.2903095835
 20
32.7669407452
 11
413.558421102
 21
33.9670589711
  0
LINE
  8
AP0179
 62
7
  6
BYLAYER
 10
413.558421102
 20
33.9670589711
 11
411.0472670673
 21
35.7781223543
  0
LINE
  8
AP0179
 62
7
  6
BYLAYER
 10
411.0472670673
 20
35.7781223543
 11
410.8177776389
 21
34.7995691177
  0
LINE
  8
AP0179
 62
7
  6
BYLAYER
 10
409.8109322739
 20
35.7634643599
 11
409.9353491275
 21
34.6959677555
  0
LINE
  8
AP0179
 62
7
  6
BYLAYER
 10
409.9353491275
 20
34.6959677555
 11
407.3986675373
 21
33.0194790021
  0
LINE
  8
AP0179
 62
7
  6
BYLAYER
 10
407.2166131029
 20
34.1610404554
 11
407.3986675373
 21
33.0194790021
  0
LINE
  8
AP0179
 62
7
  6
BYLAYER
 10
407.2166131029
 20
34.1610404554
 11
409.8109322739
 21
35.7634643599
  0
LINE
  8
AP0179
 62
7
  6
BYLAYER
 10
409.6789653934
 20
36.8465010885
 11
409.3252302882
 21
35.8720817149
  0
LINE
  8
AP0179
 62
7
  6
BYLAYER
 10
409.3252302882
 20
35.8720817149
 11
408.2749604303
 21
37.3927178282
  0
LINE
  8
AP0179
 62
7
  6
BYLAYER
 10
408.2749604303
 20
37.3927178282
 11
407.0040800149
 21
35.6087017788
  0
LINE
  8
AP0179
 62
7
  6
BYLAYER
 10
406.6599280622
 20
36.696422914
 11
407.0040800149
 21
35.6087017788
  0
LINE
  8
AP0179
 62
7
  6
BYLAYER
 10
408.6747783723
 20
38.1674450894
 11
409.6789653934
 21
36.8465010885
  0
LINE
  8
AP0179
 62
7
  6
BYLAYER
 10
334.7282991569
 20
26.6961031321
 11
335.6114130139
 21
26.6852966282
  0
LINE
  8
AP0179
 62
7
  6
BYLAYER
 10
335.7561883826
 20
26.6891106884
 11
336.8781577601
 21
22.9831155209
  0
LINE
  8
AP0179
 62
7
  6
BYLAYER
 10
336.8781577601
 20
22.9831155209
 11
338.1447435871
 21
26.6961031321
  0
LINE
  8
AP0179
 62
7
  6
BYLAYER
 10
338.1447435871
 20
26.6961031321
 11
338.8903923575
 21
26.6891106884
  0
LINE
  8
AP0179
 62
7
  6
BYLAYER
 10
338.8903923575
 20
26.6891106884
 11
340.1137521688
 21
23.0333339802
  0
LINE
  8
AP0179
 62
7
  6
BYLAYER
 10
340.1137521688
 20
23.0333339802
 11
341.2862578441
 21
26.6961031321
  0
LINE
  8
AP0179
 62
7
  6
BYLAYER
 10
341.2862578441
 20
26.6961031321
 11
342.0824429122
 21
26.6891106884
  0
LINE
  8
AP0179
 62
7
  6
BYLAYER
 10
342.0824429122
 20
26.6891106884
 11
340.374061778
 21
21.7378248633
  0
LINE
  8
AP0179
 62
7
  6
BYLAYER
 10
340.374061778
 20
21.7378248633
 11
339.5708842661
 21
21.7378248633
  0
LINE
  8
AP0179
 62
7
  6
BYLAYER
 10
339.5708842661
 20
21.7378248633
 11
338.4053710346
 21
25.4005940152
  0
LINE
  8
AP0179
 62
7
  6
BYLAYER
 10
338.4053710346
 20
25.4005940152
 11
337.1820112232
 21
21.7378248633
  0
LINE
  8
AP0179
 62
7
  6
BYLAYER
 10
337.1820112232
 20
21.7378248633
 11
336.3206692932
 21
21.7378248633
  0
LINE
  8
AP0179
 62
7
  6
BYLAYER
 10
336.3206692932
 20
21.7378248633
 11
334.7282991569
 21
26.6961031321
  0
LINE
  8
AP0179
 62
7
  6
BYLAYER
 10
342.2559826516
 20
26.6961031321
 11
343.848352788
 21
21.7378248633
  0
LINE
  8
AP0179
 62
7
  6
BYLAYER
 10
343.848352788
 20
21.7378248633
 11
344.709694718
 21
21.7378248633
  0
LINE
  8
AP0179
 62
7
  6
BYLAYER
 10
344.709694718
 20
21.7378248633
 11
345.9330545293
 21
25.4005940152
  0
LINE
  8
AP0179
 62
7
  6
BYLAYER
 10
345.9330545293
 20
25.4005940152
 11
347.0985677608
 21
21.7378248633
  0
LINE
  8
AP0179
 62
7
  6
BYLAYER
 10
347.0985677608
 20
21.7378248633
 11
347.9017452727
 21
21.7378248633
  0
LINE
  8
AP0179
 62
7
  6
BYLAYER
 10
347.9017452727
 20
21.7378248633
 11
349.610126407
 21
26.6891106884
  0
LINE
  8
AP0179
 62
7
  6
BYLAYER
 10
349.610126407
 20
26.6891106884
 11
348.8139413388
 21
26.6961031321
  0
LINE
  8
AP0179
 62
7
  6
BYLAYER
 10
348.8139413388
 20
26.6961031321
 11
347.6414356636
 21
23.0333339802
  0
LINE
  8
AP0179
 62
7
  6
BYLAYER
 10
347.6414356636
 20
23.0333339802
 11
346.4180758523
 21
26.6891106884
  0
LINE
  8
AP0179
 62
7
  6
BYLAYER
 10
346.4180758523
 20
26.6891106884
 11
345.6700417978
 21
26.6891106884
  0
LINE
  8
AP0179
 62
7
  6
BYLAYER
 10
345.6700417978
 20
26.6891106884
 11
344.4058412549
 21
22.9831155209
  0
LINE
  8
AP0179
 62
7
  6
BYLAYER
 10
344.4058412549
 20
22.9831155209
 11
343.2838718774
 21
26.6891106884
  0
LINE
  8
AP0179
 62
7
  6
BYLAYER
 10
343.2838718774
 20
26.6891106884
 11
342.2559826516
 21
26.6961031321
  0
LINE
  8
AP0179
 62
7
  6
BYLAYER
 10
349.7839839848
 20
26.6961031321
 11
350.8118732105
 21
26.6891106884
  0
LINE
  8
AP0179
 62
7
  6
BYLAYER
 10
350.8118732105
 20
26.6891106884
 11
351.933842588
 21
22.9831155209
  0
LINE
  8
AP0179
 62
7
  6
BYLAYER
 10
351.933842588
 20
22.9831155209
 11
353.200428415
 21
26.6961031321
  0
LINE
  8
AP0179
 62
7
  6
BYLAYER
 10
353.200428415
 20
26.6961031321
 11
353.9460771854
 21
26.6891106884
  0
LINE
  8
AP0179
 62
7
  6
BYLAYER
 10
353.9460771854
 20
26.6891106884
 11
355.1694369967
 21
23.0333339802
  0
LINE
  8
AP0179
 62
7
  6
BYLAYER
 10
355.1694369967
 20
23.0333339802
 11
356.341942672
 21
26.6961031321
  0
LINE
  8
AP0179
 62
7
  6
BYLAYER
 10
356.341942672
 20
26.6961031321
 11
357.1381277401
 21
26.6891106884
  0
LINE
  8
AP0179
 62
7
  6
BYLAYER
 10
357.1381277401
 20
26.6891106884
 11
355.4297466058
 21
21.7378248633
  0
LINE
  8
AP0179
 62
7
  6
BYLAYER
 10
355.4297466058
 20
21.7378248633
 11
354.626569094
 21
21.7378248633
  0
LINE
  8
AP0179
 62
7
  6
BYLAYER
 10
354.626569094
 20
21.7378248633
 11
353.4610558624
 21
25.4005940152
  0
LINE
  8
AP0179
 62
7
  6
BYLAYER
 10
353.4610558624
 20
25.4005940152
 11
352.2376960511
 21
21.7378248633
  0
LINE
  8
AP0179
 62
7
  6
BYLAYER
 10
352.2376960511
 20
21.7378248633
 11
351.3763541211
 21
21.7378248633
  0
LINE
  8
AP0179
 62
7
  6
BYLAYER
 10
351.3763541211
 20
21.7378248633
 11
349.7839839848
 21
26.6961031321
  0
LINE
  8
AP0179
 62
7
  6
BYLAYER
 10
358.2597792793
 20
22.5845462292
 11
358.5855635886
 21
22.5921743497
  0
LINE
  8
AP0179
 62
7
  6
BYLAYER
 10
358.5855635886
 20
22.5921743497
 11
358.8897348901
 21
22.4402476181
  0
LINE
  8
AP0179
 62
7
  6
BYLAYER
 10
358.8897348901
 20
22.4402476181
 11
359.0188590151
 21
22.2121696321
  0
LINE
  8
AP0179
 62
7
  6
BYLAYER
 10
359.0188590151
 20
22.2121696321
 11
358.9765047598
 21
21.9221711067
  0
LINE
  8
AP0179
 62
7
  6
BYLAYER
 10
358.9765047598
 20
21.9221711067
 11
358.7266838162
 21
21.7054053516
  0
LINE
  8
AP0179
 62
7
  6
BYLAYER
 10
358.7266838162
 20
21.7054053516
 11
358.2597792793
 21
21.6799782835
  0
LINE
  8
AP0179
 62
7
  6
BYLAYER
 10
358.2597792793
 20
21.6799782835
 11
357.977538824
 21
21.7740584353
  0
LINE
  8
AP0179
 62
7
  6
BYLAYER
 10
357.977538824
 20
21.7740584353
 11
357.8256120924
 21
22.0632913343
  0
LINE
  8
AP0179
 62
7
  6
BYLAYER
 10
357.8256120924
 20
22.0632913343
 11
357.9119029221
 21
22.3858726522
  0
LINE
  8
AP0179
 62
7
  6
BYLAYER
 10
357.9119029221
 20
22.3858726522
 11
358.2588017978
 21
22.5845475288
  0
LINE
  8
AP0179
 62
7
  6
BYLAYER
 10
360.6206825473
 20
26.6897463651
 11
360.6206825473
 21
21.8083849772
  0
LINE
  8
AP0179
 62
7
  6
BYLAYER
 10
360.6206825473
 20
21.8083849772
 11
362.9590192924
 21
21.8083849772
  0
LINE
  8
AP0179
 62
7
  6
BYLAYER
 10
364.8609639821
 20
25.9917733473
 11
364.1022818581
 21
26.5412371892
  0
LINE
  8
AP0179
 62
7
  6
BYLAYER
 10
364.1022818581
 20
26.5412371892
 11
363.3280365338
 21
26.6953680579
  0
LINE
  8
AP0179
 62
7
  6
BYLAYER
 10
363.3280365338
 20
26.6953680579
 11
360.6206825473
 21
26.6897463651
  0
LINE
  8
AP0179
 62
7
  6
BYLAYER
 10
361.5716548921
 20
26.3445739164
 11
361.5716548921
 21
22.1395725385
  0
LINE
  8
AP0179
 62
7
  6
BYLAYER
 10
361.5716548921
 20
22.1395725385
 11
362.3449445441
 21
22.1415792804
  0
LINE
  8
AP0179
 62
7
  6
BYLAYER
 10
363.8537342492
 20
25.8938791353
 11
363.4081248817
 21
26.190104478
  0
LINE
  8
AP0179
 62
7
  6
BYLAYER
 10
363.4081248817
 20
26.190104478
 11
362.495147002
 21
26.3298404545
  0
LINE
  8
AP0179
 62
7
  6
BYLAYER
 10
362.495147002
 20
26.3298404545
 11
361.5716548921
 21
26.3298404545
  0
LINE
  8
AP0179
 62
7
  6
BYLAYER
 10
386.3080602015
 20
26.5626110249
 11
389.139999905
 21
26.5626110249
  0
LINE
  8
AP0179
 62
7
  6
BYLAYER
 10
389.139999905
 20
26.5626110249
 11
389.139999905
 21
26.1042881234
  0
LINE
  8
AP0179
 62
7
  6
BYLAYER
 10
389.139999905
 20
26.1042881234
 11
387.0308246107
 21
26.1042881234
  0
LINE
  8
AP0179
 62
7
  6
BYLAYER
 10
387.0308246107
 20
26.1042881234
 11
387.0308246107
 21
24.5125536638
  0
LINE
  8
AP0179
 62
7
  6
BYLAYER
 10
387.0308246107
 20
24.5125536638
 11
389.139999905
 21
24.5125536638
  0
LINE
  8
AP0179
 62
7
  6
BYLAYER
 10
389.139999905
 20
24.5125536638
 11
389.139999905
 21
24.0605875293
  0
LINE
  8
AP0179
 62
7
  6
BYLAYER
 10
389.139999905
 20
24.0605875293
 11
387.0308246107
 21
24.0605875293
  0
LINE
  8
AP0179
 62
7
  6
BYLAYER
 10
387.0308246107
 20
24.0605875293
 11
387.0308246107
 21
22.1707206968
  0
LINE
  8
AP0179
 62
7
  6
BYLAYER
 10
387.0308246107
 20
22.1707206968
 11
389.139999905
 21
22.1707206968
  0
LINE
  8
AP0179
 62
7
  6
BYLAYER
 10
389.139999905
 20
22.1707206968
 11
389.139999905
 21
21.7378248633
  0
LINE
  8
AP0179
 62
7
  6
BYLAYER
 10
389.139999905
 20
21.7378248633
 11
386.3080602015
 21
21.7378248633
  0
LINE
  8
AP0179
 62
7
  6
BYLAYER
 10
386.3080602015
 20
21.7378248633
 11
386.3080602015
 21
26.5626110249
  0
LINE
  8
AP0179
 62
7
  6
BYLAYER
 10
380.1437116579
 20
25.745766464
 11
379.124757851
 21
26.3683344442
  0
LINE
  8
AP0179
 62
7
  6
BYLAYER
 10
379.124757851
 20
26.3683344442
 11
378.5038573418
 21
26.4291189177
  0
LINE
  8
AP0179
 62
7
  6
BYLAYER
 10
376.8908277126
 20
25.1965417942
 11
376.7637022893
 21
24.7042008677
  0
LINE
  8
AP0179
 62
7
  6
BYLAYER
 10
377.0368119637
 20
22.9566147533
 11
377.4608436834
 21
22.4278389822
  0
LINE
  8
AP0179
 62
7
  6
BYLAYER
 10
379.1872097955
 20
22.0334145294
 11
379.6658743514
 21
22.2387381038
  0
LINE
  8
AP0179
 62
7
  6
BYLAYER
 10
379.6658743514
 20
22.2387381038
 11
379.6658743514
 21
24.0834718905
  0
LINE
  8
AP0179
 62
7
  6
BYLAYER
 10
379.6658743514
 20
24.0834718905
 11
380.5605893083
 21
24.0834718905
  0
LINE
  8
AP0179
 62
7
  6
BYLAYER
 10
380.5605893083
 20
24.0834718905
 11
380.5501006427
 21
22.0165690968
  0
LINE
  8
AP0179
 62
7
  6
BYLAYER
 10
380.5501006427
 20
22.0165690968
 11
379.5959499143
 21
21.787407646
  0
LINE
  8
AP0179
 62
7
  6
BYLAYER
 10
379.5959499143
 20
21.787407646
 11
378.4475999537
 21
21.6958702011
  0
LINE
  8
AP0179
 62
7
  6
BYLAYER
 10
378.37894687
 20
26.7777875882
 11
379.4708805233
 21
26.7266156138
  0
LINE
  8
AP0179
 62
7
  6
BYLAYER
 10
379.4708805233
 20
26.7266156138
 11
380.6168466963
 21
26.3445739164
  0
LINE
  8
AP0179
 62
7
  6
BYLAYER
 10
380.6168466963
 20
26.3445739164
 11
380.3914993058
 21
25.745766464
  0
LINE
  8
AP0179
 62
7
  6
BYLAYER
 10
380.3914993058
 20
25.745766464
 11
380.1437116579
 21
25.745766464
  0
LINE
  8
AP0179
 62
7
  6
BYLAYER
 10
381.4584826486
 20
26.7393291478
 11
381.4584826486
 21
26.232694817
  0
LINE
  8
AP0179
 62
7
  6
BYLAYER
 10
383.0511706233
 20
26.3862686341
 11
383.0511706233
 21
21.7378248633
  0
LINE
  8
AP0179
 62
7
  6
BYLAYER
 10
383.0511706233
 20
21.7378248633
 11
383.9703591331
 21
21.7378248633
  0
LINE
  8
AP0179
 62
7
  6
BYLAYER
 10
381.4584826486
 20
26.7393291478
 11
385.5627292694
 21
26.753949712
  0
LINE
  8
AP0179
 62
7
  6
BYLAYER
 10
385.5627292694
 20
26.753949712
 11
385.5536708765
 21
26.2600289152
  0
LINE
  8
AP0179
 62
7
  6
BYLAYER
 10
383.9703591331
 20
21.7378248633
 11
383.9703591331
 21
26.3892232879
  0
LINE
  8
AP0179
 62
7
  6
BYLAYER
 10
409.4708478372
 20
26.753949712
 11
409.9847924501
 21
26.753949712
  0
LINE
  8
AP0179
 62
7
  6
BYLAYER
 10
409.9847924501
 20
26.753949712
 11
411.8377900339
 21
23.2075093964
  0
LINE
  8
AP0179
 62
7
  6
BYLAYER
 10
411.8377900339
 20
23.2075093964
 11
413.7413239154
 21
26.753949712
  0
LINE
  8
AP0179
 62
7
  6
BYLAYER
 10
413.7413239154
 20
26.753949712
 11
414.2625788104
 21
26.753949712
  0
LINE
  8
AP0179
 62
7
  6
BYLAYER
 10
414.2625788104
 20
26.753949712
 11
414.834370003
 21
21.7378248633
  0
LINE
  8
AP0179
 62
7
  6
BYLAYER
 10
413.7991704952
 20
21.7378248633
 11
413.5026273142
 21
25.0242734082
  0
LINE
  8
AP0179
 62
7
  6
BYLAYER
 10
413.5026273142
 20
25.0242734082
 11
411.8667133238
 21
21.8535180229
  0
LINE
  8
AP0179
 62
7
  6
BYLAYER
 10
411.8667133238
 20
21.8535180229
 11
411.4611515885
 21
21.8535180229
  0
LINE
  8
AP0179
 62
7
  6
BYLAYER
 10
411.4611515885
 20
21.8535180229
 11
409.8834020163
 21
24.958798708
  0
LINE
  8
AP0179
 62
7
  6
BYLAYER
 10
409.8834020163
 20
24.958798708
 11
409.5865409968
 21
21.7378248633
  0
LINE
  8
AP0179
 62
7
  6
BYLAYER
 10
408.7830456466
 20
21.7378248633
 11
409.4708478372
 21
26.753949712
  0
LINE
  8
AP0179
 62
7
  6
BYLAYER
 10
408.7830456466
 20
21.7378248633
 11
409.5865409968
 21
21.7378248633
  0
LINE
  8
AP0179
 62
7
  6
BYLAYER
 10
413.7991704952
 20
21.7378248633
 11
414.834370003
 21
21.7378248633
  0
LINE
  8
AP0179
 62
7
  6
BYLAYER
 10
395.6950740807
 20
22.5845475288
 11
396.0218358715
 21
22.5921743497
  0
LINE
  8
AP0179
 62
7
  6
BYLAYER
 10
396.0218358715
 20
22.5921743497
 11
396.2553787928
 21
22.4960514331
  0
LINE
  8
AP0179
 62
7
  6
BYLAYER
 10
396.2553787928
 20
22.4960514331
 11
396.4270797684
 21
22.2984917137
  0
LINE
  8
AP0179
 62
7
  6
BYLAYER
 10
396.4270797684
 20
22.2984917137
 11
396.4633133404
 21
22.1217735908
  0
LINE
  8
AP0179
 62
7
  6
BYLAYER
 10
396.4633133404
 20
22.1217735908
 11
396.3648620807
 21
21.8466539986
  0
LINE
  8
AP0179
 62
7
  6
BYLAYER
 10
396.3648620807
 20
21.8466539986
 11
396.1629560991
 21
21.7054053516
  0
LINE
  8
AP0179
 62
7
  6
BYLAYER
 10
396.1629560991
 20
21.7054053516
 11
396.0088293737
 21
21.6799765326
  0
LINE
  8
AP0179
 62
7
  6
BYLAYER
 10
396.0088293737
 20
21.6799765326
 11
395.6960515621
 21
21.6799782835
  0
LINE
  8
AP0179
 62
7
  6
BYLAYER
 10
395.6960515621
 20
21.6799782835
 11
395.4138111068
 21
21.7740584353
  0
LINE
  8
AP0179
 62
7
  6
BYLAYER
 10
395.4138111068
 20
21.7740584353
 11
395.280621153
 21
21.9783460842
  0
LINE
  8
AP0179
 62
7
  6
BYLAYER
 10
395.280621153
 20
21.9783460842
 11
395.3089244511
 21
22.2984917137
  0
LINE
  8
AP0179
 62
7
  6
BYLAYER
 10
395.3089244511
 20
22.2984917137
 11
395.4719364257
 21
22.5121414958
  0
LINE
  8
AP0179
 62
7
  6
BYLAYER
 10
395.4719364257
 20
22.5121414958
 11
395.6950740807
 21
22.5845475288
  0
LINE
  8
AP0179
 62
7
  6
BYLAYER
 10
406.9118739241
 20
25.6155215673
 11
407.1000915804
 21
25.2124337117
  0
LINE
  8
AP0179
 62
7
  6
BYLAYER
 10
406.8571557231
 20
22.8531095387
 11
406.0505893468
 21
22.0779118984
  0
LINE
  8
AP0179
 62
7
  6
BYLAYER
 10
406.0505893468
 20
22.0779118984
 11
405.3739114985
 21
21.904372159
  0
LINE
  8
AP0179
 62
7
  6
BYLAYER
 10
405.3739114985
 20
21.904372159
 11
404.3308737047
 21
22.2631181853
  0
LINE
  8
AP0179
 62
7
  6
BYLAYER
 10
404.3308737047
 20
22.2631181853
 11
403.7997298167
 21
22.8482407117
  0
LINE
  8
AP0179
 62
7
  6
BYLAYER
 10
403.6258005704
 20
23.2399289081
 11
403.4846803427
 21
24.2277705017
  0
LINE
  8
AP0179
 62
7
  6
BYLAYER
 10
403.4846803427
 20
24.2277705017
 11
403.717536624
 21
25.2219660375
  0
LINE
  8
AP0179
 62
7
  6
BYLAYER
 10
403.717536624
 20
25.2219660375
 11
404.215708549
 21
26.0521626339
  0
LINE
  8
AP0179
 62
7
  6
BYLAYER
 10
405.3303676444
 20
26.5587969647
 11
406.098807797
 21
26.3723040486
  0
LINE
  8
AP0179
 62
7
  6
BYLAYER
 10
405.3303676444
 20
26.5587969647
 11
404.7201693382
 21
26.4217977015
  0
LINE
  8
AP0179
 62
7
  6
BYLAYER
 10
404.7201693382
 20
26.4217977015
 11
404.215708549
 21
26.0521626339
  0
LINE
  8
AP0179
 62
7
  6
BYLAYER
 10
407.4366823936
 20
22.3023057739
 11
408.077916116
 21
23.1519855947
  0
LINE
  8
AP0179
 62
7
  6
BYLAYER
 10
408.077916116
 20
23.1519855947
 11
408.2722619814
 21
24.0784770533
  0
LINE
  8
AP0179
 62
7
  6
BYLAYER
 10
408.2722619814
 20
24.0784770533
 11
408.175020882
 21
24.958798708
  0
LINE
  8
AP0179
 62
7
  6
BYLAYER
 10
408.175020882
 20
24.958798708
 11
407.8806385459
 21
25.6893376593
  0
LINE
  8
AP0179
 62
7
  6
BYLAYER
 10
407.1348610318
 20
26.4876749983
 11
406.1091007898
 21
26.8092529642
  0
LINE
  8
AP0179
 62
7
  6
BYLAYER
 10
406.1091007898
 20
26.8092529642
 11
405.1293477489
 21
26.858236036
  0
LINE
  8
AP0179
 62
7
  6
BYLAYER
 10
402.9449954151
 20
25.7520474169
 11
402.5460930415
 21
24.9386356314
  0
LINE
  8
AP0179
 62
7
  6
BYLAYER
 10
402.5460930415
 20
24.9386356314
 11
402.449069827
 21
24.1768012081
  0
LINE
  8
AP0179
 62
7
  6
BYLAYER
 10
402.449069827
 20
24.1768012081
 11
402.4826926818
 21
23.7170140475
  0
LINE
  8
AP0179
 62
7
  6
BYLAYER
 10
402.4826926818
 20
23.7170140475
 11
402.5979113446
 21
23.2183159003
  0
LINE
  8
AP0179
 62
7
  6
BYLAYER
 10
402.5979113446
 20
23.2183159003
 11
403.0501953175
 21
22.4834736338
  0
LINE
  8
AP0179
 62
7
  6
BYLAYER
 10
403.0501953175
 20
22.4834736338
 11
403.3536634008
 21
22.2180404509
  0
LINE
  8
AP0179
 62
7
  6
BYLAYER
 10
403.3536634008
 20
22.2180404509
 11
404.0237611112
 21
21.8262117352
  0
LINE
  8
AP0179
 62
7
  6
BYLAYER
 10
404.0237611112
 20
21.8262117352
 11
404.8509084926
 21
21.6348452378
  0
LINE
  8
AP0179
 62
7
  6
BYLAYER
 10
404.8509084926
 20
21.6348452378
 11
405.5572410059
 21
21.6220847513
  0
LINE
  8
AP0179
 62
7
  6
BYLAYER
 10
405.5572410059
 20
21.6220847513
 11
406.5429209518
 21
21.7886789994
  0
LINE
  8
AP0179
 62
7
  6
BYLAYER
 10
406.5429209518
 20
21.7886789994
 11
407.0127305552
 21
22.005593861
  0
LINE
  8
AP0179
 62
7
  6
BYLAYER
 10
407.0127305552
 20
22.005593861
 11
407.4366823936
 21
22.3023057739
  0
LINE
  8
AP0179
 62
7
  6
BYLAYER
 10
407.1000915804
 20
25.2124337117
 11
407.2162487591
 21
24.7266369991
  0
LINE
  8
AP0179
 62
7
  6
BYLAYER
 10
407.2162487591
 20
24.7266369991
 11
407.241211808
 21
24.2277705017
  0
LINE
  8
AP0179
 62
7
  6
BYLAYER
 10
407.241211808
 20
24.2277705017
 11
407.0387487787
 21
23.2431072916
  0
LINE
  8
AP0179
 62
7
  6
BYLAYER
 10
407.0387487787
 20
23.2431072916
 11
406.8571557231
 21
22.8531095387
  0
LINE
  8
AP0179
 62
7
  6
BYLAYER
 10
403.6258005704
 20
23.2399289081
 11
403.7997298167
 21
22.8482407117
  0
LINE
  8
AP0179
 62
7
  6
BYLAYER
 10
335.8190534835
 20
36.7450048113
 11
337.6089806413
 21
38.5851461734
  0
LINE
  8
AP0179
 62
7
  6
BYLAYER
 10
339.1032888898
 20
47.6087321185
 11
338.1025676268
 21
45.9360463973
  0
LINE
  8
AP0179
 62
7
  6
BYLAYER
 10
338.1025676268
 20
45.9360463973
 11
336.6577474702
 21
44.3762156809
  0
LINE
  8
AP0179
 62
7
  6
BYLAYER
 10
336.6577474702
 20
44.3762156809
 11
335.0485716461
 21
43.0865480711
  0
LINE
  8
AP0179
 62
7
  6
BYLAYER
 10
339.8170654134
 20
43.8962984501
 11
337.9891544359
 21
41.0129554933
  0
LINE
  8
AP0179
 62
7
  6
BYLAYER
 10
337.9891544359
 20
41.0129554933
 11
336.3230986887
 21
39.3149523684
  0
LINE
  8
AP0179
 62
7
  6
BYLAYER
 10
336.3230986887
 20
39.3149523684
 11
334.8337793928
 21
38.1591785398
  0
LINE
  8
AP0179
 62
7
  6
BYLAYER
 10
364.8609639821
 20
25.9917733473
 11
365.2201213183
 21
25.2562954041
  0
LINE
  8
AP0179
 62
7
  6
BYLAYER
 10
365.2201213183
 20
25.2562954041
 11
365.3398977751
 21
24.4178493963
  0
LINE
  8
AP0179
 62
7
  6
BYLAYER
 10
365.3398977751
 20
24.4178493963
 11
365.1638639302
 21
23.3861345494
  0
LINE
  8
AP0179
 62
7
  6
BYLAYER
 10
362.3449445441
 20
22.1415792804
 11
363.1150779225
 21
22.2114040057
  0
LINE
  8
AP0179
 62
7
  6
BYLAYER
 10
363.1150779225
 20
22.2114040057
 11
363.7192886269
 21
22.5413202136
  0
LINE
  8
AP0179
 62
7
  6
BYLAYER
 10
363.7192886269
 20
22.5413202136
 11
364.1461455317
 21
23.2945971044
  0
LINE
  8
AP0179
 62
7
  6
BYLAYER
 10
364.1461455317
 20
23.2945971044
 11
364.2846909811
 21
24.2488117977
  0
LINE
  8
AP0179
 62
7
  6
BYLAYER
 10
364.2846909811
 20
24.2488117977
 11
364.2636588567
 21
24.6239056974
  0
LINE
  8
AP0179
 62
7
  6
BYLAYER
 10
364.2636588567
 20
24.6239056974
 11
364.1105080073
 21
25.3158306936
  0
LINE
  8
AP0179
 62
7
  6
BYLAYER
 10
364.1105080073
 20
25.3158306936
 11
363.8537342492
 21
25.8938791353
  0
LINE
  8
AP0179
 62
7
  6
BYLAYER
 10
378.37894687
 20
26.7777875882
 11
377.8190746155
 21
26.7037312526
  0
LINE
  8
AP0179
 62
7
  6
BYLAYER
 10
377.8190746155
 20
26.7037312526
 11
377.1133991534
 21
26.4833939636
  0
LINE
  8
AP0179
 62
7
  6
BYLAYER
 10
377.1133991534
 20
26.4833939636
 11
376.2780353728
 21
25.851924473
  0
LINE
  8
AP0179
 62
7
  6
BYLAYER
 10
376.2780353728
 20
25.851924473
 11
375.8086060473
 21
24.8405134139
  0
LINE
  8
AP0179
 62
7
  6
BYLAYER
 10
375.8086060473
 20
24.8405134139
 11
375.7288113921
 21
24.1396473868
  0
LINE
  8
AP0179
 62
7
  6
BYLAYER
 10
375.7288113921
 20
24.1396473868
 11
376.0127476714
 21
22.9188306078
  0
LINE
  8
AP0179
 62
7
  6
BYLAYER
 10
376.0127476714
 20
22.9188306078
 11
376.6917116132
 21
22.1425618211
  0
LINE
  8
AP0179
 62
7
  6
BYLAYER
 10
376.6917116132
 20
22.1425618211
 11
377.6621671073
 21
21.7534092465
  0
LINE
  8
AP0179
 62
7
  6
BYLAYER
 10
377.6621671073
 20
21.7534092465
 11
378.4475999537
 21
21.6958702011
  0
LINE
  8
AP0179
 62
7
  6
BYLAYER
 10
379.1872097955
 20
22.0334145294
 11
378.6589624568
 21
21.9634900922
  0
LINE
  8
AP0179
 62
7
  6
BYLAYER
 10
378.6589624568
 20
21.9634900922
 11
378.0808079456
 21
22.0697514529
  0
LINE
  8
AP0179
 62
7
  6
BYLAYER
 10
378.0808079456
 20
22.0697514529
 11
377.4608436834
 21
22.4278389822
  0
LINE
  8
AP0179
 62
7
  6
BYLAYER
 10
376.7637022893
 20
24.7042008677
 11
376.7280478765
 21
24.2193958398
  0
LINE
  8
AP0179
 62
7
  6
BYLAYER
 10
376.7280478765
 20
24.2193958398
 11
376.8196370072
 21
23.5001774718
  0
LINE
  8
AP0179
 62
7
  6
BYLAYER
 10
376.8196370072
 20
23.5001774718
 11
377.0368119637
 21
22.9566147533
  0
LINE
  8
AP0179
 62
7
  6
BYLAYER
 10
378.5038573418
 20
26.4291189177
 11
377.7044938901
 21
26.1513281993
  0
LINE
  8
AP0179
 62
7
  6
BYLAYER
 10
377.7044938901
 20
26.1513281993
 11
377.1745773938
 21
25.6957201472
  0
LINE
  8
AP0179
 62
7
  6
BYLAYER
 10
377.1745773938
 20
25.6957201472
 11
376.8908277126
 21
25.1965417942
  0
LINE
  8
AP0179
 62
7
  6
BYLAYER
 10
381.4584826486
 20
26.232694817
 11
381.748033386
 21
26.2257023733
  0
LINE
  8
AP0179
 62
7
  6
BYLAYER
 10
381.748033386
 20
26.2257023733
 11
383.0511706233
 21
26.3862686341
  0
LINE
  8
AP0179
 62
7
  6
BYLAYER
 10
383.9703591331
 20
26.3892232879
 11
385.2731785321
 21
26.232694817
  0
LINE
  8
AP0179
 62
7
  6
BYLAYER
 10
385.2731785321
 20
26.232694817
 11
385.5627292694
 21
26.2257023733
  0
LINE
  8
AP0179
 62
7
  6
BYLAYER
 10
363.0179140318
 20
21.8098127032
 11
363.6666728316
 21
21.909684572
  0
LINE
  8
AP0179
 62
7
  6
BYLAYER
 10
363.6666728316
 20
21.909684572
 11
364.5149728995
 21
22.3983119033
  0
LINE
  8
AP0179
 62
7
  6
BYLAYER
 10
364.5149728995
 20
22.3983119033
 11
365.1638639302
 21
23.3861345494
  0
LINE
  8
AP0179
 62
7
  6
BYLAYER
 10
402.9755161669
 20
25.7946357309
 11
403.5769697285
 21
26.4066628128
  0
LINE
  8
AP0179
 62
7
  6
BYLAYER
 10
403.5769697285
 20
26.4066628128
 11
404.3504598712
 21
26.7505215361
  0
LINE
  8
AP0179
 62
7
  6
BYLAYER
 10
404.3504598712
 20
26.7505215361
 11
405.1293477489
 21
26.858236036
  0
LINE
  8
AP0179
 62
7
  6
BYLAYER
 10
406.9118739241
 20
25.6155215673
 11
406.5173755069
 21
26.0859196437
  0
LINE
  8
AP0179
 62
7
  6
BYLAYER
 10
406.5173755069
 20
26.0859196437
 11
406.098807797
 21
26.3723040486
  0
LINE
  8
AP0179
 62
7
  6
BYLAYER
 10
407.1348610318
 20
26.4876749983
 11
407.5982144957
 21
26.0645207201
  0
LINE
  8
AP0179
 62
7
  6
BYLAYER
 10
407.5982144957
 20
26.0645207201
 11
407.8806385459
 21
25.6893376593
  0
LINE
  8
AP0179
 62
7
  6
BYLAYER
 10
355.481941097
 20
46.0844962012
 11
355.481941097
 21
44.8604109761
  0
LINE
  8
AP0179
 62
7
  6
BYLAYER
 10
396.0263581393
 20
38.1824178288
 11
390.5186151254
 21
38.1824178288
  0
ARC
  8
AP0179
 62
7
  6
BYLAYER
 10
406.6999770297
 20
47.3656915494
 40
0.7986844426
 50
90.0
 51
180.0
  0
ARC
  8
AP0179
 62
7
  6
BYLAYER
 10
414.0350949502
 20
47.3656915494
 40
0.7986844426
 50
0.0
 51
90.0
  0
ARC
  8
AP0179
 62
7
  6
BYLAYER
 10
414.0350949502
 20
31.6619580398
 40
0.7986844426
 50
270.0
 51
360.0
  0
ARC
  8
AP0179
 62
7
  6
BYLAYER
 10
406.6999770297
 20
31.6619580398
 40
0.7986844426
 50
180.0
 51
270.0
  0
LINE
  8
AP0179
 62
7
  6
BYLAYER
 10
368.2624895469
 20
45.119790897
 11
370.2432269645
 21
44.8410500265
  0
ENDBLK
  8
0
  6
BYBLOCK
 62
0
  0
BLOCK
  8
0
  2
_FILLED
 70
64
 10
0.0
 20
0.0
  0
SOLID
  8
0
  6
BYBLOCK
 62
0
 10
0.0
 20
0.0
 11
-1.0
 21
0.2142857143
 12
-1.0
 22
-0.2142857143
 13
-1.0
 23
-0.2142857143
  0
ENDBLK
  8
0
  6
BYBLOCK
 62
0
  0
BLOCK
  8
AP0174
 62
3
  6
BYLAYER
  2
*D0
 70
65
 10
0.0
 20
0.0
  0
TEXT
  8
AP0174
 62
3
  6
BYLAYER
 10
107.3803069857
 20
259.1937188762
  7
STANDARD
 40
7.0
  1
16
 41
0.85
 72
2
 11
119.2803069857
 21
259.1937188762
  0
LINE
  8
AP0174
 62
3
  6
BYLAYER
 10
129.8212999356
 20
269.1037016753
 11
129.8212999356
 21
254.4437188763
  0
LINE
  8
AP0174
 62
3
  6
BYLAYER
 10
145.8212999356
 20
269.2037016753
 11
145.8212999356
 21
254.4437188763
  0
LINE
  8
AP0174
 62
3
  6
BYLAYER
 10
129.8212999356
 20
257.4437188763
 11
107.3803069857
 21
257.4437188762
  0
LINE
  8
AP0174
 62
3
  6
BYLAYER
 10
107.3803069857
 20
257.4437188762
 11
137.8212999356
 21
257.4437188763
  0
LINE
  8
AP0174
 62
3
  6
BYLAYER
 10
145.8212999356
 20
257.4437188763
 11
155.8212999356
 21
257.4437188763
  0
LINE
  8
AP0174
 62
3
  6
BYLAYER
 10
155.8212999356
 20
257.4437188763
 11
137.8212999356
 21
257.4437188763
  0
INSERT
  8
AP0174
 62
3
  6
BYLAYER
  2
_FILLED
 10
129.8212999356
 20
257.4437188763
 41
7.0
 42
7.0
 43
7.0
 50
0.0
  0
INSERT
  8
AP0174
 62
3
  6
BYLAYER
  2
_FILLED
 10
145.8212999356
 20
257.4437188763
 41
7.0
 42
7.0
 43
7.0
 50
180.0000000001
  0
ENDBLK
  8
0
  6
BYBLOCK
 62
0
  0
BLOCK
  8
AP0174
 62
3
  6
BYLAYER
  2
*D1
 70
65
 10
0.0
 20
0.0
  0
TEXT
  8
AP0174
 62
3
  6
BYLAYER
 10
163.1347780359
 20
296.7238771427
  7
STANDARD
 40
7.0
  1
16
 50
90.0
 41
0.85
 72
0
  0
LINE
  8
AP0174
 62
3
  6
BYLAYER
 10
147.6212999356
 20
271.0037016753
 11
167.8847780359
 21
271.0037016753
  0
LINE
  8
AP0174
 62
3
  6
BYLAYER
 10
147.7212999356
 20
287.0037016753
 11
167.8847780359
 21
287.0037016753
  0
LINE
  8
AP0174
 62
3
  6
BYLAYER
 10
164.8847780359
 20
271.0037016753
 11
164.8847780359
 21
261.0037016753
  0
LINE
  8
AP0174
 62
3
  6
BYLAYER
 10
164.8847780359
 20
261.0037016753
 11
164.8847780359
 21
279.0037016753
  0
LINE
  8
AP0174
 62
3
  6
BYLAYER
 10
164.8847780359
 20
287.0037016753
 11
164.8847780359
 21
308.6238771427
  0
LINE
  8
AP0174
 62
3
  6
BYLAYER
 10
164.8847780359
 20
308.6238771427
 11
164.8847780359
 21
279.0037016753
  0
INSERT
  8
AP0174
 62
3
  6
BYLAYER
  2
_FILLED
 10
164.8847780359
 20
271.0037016753
 41
7.0
 42
7.0
 43
7.0
 50
90.0
  0
INSERT
  8
AP0174
 62
3
  6
BYLAYER
  2
_FILLED
 10
164.8847780359
 20
287.0037016753
 41
7.0
 42
7.0
 43
7.0
 50
270.0
  0
ENDBLK
  8
0
  6
BYBLOCK
 62
0
  0
ENDSEC
  0
SECTION
  2
ENTITIES
  0
TEXT
  8
AP0179
 62
7
  6
BYLAYER
 10
572.999999691
 20
349.999989553
  7
TEXTSTYLE_2
 40
5.00002
  1
D
 41
0.9047619048
 72
0
  0
TEXT
  8
AP0179
 62
7
  6
BYLAYER
 10
573.0000004115
 20
254.9999893556
  7
TEXTSTYLE_2
 40
5.00002
  1
C
 50
180.0
 41
0.8333333333
 71
2
 72
2
 11
577.1666837448
 21
254.9999893556
  0
TEXT
  8
AP0179
 62
7
  6
BYLAYER
 10
572.9999993041
 20
159.9999895884
  7
TEXTSTYLE_2
 40
5.00002
  1
B
 41
0.7857142857
 72
0
  0
TEXT
  8
AP0179
 62
7
  6
BYLAYER
 10
18.476172381
 20
349.99999
  7
TEXTSTYLE_2
 40
5.00002
  1
D
 41
0.9047619048
 72
2
 11
23.0
 21
349.99999
  0
TEXT
  8
AP0179
 62
7
  6
BYLAYER
 10
18.8333159462
 20
254.9999898026
  7
TEXTSTYLE_2
 40
5.00002
  1
C
 41
0.8333333333
 72
2
 11
22.9999992795
 21
254.9999898026
  0
TEXT
  8
AP0179
 62
7
  6
BYLAYER
 10
18.7142690482
 20
64.9999901513
  7
TEXTSTYLE_2
 40
5.00002
  1
A
 41
0.8571428571
 72
2
 11
23.0000004768
 21
64.9999901513
  0
TEXT
  8
AP0179
 62
7
  6
BYLAYER
 10
19.0714132441
 20
159.9999900354
  7
TEXTSTYLE_2
 40
5.00002
  1
B
 41
0.7857142857
 72
2
 11
23.0000003869
 21
159.9999900354
  0
TEXT
  8
AP0179
 62
7
  6
BYLAYER
 10
526.365869029
 20
398.6585574213
  7
TEXTSTYLE_2
 40
5.00002
  1
1
 41
0.5714285714
 72
0
  0
TEXT
  8
AP0179
 62
7
  6
BYLAYER
 10
433.0388762387
 20
398.6585574213
  7
TEXTSTYLE_2
 40
5.00002
  1
2
 41
0.7857142857
 72
2
 11
436.9674633816
 21
398.6585574213
  0
TEXT
  8
AP0179
 62
7
  6
BYLAYER
 10
341.6992023623
 20
398.6585574213
  7
TEXTSTYLE_2
 40
5.00002
  1
3
 41
0.7142857143
 72
0
  0
TEXT
  8
AP0179
 62
7
  6
BYLAYER
 10
248.372209572
 20
398.6585574213
  7
TEXTSTYLE_2
 40
5.00002
  1
4
 41
0.7857142857
 72
2
 11
252.3007967149
 21
398.6585574213
  0
TEXT
  8
AP0179
 62
7
  6
BYLAYER
 10
157.0325356957
 20
398.6585574213
  7
TEXTSTYLE_2
 40
5.00002
  1
5
 41
0.7142857143
 72
0
  0
TEXT
  8
AP0179
 62
7
  6
BYLAYER
 10
63.7055429054
 20
398.6585574213
  7
TEXTSTYLE_2
 40
5.00002
  1
6
 41
0.7857142857
 72
2
 11
67.6341300482
 21
398.6585574213
  0
TEXT
  8
AP0179
 62
7
  6
BYLAYER
 10
157.0325366451
 20
16.6585561499
  7
TEXTSTYLE_2
 40
5.00002
  1
5
 41
0.7142857143
 72
0
  0
TEXT
  8
AP0179
 62
7
  6
BYLAYER
 10
63.7055438548
 20
16.6585561499
  7
TEXTSTYLE_2
 40
5.00002
  1
6
 41
0.7857142857
 72
2
 11
67.6341309977
 21
16.6585561499
  0
INSERT
  8
AP0179
 62
7
  6
BYLAYER
  2
SYMBOL_283_BL0
 10
374.7813345799
 20
34.864330558
  0
DIMENSION
  8
AP0174
 62
3
  6
BYLAYER
  2
*D0
 10
145.8212999356
 20
257.4437188763
 11
101.4303069857
 21
262.6937188762
 70
128
 13
129.8212999356
 23
269.1037016753
 14
145.8212999356
 24
269.2037016753
  0
DIMENSION
  8
AP0174
 62
3
  6
BYLAYER
  2
*D1
 10
164.8847780359
 20
287.0037016753
 11
159.6347780359
 21
302.6738771427
 70
128
 13
147.6212999356
 23
271.0037016753
 14
147.7212999356
 24
287.0037016753
 50
90.0
  0
LINE
  8
AP0179
 62
3
  6
BYLAYER
 10
205.599999691
 20
124.4999990927
 11
579.999999691
 21
124.4999990927
  0
LINE
  8
AP0179
 62
3
  6
BYLAYER
 10
205.599999691
 20
124.4999990927
 11
205.599999691
 21
13.9999990927
  0
LINE
  8
AP0179
 62
3
  6
BYLAYER
 10
419.199999691
 20
107.4999990927
 11
579.999999691
 21
107.4999990927
  0
LINE
  8
AP0179
 62
3
  6
BYLAYER
 10
205.599999691
 20
90.4999990927
 11
579.999999691
 21
90.4999990927
  0
LINE
  8
AP0179
 62
3
  6
BYLAYER
 10
205.599999691
 20
81.9999990927
 11
314.799999691
 21
81.9999990927
  0
LINE
  8
AP0179
 62
3
  6
BYLAYER
 10
330.799999691
 20
81.9999990927
 11
419.199999691
 21
81.9999990927
  0
LINE
  8
AP0179
 62
3
  6
BYLAYER
 10
205.599999691
 20
73.4999990927
 11
314.799999691
 21
73.4999990927
  0
LINE
  8
AP0179
 62
3
  6
BYLAYER
 10
330.799999691
 20
73.4999990927
 11
419.199999691
 21
73.4999990927
  0
LINE
  8
AP0179
 62
3
  6
BYLAYER
 10
205.599999691
 20
64.9999990927
 11
314.799999691
 21
64.9999990927
  0
LINE
  8
AP0179
 62
3
  6
BYLAYER
 10
330.799999691
 20
64.9999990927
 11
579.999999691
 21
64.9999990927
  0
LINE
  8
AP0179
 62
3
  6
BYLAYER
 10
205.599999691
 20
56.4999990927
 11
314.799999691
 21
56.4999990927
  0
LINE
  8
AP0179
 62
3
  6
BYLAYER
 10
330.799999691
 20
56.4999990927
 11
419.199999691
 21
56.4999990927
  0
LINE
  8
AP0179
 62
3
  6
BYLAYER
 10
205.599999691
 20
47.9999990927
 11
314.799999691
 21
47.9999990927
  0
LINE
  8
AP0179
 62
3
  6
BYLAYER
 10
419.199999691
 20
47.9999990927
 11
579.999999691
 21
47.9999990927
  0
LINE
  8
AP0179
 62
3
  6
BYLAYER
 10
205.599999691
 20
39.4999990927
 11
314.799999691
 21
39.4999990927
  0
LINE
  8
AP0179
 62
3
  6
BYLAYER
 10
205.599999691
 20
30.9999990927
 11
314.799999691
 21
30.9999990927
  0
LINE
  8
AP0179
 62
3
  6
BYLAYER
 10
419.199999691
 20
30.9999990927
 11
553.199999691
 21
30.9999990927
  0
LINE
  8
AP0179
 62
3
  6
BYLAYER
 10
205.599999691
 20
22.4999990927
 11
314.799999691
 21
22.4999990927
  0
LINE
  8
AP0179
 62
3
  6
BYLAYER
 10
205.599999691
 20
13.9999990927
 11
579.999999691
 21
13.9999990927
  0
LINE
  8
AP0179
 62
3
  6
BYLAYER
 10
221.199999691
 20
90.4999990927
 11
221.199999691
 21
13.9999990927
  0
LINE
  8
AP0179
 62
3
  6
BYLAYER
 10
273.199999691
 20
90.4999990927
 11
273.199999691
 21
13.9999990927
  0
LINE
  8
AP0179
 62
3
  6
BYLAYER
 10
299.199999691
 20
90.4999990927
 11
299.199999691
 21
13.9999990927
  0
LINE
  8
AP0179
 62
3
  6
BYLAYER
 10
314.799999691
 20
90.4999990927
 11
314.799999691
 21
13.9999990927
  0
LINE
  8
AP0179
 62
3
  6
BYLAYER
 10
330.799999691
 20
124.4999990927
 11
330.799999691
 21
13.9999990927
  0
LINE
  8
AP0179
 62
3
  6
BYLAYER
 10
358.799999691
 20
90.4999990927
 11
358.799999691
 21
56.4999990927
  0
LINE
  8
AP0179
 62
3
  6
BYLAYER
 10
389.199999691
 20
124.4999990927
 11
389.199999691
 21
56.4999990927
  0
LINE
  8
AP0179
 62
3
  6
BYLAYER
 10
419.199999691
 20
124.4999990927
 11
419.199999691
 21
13.9999990927
  0
LINE
  8
AP0179
 62
3
  6
BYLAYER
 10
459.199999691
 20
124.4999990927
 11
459.199999691
 21
107.4999990927
  0
LINE
  8
AP0179
 62
3
  6
BYLAYER
 10
529.199999691
 20
124.4999990927
 11
529.199999691
 21
90.4999990927
  0
LINE
  8
AP0179
 62
3
  6
BYLAYER
 10
553.199999691
 20
64.9999990927
 11
553.199999691
 21
13.9999990927
  0
LINE
  8
AP0179
 62
3
  6
BYLAYER
 10
579.999999691
 20
124.4999990927
 11
579.999999691
 21
13.9999990927
  0
TEXT
  8
AP0179
 62
3
  6
BYLAYER
 10
207.474999691
 20
120.6999990927
  7
TEXTSTYLE_3
 40
2.4
  1
THE TECHNICAL INFORMATION AND DESIGN DATA DISCLOSED ON THIS
 41
0.786117837
 72
0
  0
TEXT
  8
AP0179
 62
3
  6
BYLAYER
 10
207.474999691
 20
117.0999990927
  7
TEXTSTYLE_3
 40
2.4
  1
DOCUMENT HEREIN CONSTITUTES TRADE SECRETS AND IS THE PROPERTY
 41
0.7903981265
 72
0
  0
TEXT
  8
AP0179
 62
3
  6
BYLAYER
 10
207.474999691
 20
113.4999990927
  7
TEXTSTYLE_3
 40
2.4
  1
OF "DENGTEC" AND ARE TO BE MAINTAINED IN STRICT CONFIDENCE BY
 41
0.7825917252
 72
0
  0
TEXT
  8
AP0179
 62
3
  6
BYLAYER
 10
207.474999691
 20
109.8999990927
  7
TEXTSTYLE_3
 40
2.4
  1
THE RECIPIENT HEREOF AND IS LOANED UPON EXPRESS CONDITIONS THAT
 41
0.7792894936
 72
0
  0
TEXT
  8
AP0179
 62
3
  6
BYLAYER
 10
207.474999691
 20
106.2999990927
  7
TEXTSTYLE_3
 40
2.4
  1
IT WILL NOT BE USED DIRECTLY OR INDIRECTLY IN ANY MANNER 
 41
0.7848788638
 72
0
  0
TEXT
  8
AP0179
 62
3
  6
BYLAYER
 10
207.474999691
 20
102.6999990927
  7
TEXTSTYLE_3
 40
2.4
  1
DETRIMENTAL TO OUR INTRESTS AND SHALL BE USED ONLY IN CONNECTION 
 41
0.7805860806
 72
0
  0
TEXT
  8
AP0179
 62
3
  6
BYLAYER
 10
207.474999691
 20
99.0999990927
  7
TEXTSTYLE_3
 40
2.4
  1
WITH MATERIALS AND/OR TECHNICAL INFORMATION AND/OR DESIGN DATA
 41
0.7976190476
 72
0
  0
TEXT
  8
AP0179
 62
3
  6
BYLAYER
 10
207.474999691
 20
95.4999990927
  7
TEXTSTYLE_3
 40
2.4
  1
FURNISHED BY "DENGTEC" OR ITS AFFILIATES OR AGENTS. ALL SAID
 41
0.7674603175
 72
0
  0
TEXT
  8
AP0179
 62
3
  6
BYLAYER
 10
207.474999691
 20
91.8999990927
  7
TEXTSTYLE_3
 40
2.4
  1
MATERIALS ARE SUBJECT TO RETURN UPON DEMAND.
 41
0.7857142857
 72
0
  0
TEXT
  8
AP0179
 62
3
  6
BYLAYER
 10
332.674999691
 20
114.4999990927
  7
TEXTSTYLE_4
 40
4.0
  1
General Tolerance
 41
0.6932773109
 72
0
  0
TEXT
  8
AP0179
 62
3
  6
BYLAYER
 10
332.674999691
 20
108.4999990927
  7
TEXTSTYLE_4
 40
4.0
  1
DIN ISO 2768
 41
0.7718253968
 72
0
  0
TEXT
  8
AP0179
 62
3
  6
BYLAYER
 10
332.674999691
 20
102.4999990927
  7
TEXTSTYLE_4
 40
4.0
  1
Edges of workpieces
 41
0.7117794486
 72
0
  0
TEXT
  8
AP0179
 62
3
  6
BYLAYER
 10
332.674999691
 20
96.4999990927
  7
TEXTSTYLE_4
 40
4.0
  1
DIN 6784
 41
0.7827380952
 72
0
  0
TEXT
  8
AP0179
 62
3
  6
BYLAYER
 10
394.1285711196
 20
112.9999990927
  7
TEXTSTYLE_5
 40
6.0
  1
Scale
 41
0.6714285714
 72
1
 11
404.199999691
 21
112.9999990927
  0
TEXT
  8
AP0179
 62
3
  6
BYLAYER
 10
421.074999691
 20
117.2499990927
  7
TEXTSTYLE_5
 40
5.0
  1
Drawing
 41
0.7448979592
 72
0
  0
TEXT
  8
AP0179
 62
3
  6
BYLAYER
 10
421.074999691
 20
109.7499990927
  7
TEXTSTYLE_5
 40
5.0
  1
Type 
 41
0.7380952381
 72
0
  0
TEXT
  8
AP0179
 62
3
  6
BYLAYER
 10
461.074999691
 20
111.9999990927
  7
TEXTSTYLE_5
 40
8.0
  1
ASSEM
 41
0.8
 72
0
  0
TEXT
  8
AP0179
 62
3
  6
BYLAYER
 10
493.074999691
 20
111.9999990927
  7
TEXTSTYLE_5
 40
8.0
  1
 
 41
0.7857142857
 72
0
  0
TEXT
  8
AP0179
 62
3
  6
BYLAYER
 10
531.074999691
 20
117.9499990927
  7
TEXTSTYLE_5
 40
4.6
  1
Weight 
 41
0.768707483
 72
0
  0
TEXT
  8
AP0179
 62
3
  6
BYLAYER
 10
550.1964282624
 20
109.4499990927
  7
TEXTSTYLE_5
 40
4.6
  1
0,000
 41
0.7428571429
 72
2
 11
567.2821425482
 21
109.4499990927
  0
TEXT
  8
AP0179
 62
3
  6
BYLAYER
 10
567.2821425482
 20
109.4499990927
  7
TEXTSTYLE_5
 40
4.6
  1
 KG
 41
0.7857142857
 72
2
 11
578.124999691
 21
109.4499990927
  0
TEXT
  8
AP0179
 62
3
  6
BYLAYER
 10
393.2714282624
 20
95.9999990927
  7
TEXTSTYLE_5
 40
6.0
  1
0,500
 41
0.7285714286
 72
1
 11
404.199999691
 21
95.9999990927
  0
TEXT
  8
AP0179
 62
3
  6
BYLAYER
 10
421.074999691
 20
100.9499990927
  7
TEXTSTYLE_5
 40
4.6
  1
Material:
 41
0.6216931217
 72
0
  0
TEXT
  8
AP0179
 62
3
  6
BYLAYER
 10
421.074999691
 20
92.4499990927
  7
TEXTSTYLE_5
 40
4.6
  1
Color:
 41
0.626984127
 72
0
  0
TEXT
  8
AP0179
 62
3
  6
BYLAYER
 10
211.5928568339
 20
83.9499990927
  7
TEXTSTYLE_5
 40
4.6
  1
8
 41
0.7857142857
 72
1
 11
213.399999691
 21
83.9499990927
  0
TEXT
  8
AP0179
 62
3
  6
BYLAYER
 10
326.424999691
 20
27.4880943308
  7
TEXTSTYLE_2
 40
10.0
  1
CAD-A4
 50
90.0
 41
0.8253968254
 72
2
 11
326.424999691
 21
77.0119038546
  0
TEXT
  8
AP0179
 62
3
  6
BYLAYER
 10
366.3333330243
 20
83.9499990927
  7
TEXTSTYLE_5
 40
4.6
  1
DATE
 41
0.8333333333
 72
1
 11
373.999999691
 21
83.9499990927
  0
TEXT
  8
AP0179
 62
3
  6
BYLAYER
 10
396.8071425482
 20
83.9499990927
  7
TEXTSTYLE_5
 40
4.6
  1
NAME
 41
0.8035714286
 72
1
 11
404.199999691
 21
83.9499990927
  0
TEXT
  8
AP0179
 62
3
  6
BYLAYER
 10
421.074999691
 20
83.9499990927
  7
TEXTSTYLE_5
 40
4.6
  1
Part Name:
 41
0.7
 72
0
  0
TEXT
  8
AP0179
 62
3
  6
BYLAYER
 10
211.5928568339
 20
75.4499990927
  7
TEXTSTYLE_5
 40
4.6
  1
7
 41
0.7857142857
 72
1
 11
213.399999691
 21
75.4499990927
  0
TEXT
  8
AP0179
 62
3
  6
BYLAYER
 10
332.674999691
 20
75.6499990927
  7
TEXTSTYLE_6
 40
4.2
  1
DESIGNER
 41
0.7648809524
 72
0
  0
TEXT
  8
AP0179
 62
3
  6
BYLAYER
 10
358.9142854053
 20
75.5499990927
  7
TEXTSTYLE_5
 40
4.4
  1
27-Aug-20
 41
0.7619047619
 72
1
 11
373.999999691
 21
75.5499990927
  0
TEXT
  8
AP0179
 62
3
  6
BYLAYER
 10
388.9761901672
 20
75.4499990927
  7
TEXTSTYLE_5
 40
4.6
  1
David Cao
 41
0.7354497354
 72
1
 11
404.199999691
 21
75.4499990927
  0
TEXT
  8
AP0179
 62
3
  6
BYLAYER
 10
484.4571425482
 20
69.4999990927
  7
TEXTSTYLE_5
 40
8.0
  1
AP017
 41
0.7571428571
 72
1
 11
499.599999691
 21
69.4999990927
  0
TEXT
  8
AP0179
 62
3
  6
BYLAYER
 10
211.5928568339
 20
66.9499990927
  7
TEXTSTYLE_5
 40
4.6
  1
6
 41
0.7857142857
 72
1
 11
213.399999691
 21
66.9499990927
  0
TEXT
  8
AP0179
 62
3
  6
BYLAYER
 10
332.674999691
 20
67.1499990927
  7
TEXTSTYLE_6
 40
4.2
  1
CHECKER
 41
0.7789115646
 72
0
  0
TEXT
  8
AP0179
 62
3
  6
BYLAYER
 10
211.7571425482
 20
58.4499990927
  7
TEXTSTYLE_5
 40
4.6
  1
5
 41
0.7142857143
 72
1
 11
213.399999691
 21
58.4499990927
  0
TEXT
  8
AP0179
 62
3
  6
BYLAYER
 10
332.674999691
 20
58.6499990927
  7
TEXTSTYLE_6
 40
4.2
  1
APPROVER
 41
0.7916666667
 72
0
  0
TEXT
  8
AP0179
 62
3
  6
BYLAYER
 10
421.074999691
 20
58.4499990927
  7
TEXTSTYLE_5
 40
4.6
  1
Drawing Number:
 41
0.7238095238
 72
0
  0
TEXT
  8
AP0179
 62
3
  6
BYLAYER
 10
555.074999691
 20
58.4499990927
  7
TEXTSTYLE_5
 40
4.6
  1
Rev:
 41
0.6428571429
 72
0
  0
TEXT
  8
AP0179
 62
3
  6
BYLAYER
 10
211.5928568339
 20
49.9499990927
  7
TEXTSTYLE_5
 40
4.6
  1
4
 41
0.7857142857
 72
1
 11
213.399999691
 21
49.9499990927
  0
TEXT
  8
AP0179
 62
3
  6
BYLAYER
 10
464.3428568339
 20
49.2499990927
  7
TEXTSTYLE_5
 40
6.0
  1
ap0017.asm
 41
0.7285714286
 72
1
 11
486.199999691
 21
49.2499990927
  0
TEXT
  8
AP0179
 62
3
  6
BYLAYER
 10
569.1440473101
 20
49.9499990927
  7
TEXTSTYLE_8
 40
4.6
  1
A
 41
1.0
 72
2
 11
574.5107139767
 21
49.9499990927
  0
TEXT
  8
AP0179
 62
3
  6
BYLAYER
 10
574.5107139767
 20
49.9499990927
  7
TEXTSTYLE_5
 40
4.6
  1
0
 41
0.7857142857
 72
2
 11
578.124999691
 21
49.9499990927
  0
TEXT
  8
AP0179
 62
3
  6
BYLAYER
 10
211.7571425482
 20
41.4499990927
  7
TEXTSTYLE_5
 40
4.6
  1
3
 41
0.7142857143
 72
1
 11
213.399999691
 21
41.4499990927
  0
TEXT
  8
AP0179
 62
3
  6
BYLAYER
 10
421.074999691
 20
41.4499990927
  7
TEXTSTYLE_5
 40
4.6
  1
Part Number / CSG:
 41
0.7275132275
 72
0
  0
TEXT
  8
AP0179
 62
3
  6
BYLAYER
 10
555.074999691
 20
41.4499990927
  7
TEXTSTYLE_5
 40
4.6
  1
Sheet:
 41
0.6428571429
 72
0
  0
TEXT
  8
AP0179
 62
3
  6
BYLAYER
 10
211.5928568339
 20
32.9499990927
  7
TEXTSTYLE_5
 40
4.6
  1
2
 41
0.7857142857
 72
1
 11
213.399999691
 21
32.9499990927
  0
TEXT
  8
AP0179
 62
3
  6
BYLAYER
 10
565.1714282624
 20
32.7499990927
  7
TEXTSTYLE_5
 40
5.0
  1
1
 41
0.5714285714
 72
1
 11
566.599999691
 21
32.7499990927
  0
TEXT
  8
AP0179
 62
3
  6
BYLAYER
 10
212.0857139767
 20
24.4499990927
  7
TEXTSTYLE_5
 40
4.6
  1
1
 41
0.5714285714
 72
1
 11
213.399999691
 21
24.4499990927
  0
TEXT
  8
AP0179
 62
3
  6
BYLAYER
 10
421.074999691
 20
24.4499990927
  7
TEXTSTYLE_5
 40
4.6
  1
Project Number:
 41
0.680952381
 72
0
  0
TEXT
  8
AP0179
 62
3
  6
BYLAYER
 10
563.149999691
 20
24.4499990927
  7
TEXTSTYLE_5
 40
4.6
  1
OF
 41
0.75
 72
1
 11
566.599999691
 21
24.4499990927
  0
TEXT
  8
AP0179
 62
3
  6
BYLAYER
 10
208.6357139767
 20
15.9499990927
  7
TEXTSTYLE_5
 40
4.6
  1
No.
 41
0.6904761905
 72
1
 11
213.399999691
 21
15.9499990927
  0
TEXT
  8
AP0179
 62
3
  6
BYLAYER
 10
232.4690473101
 20
15.9499990927
  7
TEXTSTYLE_5
 40
4.6
  1
CONTENTS
 41
0.8005952381
 72
1
 11
247.199999691
 21
15.9499990927
  0
TEXT
  8
AP0179
 62
3
  6
BYLAYER
 10
278.5333330243
 20
15.9499990927
  7
TEXTSTYLE_5
 40
4.6
  1
DATE
 41
0.8333333333
 72
1
 11
286.199999691
 21
15.9499990927
  0
TEXT
  8
AP0179
 62
3
  6
BYLAYER
 10
299.6071425482
 20
15.9499990927
  7
TEXTSTYLE_5
 40
4.6
  1
NAME
 41
0.8035714286
 72
1
 11
306.999999691
 21
15.9499990927
  0
TEXT
  8
AP0179
 62
3
  6
BYLAYER
 10
565.1714282624
 20
15.7499990927
  7
TEXTSTYLE_5
 40
5.0
  1
1
 41
0.5714285714
 72
1
 11
566.599999691
 21
15.7499990927
  0
LINE
  8
AP0179
 62
7
  6
BYLAYER
 10
14.0000006067
 20
13.9999990927
 11
14.0000006067
 21
406.0000003641
  0
LINE
  8
AP0179
 62
7
  6
BYLAYER
 10
24.0000006067
 20
23.9999990927
 11
24.0000006067
 21
396.0000003641
  0
LINE
  8
AP0179
 62
7
  6
BYLAYER
 10
112.3333338214
 20
23.9999990927
 11
112.3333338214
 21
13.9999990927
  0
LINE
  8
AP0179
 62
7
  6
BYLAYER
 10
112.333332872
 20
396.0000003641
 11
112.333332872
 21
406.0000003641
  0
LINE
  8
AP0179
 62
7
  6
BYLAYER
 10
14.0000006067
 20
13.9999990927
 11
579.999999691
 21
13.9999990927
  0
LINE
  8
AP0179
 62
7
  6
BYLAYER
 10
24.0000006067
 20
23.9999990927
 11
205.599999691
 21
23.9999990927
  0
LINE
  8
AP0179
 62
3
  6
BYLAYER
 10
558.9933755672
 20
102.122412422
 11
568.9933755672
 21
104.622412422
  0
LINE
  8
AP0179
 62
3
  6
BYLAYER
 10
570.6039986105
 20
99.5528219353
 11
557.3015137013
 21
99.5528219353
  0
LINE
  8
AP0179
 62
3
  6
BYLAYER
 10
548.4331904285
 20
99.5528219353
 11
534.7275999161
 21
99.5528219353
  0
LINE
  8
AP0179
 62
7
  6
BYLAYER
 10
204.6666671547
 20
23.9999990927
 11
204.6666671547
 21
13.9999990927
  0
LINE
  8
AP0179
 62
7
  6
BYLAYER
 10
204.6666662053
 20
396.0000003641
 11
204.6666662053
 21
406.0000003641
  0
LINE
  8
AP0179
 62
7
  6
BYLAYER
 10
24.0000006067
 20
115.0000006292
 11
14.0000006067
 21
115.0000006292
  0
LINE
  8
AP0179
 62
3
  6
BYLAYER
 10
558.9933755672
 20
97.122412422
 11
568.9933755672
 21
94.622412422
  0
LINE
  8
AP0179
 62
7
  6
BYLAYER
 10
296.9999995386
 20
396.0000003641
 11
296.9999995386
 21
406.0000003641
  0
LINE
  8
AP0179
 62
7
  6
BYLAYER
 10
569.999999691
 20
209.999999553
 11
579.999999691
 21
209.999999553
  0
LINE
  8
AP0179
 62
7
  6
BYLAYER
 10
24.0000006067
 20
210.0000006292
 11
14.0000006067
 21
210.0000006292
  0
LINE
  8
AP0179
 62
7
  6
BYLAYER
 10
389.3333330107
 20
406.0000002786
 11
389.3333330107
 21
396.0000002786
  0
LINE
  8
AP0179
 62
7
  6
BYLAYER
 10
24.0000006067
 20
305.0000006292
 11
14.0000006067
 21
305.0000006292
  0
LINE
  8
AP0179
 62
7
  6
BYLAYER
 10
569.999999691
 20
304.999999553
 11
579.999999691
 21
304.999999553
  0
LINE
  8
AP0179
 62
7
  6
BYLAYER
 10
481.6666662053
 20
396.0000003641
 11
481.6666662053
 21
406.0000003641
  0
LINE
  8
AP0179
 62
7
  6
BYLAYER
 10
24.0000006067
 20
396.0000003641
 11
569.999999691
 21
396.0000003641
  0
LINE
  8
AP0179
 62
7
  6
BYLAYER
 10
14.0000006067
 20
406.0000003641
 11
579.999999691
 21
406.0000003641
  0
LINE
  8
AP0179
 62
3
  6
BYLAYER
 10
541.4302006336
 20
92.8252448971
 11
541.398624028
 21
105.9611128236
  0
LINE
  8
AP0179
 62
3
  6
BYLAYER
 10
558.9933755672
 20
102.122412422
 11
558.9933755672
 21
97.122412422
  0
LINE
  8
AP0179
 62
3
  6
BYLAYER
 10
568.9933755672
 20
104.622412422
 11
568.9933755672
 21
94.622412422
  0
LINE
  8
AP0179
 62
7
  6
BYLAYER
 10
569.999999691
 20
124.4999990927
 11
569.999999691
 21
396.0000003641
  0
LINE
  8
AP0179
 62
7
  6
BYLAYER
 10
579.999999691
 20
13.9999990927
 11
579.999999691
 21
406.0000003641
  0
LINE
  8
ENDCAP3
 62
8
  6
HIDDEN
 10
132.6363557305
 20
272.1501482847
 11
131.1650337371
 21
273.6214702781
  0
LINE
  8
ENDCAP3
 62
8
  6
HIDDEN
 10
131.1816919055
 20
273.6978106734
 11
132.66260655
 21
272.2168960289
  0
LINE
  8
BASE3
 62
8
  6
HIDDEN
 10
129.8212999356
 20
272.5037016753
 11
129.8212999356
 21
271.1037016753
  0
LINE
  8
ENDCAP2
 62
7
  6
BYLAYER
 10
129.8212999356
 20
272.5037016752
 11
129.8212999356
 21
271.1037016753
  0
LINE
  8
ENDCAP3
 62
8
  6
HIDDEN
 10
129.8212999356
 20
271.1037016753
 11
129.8212999356
 21
272.5037016753
  0
LINE
  8
ENDCAP2
 62
7
  6
BYLAYER
 10
130.3212999356
 20
272.5037016752
 11
130.3212999356
 21
271.5037016753
  0
LINE
  8
ENDCAP3
 62
8
  6
HIDDEN
 10
130.3212999356
 20
271.5037016753
 11
130.3212999356
 21
272.5037016753
  0
LINE
  8
ENDCAP3
 62
8
  6
HIDDEN
 10
145.6212999356
 20
271.0037016753
 11
129.9212999356
 21
271.0037016753
  0
LINE
  8
BASE3
 62
8
  6
HIDDEN
 10
129.9212999356
 20
271.0037016753
 11
145.6212999356
 21
271.0037016753
  0
LINE
  8
ENDCAP2
 62
7
  6
BYLAYER
 10
129.9212999356
 20
271.0037016753
 11
145.6212999356
 21
271.0037016753
  0
LINE
  8
ENDCAP3
 62
8
  6
HIDDEN
 10
145.3212999356
 20
271.5037016753
 11
130.3212999356
 21
271.5037016753
  0
LINE
  8
ENDCAP2
 62
7
  6
BYLAYER
 10
130.3212999356
 20
271.5037016753
 11
145.3212999356
 21
271.5037016753
  0
LINE
  8
ENDCAP3
 62
8
  6
HIDDEN
 10
132.0127006091
 20
273.8982014298
 11
132.9607537542
 21
272.9501482847
  0
LINE
  8
ENDCAP3
 62
8
  6
HIDDEN
 10
132.9939773999
 20
273.0168960289
 11
132.0322265904
 21
273.9786468385
  0
LINE
  8
DIFFUSE3
 62
8
  6
HIDDEN
 10
131.1200189555
 20
271.8149835268
 11
130.8942130939
 21
273.8037016753
  0
LINE
  8
BASE3
 62
8
  6
HIDDEN
 10
130.4212999356
 20
271.7037016753
 11
130.4212999356
 21
272.5037016753
  0
LINE
  8
DIFFUSE3
 62
8
  6
HIDDEN
 10
130.5212999356
 20
272.6037016753
 11
130.5212999356
 21
271.8037016753
  0
LINE
  8
BASE3
 62
8
  6
HIDDEN
 10
131.1212999356
 20
271.6037016753
 11
130.5212999356
 21
271.6037016753
  0
LINE
  8
DIFFUSE3
 62
8
  6
HIDDEN
 10
130.6212999356
 20
271.7037016753
 11
131.0206573944
 21
271.7037016753
  0
LINE
  8
BASE3
 62
8
  6
HIDDEN
 10
144.9212999356
 20
271.8037016753
 11
138.4112494292
 21
271.8037016753
  0
LINE
  8
BASE3
 62
8
  6
HIDDEN
 10
137.2384572231
 20
271.8037016753
 11
131.9212999356
 21
271.8037016753
  0
LINE
  8
ENDCAP3
 62
8
  6
HIDDEN
 10
144.6212999356
 20
271.9037016753
 11
139.1355134979
 21
271.9037016753
  0
LINE
  8
ENDCAP3
 62
8
  6
HIDDEN
 10
139.1355134979
 20
271.9037016753
 11
144.6212999356
 21
271.9037016753
  0
LINE
  8
ENDCAP3
 62
8
  6
HIDDEN
 10
134.0072003636
 20
272.0037016753
 11
132.9899091211
 21
272.0037016753
  0
LINE
  8
ENDCAP3
 62
8
  6
HIDDEN
 10
133.0161599406
 20
272.0704494195
 11
134.0132449616
 21
272.0704494195
  0
LINE
  8
BASE3
 62
8
  6
HIDDEN
 10
131.2212999356
 20
272.5037016753
 11
131.2212999356
 21
271.7037016753
  0
LINE
  8
BASE3
 62
8
  6
HIDDEN
 10
131.8212999356
 20
271.9037016753
 11
131.8212999356
 21
272.5037016753
  0
LINE
  8
ENDCAP3
 62
8
  6
HIDDEN
 10
130.3212999356
 20
272.5037016753
 11
129.8212999356
 21
272.5037016698
  0
LINE
  8
ENDCAP2
 62
7
  6
BYLAYER
 10
130.3212999356
 20
272.5037016752
 11
129.8212999356
 21
272.5037016752
  0
LINE
  8
ENDCAP3
 62
8
  6
HIDDEN
 10
144.0212999356
 20
272.6037016753
 11
140.5840416354
 21
272.6037016753
  0
LINE
  8
BASE3
 62
8
  6
HIDDEN
 10
131.7212999356
 20
272.6037016753
 11
131.3212999356
 21
272.6037016753
  0
LINE
  8
BASE3
 62
8
  6
HIDDEN
 10
130.3212999356
 20
272.6037016753
 11
129.9212999356
 21
272.6037016753
  0
LINE
  8
ENDCAP3
 62
8
  6
HIDDEN
 10
140.5840416354
 20
272.6037016753
 11
144.0212999356
 21
272.6037016753
  0
LINE
  8
DIFFUSE3
 62
8
  6
HIDDEN
 10
130.1543363156
 20
272.8037016753
 11
130.3212999356
 21
272.8037016753
  0
LINE
  8
ENDCAP3
 62
8
  6
HIDDEN
 10
133.3143071448
 20
272.8037016753
 11
134.0072003636
 21
272.8037016753
  0
LINE
  8
ENDCAP3
 62
8
  6
HIDDEN
 10
134.0132449616
 20
272.8704494195
 11
133.3475307905
 21
272.8704494195
  0
LINE
  8
ENDCAP2
 62
7
  6
BYLAYER
 10
136.8579485703
 20
281.2398452466
 11
135.5851563642
 21
279.9670530405
  0
LINE
  8
ENDCAP3
 62
8
  6
HIDDEN
 10
135.5851563642
 20
279.9670530405
 11
136.8579485703
 21
281.2398452466
  0
LINE
  8
ENDCAP3
 62
8
  6
HIDDEN
 10
145.3212999356
 20
271.5037016753
 11
145.8212999356
 21
271.2037016753
  0
LINE
  8
ENDCAP2
 62
7
  6
BYLAYER
 10
145.8212999356
 20
271.2037016753
 11
145.3212999356
 21
271.5037016753
  0
LINE
  8
ENDCAP2
 62
7
  6
BYLAYER
 10
137.2115019609
 20
280.886291856
 11
135.9387097548
 21
279.6134996499
  0
LINE
  8
ENDCAP3
 62
8
  6
HIDDEN
 10
135.9387097548
 20
279.6134996499
 11
137.2115019609
 21
280.886291856
  0
LINE
  8
ENDCAP3
 62
8
  6
HIDDEN
 10
130.3212999356
 20
271.5037016753
 11
129.9212999356
 21
271.0037016753
  0
LINE
  8
ENDCAP2
 62
7
  6
BYLAYER
 10
129.9212999356
 20
271.0037016753
 11
130.3212999356
 21
271.5037016753
  0
LINE
  8
ENDCAP3
 62
8
  6
HIDDEN
 10
145.8212999356
 20
286.9037016753
 11
145.3212999356
 21
286.5037016753
  0
LINE
  8
ENDCAP2
 62
7
  6
BYLAYER
 10
145.3212999356
 20
286.5037016753
 11
145.8212999356
 21
286.9037016753
  0
LINE
  8
ENDCAP3
 62
8
  6
HIDDEN
 10
138.7671368795
 20
276.7850725252
 11
139.1206902701
 21
276.4315191346
  0
LINE
  8
ENDCAP2
 62
7
  6
BYLAYER
 10
138.7671368795
 20
276.7850725252
 11
139.1206902701
 21
276.4315191346
  0
LINE
  8
ENDCAP3
 62
8
  6
HIDDEN
 10
135.9387097548
 20
279.6134996499
 11
135.5851563642
 21
279.9670530405
  0
LINE
  8
ENDCAP2
 62
7
  6
BYLAYER
 10
135.9387097548
 20
279.6134996499
 11
135.5851563642
 21
279.9670530405
  0
LINE
  8
ENDCAP2
 62
7
  6
BYLAYER
 10
145.7212999356
 20
287.0037016753
 11
145.3212999356
 21
286.5037016753
  0
LINE
  8
ENDCAP3
 62
8
  6
HIDDEN
 10
145.3212999356
 20
286.5037016753
 11
145.7212999356
 21
287.0037016753
  0
LINE
  8
ENDCAP2
 62
7
  6
BYLAYER
 10
130.3212999356
 20
271.5037016753
 11
129.8212999356
 21
271.1037016753
  0
LINE
  8
ENDCAP3
 62
8
  6
HIDDEN
 10
129.8212999356
 20
271.1037016753
 11
130.3212999356
 21
271.5037016753
  0
LINE
  8
ENDCAP3
 62
8
  6
HIDDEN
 10
140.0399290857
 20
278.0578647313
 11
140.3934824763
 21
277.7043113407
  0
LINE
  8
ENDCAP2
 62
7
  6
BYLAYER
 10
140.0399290857
 20
278.0578647313
 11
140.3934824763
 21
277.7043113407
  0
LINE
  8
ENDCAP3
 62
8
  6
HIDDEN
 10
137.2115019609
 20
280.886291856
 11
136.8579485703
 21
281.2398452466
  0
LINE
  8
ENDCAP2
 62
7
  6
BYLAYER
 10
137.2115019609
 20
280.886291856
 11
136.8579485703
 21
281.2398452466
  0
LINE
  8
ENDCAP3
 62
8
  6
HIDDEN
 10
140.0399290857
 20
278.0578647313
 11
138.7671368795
 21
276.7850725252
  0
LINE
  8
ENDCAP2
 62
7
  6
BYLAYER
 10
138.7671368795
 20
276.7850725252
 11
140.0399290857
 21
278.0578647313
  0
LINE
  8
ENDCAP3
 62
8
  6
HIDDEN
 10
140.3934824763
 20
277.7043113407
 11
139.1206902701
 21
276.4315191346
  0
LINE
  8
ENDCAP2
 62
7
  6
BYLAYER
 10
139.1206902701
 20
276.4315191346
 11
140.3934824763
 21
277.7043113407
  0
LINE
  8
ENDCAP2
 62
7
  6
BYLAYER
 10
145.3212999356
 20
271.5037016753
 11
145.6212999356
 21
271.0037016753
  0
LINE
  8
ENDCAP3
 62
8
  6
HIDDEN
 10
145.6212999356
 20
271.0037016753
 11
145.3212999356
 21
271.5037016753
  0
LINE
  8
BASE3
 62
8
  6
HIDDEN
 10
144.9627212918
 20
279.4451230315
 11
137.3798785793
 21
271.862280319
  0
LINE
  8
BASE3
 62
8
  6
HIDDEN
 10
138.3405387511
 20
271.9744123534
 11
144.8505892574
 21
278.4844628597
  0
LINE
  8
ENDCAP3
 62
8
  6
HIDDEN
 10
143.9545521913
 20
282.8117566492
 11
143.9545521913
 21
283.4774708203
  0
LINE
  8
ENDCAP3
 62
8
  6
HIDDEN
 10
144.4091679012
 20
277.9016201472
 11
138.9233814636
 21
272.4158337096
  0
LINE
  8
ENDCAP3
 62
8
  6
HIDDEN
 10
138.9233814636
 20
272.4158337096
 11
144.4091679012
 21
277.9016201472
  0
LINE
  8
BASE3
 62
8
  6
HIDDEN
 10
144.3212999356
 20
285.0037016753
 11
144.9212999356
 21
285.0037016753
  0
LINE
  8
ENDCAP3
 62
8
  6
HIDDEN
 10
144.0212999356
 20
283.5106944661
 11
144.0212999356
 21
282.8178012472
  0
LINE
  8
DIFFUSE3
 62
8
  6
HIDDEN
 10
144.0212999356
 20
286.5037016753
 11
144.0212999356
 21
286.6706652952
  0
LINE
  8
BASE3
 62
8
  6
HIDDEN
 10
144.2212999356
 20
286.9037016753
 11
144.2212999356
 21
286.5037016753
  0
LINE
  8
BASE3
 62
8
  6
HIDDEN
 10
144.2212999356
 20
285.5037016753
 11
144.2212999356
 21
285.1037016753
  0
LINE
  8
ENDCAP3
 62
8
  6
HIDDEN
 10
144.2212999356
 20
276.2409599755
 11
144.2212999356
 21
272.8037016753
  0
LINE
  8
ENDCAP3
 62
8
  6
HIDDEN
 10
144.2212999356
 20
272.8037016753
 11
144.2212999356
 21
276.2409599755
  0
LINE
  8
ENDCAP3
 62
8
  6
HIDDEN
 10
144.3212999356
 20
286.5037016753
 11
144.3212999356
 21
287.0037016753
  0
LINE
  8
ENDCAP2
 62
7
  6
BYLAYER
 10
144.3212999356
 20
286.5037016753
 11
144.321299941
 21
287.0037016753
  0
LINE
  8
ENDCAP3
 62
8
  6
HIDDEN
 10
143.8798785793
 20
276.3823813317
 11
140.4426202791
 21
272.9451230315
  0
LINE
  8
ENDCAP3
 62
8
  6
HIDDEN
 10
140.4426202791
 20
272.9451230315
 11
143.8798785793
 21
276.3823813317
  0
LINE
  8
BASE3
 62
8
  6
HIDDEN
 10
145.1212999356
 20
285.6037016753
 11
144.3212999356
 21
285.6037016753
  0
LINE
  8
ENDCAP3
 62
8
  6
HIDDEN
 10
144.7545521913
 20
283.8088416702
 11
144.7545521913
 21
282.8117566492
  0
LINE
  8
ENDCAP3
 62
8
  6
HIDDEN
 10
144.8212999356
 20
282.8178012472
 11
144.8212999356
 21
283.8350924897
  0
LINE
  8
ENDCAP3
 62
8
  6
HIDDEN
 10
144.9212999356
 20
277.6894881129
 11
144.9212999356
 21
272.2037016753
  0
LINE
  8
ENDCAP3
 62
8
  6
HIDDEN
 10
144.9212999356
 20
272.2037016753
 11
144.9212999356
 21
277.6894881129
  0
LINE
  8
BASE3
 62
8
  6
HIDDEN
 10
145.0212999356
 20
284.9037016753
 11
145.0212999356
 21
279.5865443877
  0
LINE
  8
BASE3
 62
8
  6
HIDDEN
 10
145.0212999356
 20
278.4137521816
 11
145.0212999356
 21
271.9037016753
  0
LINE
  8
DIFFUSE3
 62
8
  6
HIDDEN
 10
145.1212999356
 20
285.8043442164
 11
145.1212999356
 21
286.2037016753
  0
LINE
  8
BASE3
 62
8
  6
HIDDEN
 10
145.2212999356
 20
286.3037016753
 11
145.2212999356
 21
285.7037016753
  0
LINE
  8
ENDCAP3
 62
8
  6
HIDDEN
 10
145.3212999356
 20
286.5037016753
 11
145.3212999356
 21
271.5037016753
  0
LINE
  8
ENDCAP2
 62
7
  6
BYLAYER
 10
145.3212999356
 20
271.5037016753
 11
145.3212999356
 21
286.5037016753
  0
LINE
  8
DIFFUSE3
 62
8
  6
HIDDEN
 10
145.0212999356
 20
286.3037016753
 11
144.2212999356
 21
286.3037016753
  0
LINE
  8
BASE3
 62
8
  6
HIDDEN
 10
144.3212999356
 20
286.4037016753
 11
145.1212999356
 21
286.4037016753
  0
LINE
  8
ENDCAP2
 62
7
  6
BYLAYER
 10
145.3212999356
 20
286.5037016753
 11
144.3212999356
 21
286.5037016753
  0
LINE
  8
ENDCAP3
 62
8
  6
HIDDEN
 10
144.3212999356
 20
286.5037016753
 11
145.3212999356
 21
286.5037016753
  0
LINE
  8
DIFFUSE3
 62
8
  6
HIDDEN
 10
143.098953754
 20
285.9219714367
 11
145.010018084
 21
285.7049826553
  0
LINE
  8
ENDCAP3
 62
8
  6
HIDDEN
 10
145.8212999356
 20
286.9037016753
 11
145.8212999356
 21
271.2037016753
  0
LINE
  8
BASE3
 62
8
  6
HIDDEN
 10
145.8212999356
 20
271.2037016753
 11
145.8212999356
 21
286.9037016753
  0
LINE
  8
ENDCAP2
 62
7
  6
BYLAYER
 10
145.8212999356
 20
271.2037016753
 11
145.8212999356
 21
286.9037016753
  0
LINE
  8
BASE3
 62
8
  6
HIDDEN
 10
145.7212999356
 20
287.0037016753
 11
144.3212999356
 21
287.0037016753
  0
LINE
  8
ENDCAP2
 62
7
  6
BYLAYER
 10
145.7212999356
 20
287.0037016753
 11
144.3212999356
 21
287.0037016753
  0
LINE
  8
ENDCAP3
 62
8
  6
HIDDEN
 10
144.3212999356
 20
287.0037016753
 11
145.7212999356
 21
287.0037016753
  0
LINE
  8
ENDCAP3
 62
8
  6
HIDDEN
 10
143.8081055819
 20
283.8310242109
 11
142.8463547724
 21
284.7927750204
  0
LINE
  8
ENDCAP3
 62
8
  6
HIDDEN
 10
142.926800181
 20
284.8123010018
 11
143.8748533262
 21
283.8642478567
  0
LINE
  8
ENDCAP3
 62
8
  6
HIDDEN
 10
143.1271909374
 20
285.6433097053
 11
144.6081055819
 21
284.1623950608
  0
LINE
  8
ENDCAP3
 62
8
  6
HIDDEN
 10
144.6748533262
 20
284.1886458803
 11
143.2035313328
 21
285.6599678737
  0
LINE
  8
ENDCAP2
 62
7
  6
BYLAYER
 10
220.1462993964
 20
271.5037016753
 11
220.1462993964
 21
286.5037016753
  0
LINE
  8
ENDCAP2
 62
7
  6
BYLAYER
 10
220.6462993964
 20
271.0037016753
 11
220.6462993964
 21
287.0037016753
  0
POLYLINE
  8
ENDCAP3
 62
8
  6
HIDDEN
 66
1
 70
0
  0
VERTEX
  8
ENDCAP3
 62
8
  6
HIDDEN
 10
220.1462993964
 20
271.5037016753
  0
VERTEX
  8
ENDCAP3
 62
8
  6
HIDDEN
 10
220.1561652702
 20
271.4444015379
  0
VERTEX
  8
ENDCAP3
 62
8
  6
HIDDEN
 10
220.1812301749
 20
271.3935370063
  0
VERTEX
  8
ENDCAP3
 62
8
  6
HIDDEN
 10
220.2168667642
 20
271.3500427339
  0
VERTEX
  8
ENDCAP3
 62
8
  6
HIDDEN
 10
220.2612251669
 20
271.3123423412
  0
VERTEX
  8
ENDCAP3
 62
8
  6
HIDDEN
 10
220.314738588
 20
271.2791485668
  0
VERTEX
  8
ENDCAP3
 62
8
  6
HIDDEN
 10
220.3761226253
 20
271.2512699881
  0
VERTEX
  8
ENDCAP3
 62
8
  6
HIDDEN
 10
220.4422536818
 20
271.2298187099
  0
VERTEX
  8
ENDCAP3
 62
8
  6
HIDDEN
 10
220.510615062
 20
271.2149582758
  0
VERTEX
  8
ENDCAP3
 62
8
  6
HIDDEN
 10
220.5791491621
 20
271.2064190933
  0
VERTEX
  8
ENDCAP3
 62
8
  6
HIDDEN
 10
220.6462993964
 20
271.2037016753
  0
SEQEND
  0
LINE
  8
ENDCAP2
 62
7
  6
BYLAYER
 10
221.7462993964
 20
271.0037016753
 11
221.7462993964
 21
287.0037016753
  0
LINE
  8
BASE2
 62
7
  6
BYLAYER
 10
221.7962993964
 20
287.0037016753
 11
221.7962993964
 21
286.9037016753
  0
LINE
  8
DIFFUSE3
 62
8
  6
HIDDEN
 10
221.7962993964
 20
272.8037016753
 11
221.7962993964
 21
272.7884775818
  0
LINE
  8
BASE3
 62
8
  6
HIDDEN
 10
221.7962993964
 20
286.9037016753
 11
221.7962993964
 21
272.6037016753
  0
LINE
  8
DIFFUSE2
 62
7
  6
BYLAYER
 10
221.7962993964
 20
286.8704642006
 11
221.7962993964
 21
272.8037016753
  0
LINE
  8
DIFFUSE2
 62
7
  6
BYLAYER
 10
221.7962993964
 20
272.7884775818
 11
221.7962993964
 21
272.6037016753
  0
LINE
  8
DIFFUSE3
 62
8
  6
HIDDEN
 10
221.7962993964
 20
272.6037016753
 11
221.7962993964
 21
271.7037016753
  0
LINE
  8
BASE2
 62
7
  6
BYLAYER
 10
221.7962993964
 20
272.6037016753
 11
221.7962993964
 21
271.0037016753
  0
LINE
  8
ENDCAP3
 62
8
  6
HIDDEN
 10
225.3462993964
 20
285.8062956411
 11
225.3462993964
 21
272.0704494195
  0
LINE
  8
ENDCAP3
 62
8
  6
HIDDEN
 10
231.7462993964
 20
271.9037016753
 11
231.7462993964
 21
277.9892194799
  0
POLYLINE
  8
ENDCAP3
 62
8
  6
HIDDEN
 66
1
 70
0
  0
VERTEX
  8
ENDCAP3
 62
8
  6
HIDDEN
 10
472.9462993964
 20
279.6134996499
  0
VERTEX
  8
ENDCAP3
 62
8
  6
HIDDEN
 10
473.1376405135
 20
279.6404121238
  0
VERTEX
  8
ENDCAP3
 62
8
  6
HIDDEN
 10
473.2998527801
 20
279.7170530356
  0
VERTEX
  8
ENDCAP3
 62
8
  6
HIDDEN
 10
473.4082394044
 20
279.8317544282
  0
VERTEX
  8
ENDCAP3
 62
8
  6
HIDDEN
 10
473.4462993964
 20
279.9670530405
  0
SEQEND
  0
POLYLINE
  8
ENDCAP3
 62
8
  6
HIDDEN
 66
1
 70
0
  0
VERTEX
  8
ENDCAP3
 62
8
  6
HIDDEN
 10
220.6462993964
 20
279.6134996499
  0
VERTEX
  8
ENDCAP3
 62
8
  6
HIDDEN
 10
220.4549576831
 20
279.6404122984
  0
VERTEX
  8
ENDCAP3
 62
8
  6
HIDDEN
 10
220.2927460077
 20
279.7170530392
  0
VERTEX
  8
ENDCAP3
 62
8
  6
HIDDEN
 10
220.1843596312
 20
279.8317540137
  0
VERTEX
  8
ENDCAP3
 62
8
  6
HIDDEN
 10
220.1462993964
 20
279.9670530405
  0
SEQEND
  0
POLYLINE
  8
ENDCAP3
 62
8
  6
HIDDEN
 66
1
 70
0
  0
VERTEX
  8
ENDCAP3
 62
8
  6
HIDDEN
 10
472.9462993964
 20
280.886291856
  0
VERTEX
  8
ENDCAP3
 62
8
  6
HIDDEN
 10
473.1376411097
 20
280.9132045046
  0
VERTEX
  8
ENDCAP3
 62
8
  6
HIDDEN
 10
473.2998527851
 20
280.9898452453
  0
VERTEX
  8
ENDCAP3
 62
8
  6
HIDDEN
 10
473.4082391616
 20
281.1045462198
  0
VERTEX
  8
ENDCAP3
 62
8
  6
HIDDEN
 10
473.4462993964
 20
281.2398452466
  0
SEQEND
  0
POLYLINE
  8
ENDCAP3
 62
8
  6
HIDDEN
 66
1
 70
0
  0
VERTEX
  8
ENDCAP3
 62
8
  6
HIDDEN
 10
472.9462993964
 20
271.2037016753
  0
VERTEX
  8
ENDCAP3
 62
8
  6
HIDDEN
 10
473.0134497367
 20
271.2064177271
  0
VERTEX
  8
ENDCAP3
 62
8
  6
HIDDEN
 10
473.0819837455
 20
271.214958181
  0
VERTEX
  8
ENDCAP3
 62
8
  6
HIDDEN
 10
473.1503446114
 20
271.2298209452
  0
VERTEX
  8
ENDCAP3
 62
8
  6
HIDDEN
 10
473.2164753716
 20
271.2512728995
  0
VERTEX
  8
ENDCAP3
 62
8
  6
HIDDEN
 10
473.2778596558
 20
271.2791503935
  0
VERTEX
  8
ENDCAP3
 62
8
  6
HIDDEN
 10
473.3313734254
 20
271.3123430093
  0
VERTEX
  8
ENDCAP3
 62
8
  6
HIDDEN
 10
473.3757319069
 20
271.3500431915
  0
VERTEX
  8
ENDCAP3
 62
8
  6
HIDDEN
 10
473.4113686072
 20
271.3935370583
  0
VERTEX
  8
ENDCAP3
 62
8
  6
HIDDEN
 10
473.4364335205
 20
271.4444015556
  0
VERTEX
  8
ENDCAP3
 62
8
  6
HIDDEN
 10
473.4462993964
 20
271.5037016753
  0
SEQEND
  0
LINE
  8
ENDCAP2
 62
7
  6
BYLAYER
 10
221.7462993964
 20
271.0037016753
 11
220.6462993964
 21
271.0037016753
  0
LINE
  8
BASE2
 62
7
  6
BYLAYER
 10
221.7962993964
 20
271.0037016753
 11
471.7962993964
 21
271.0037016753
  0
LINE
  8
ENDCAP2
 62
7
  6
BYLAYER
 10
471.8462993964
 20
271.0037016753
 11
472.9462993964
 21
271.0037016753
  0
LINE
  8
ENDCAP2
 62
7
  6
BYLAYER
 10
221.7462993964
 20
271.1037016753
 11
220.6462993964
 21
271.1037016753
  0
LINE
  8
BASE2
 62
7
  6
BYLAYER
 10
221.7962993964
 20
271.1037016753
 11
471.7962993964
 21
271.1037016753
  0
LINE
  8
ENDCAP2
 62
7
  6
BYLAYER
 10
471.8462993964
 20
271.1037016753
 11
472.9462993964
 21
271.1037016753
  0
LINE
  8
ENDCAP3
 62
8
  6
HIDDEN
 10
221.7462993964
 20
271.2037016753
 11
220.6462993964
 21
271.2037016753
  0
LINE
  8
BASE3
 62
8
  6
HIDDEN
 10
221.7962993964
 20
271.2037016753
 11
471.7962993964
 21
271.2037016753
  0
LINE
  8
ENDCAP3
 62
8
  6
HIDDEN
 10
471.8462993964
 20
271.2037016753
 11
472.9462993964
 21
271.2037016753
  0
LINE
  8
BASE3
 62
8
  6
HIDDEN
 10
221.7962993964
 20
271.6037016753
 11
471.7962993964
 21
271.6037016753
  0
POLYLINE
  8
ENDCAP2
 62
7
  6
BYLAYER
 66
1
 70
0
  0
VERTEX
  8
ENDCAP2
 62
7
  6
BYLAYER
 10
220.6462993964
 20
271.1037016753
  0
VERTEX
  8
ENDCAP2
 62
7
  6
BYLAYER
 10
220.6002469045
 20
271.1054021251
  0
VERTEX
  8
ENDCAP2
 62
7
  6
BYLAYER
 10
220.5559022358
 20
271.1102936017
  0
VERTEX
  8
ENDCAP2
 62
7
  6
BYLAYER
 10
220.5125623276
 20
271.1182759733
  0
VERTEX
  8
ENDCAP2
 62
7
  6
BYLAYER
 10
220.4690920129
 20
271.1296665944
  0
VERTEX
  8
ENDCAP2
 62
7
  6
BYLAYER
 10
220.4246600768
 20
271.1451483082
  0
VERTEX
  8
ENDCAP2
 62
7
  6
BYLAYER
 10
220.3790002135
 20
271.1656594074
  0
VERTEX
  8
ENDCAP2
 62
7
  6
BYLAYER
 10
220.3326322738
 20
271.1922021355
  0
VERTEX
  8
ENDCAP2
 62
7
  6
BYLAYER
 10
220.2873141512
 20
271.2252729802
  0
VERTEX
  8
ENDCAP2
 62
7
  6
BYLAYER
 10
220.2451501521
 20
271.2649332259
  0
VERTEX
  8
ENDCAP2
 62
7
  6
BYLAYER
 10
220.2076315576
 20
271.3117516915
  0
VERTEX
  8
ENDCAP2
 62
7
  6
BYLAYER
 10
220.176492159
 20
271.3668080147
  0
VERTEX
  8
ENDCAP2
 62
7
  6
BYLAYER
 10
220.1546717338
 20
271.4308087044
  0
VERTEX
  8
ENDCAP2
 62
7
  6
BYLAYER
 10
220.1462993964
 20
271.5037016753
  0
SEQEND
  0
POLYLINE
  8
ENDCAP3
 62
8
  6
HIDDEN
 66
1
 70
0
  0
VERTEX
  8
ENDCAP3
 62
8
  6
HIDDEN
 10
220.6462993964
 20
280.886291856
  0
VERTEX
  8
ENDCAP3
 62
8
  6
HIDDEN
 10
220.4549582793
 20
280.9132043299
  0
VERTEX
  8
ENDCAP3
 62
8
  6
HIDDEN
 10
220.2927460127
 20
280.9898452418
  0
VERTEX
  8
ENDCAP3
 62
8
  6
HIDDEN
 10
220.1843593883
 20
281.1045466344
  0
VERTEX
  8
ENDCAP3
 62
8
  6
HIDDEN
 10
220.1462993964
 20
281.2398452466
  0
SEQEND
  0
LINE
  8
BASE3
 62
8
  6
HIDDEN
 10
221.7962993964
 20
271.7037016753
 11
471.7962993964
 21
271.7037016753
  0
LINE
  8
DIFFUSE3
 62
8
  6
HIDDEN
 10
221.7962993964
 20
271.7037016753
 11
471.7962993964
 21
271.7037016753
  0
LINE
  8
BASE3
 62
8
  6
HIDDEN
 10
221.7962993964
 20
271.8037016753
 11
471.7962993964
 21
271.8037016753
  0
LINE
  8
DIFFUSE3
 62
8
  6
HIDDEN
 10
221.7962993964
 20
271.8037016753
 11
471.7962993964
 21
271.8037016753
  0
LINE
  8
DIFFUSE3
 62
8
  6
HIDDEN
 10
221.7962993964
 20
271.8149835268
 11
471.7962993964
 21
271.8149835268
  0
LINE
  8
BASE3
 62
8
  6
HIDDEN
 10
221.7962993964
 20
271.862280319
 11
471.7962993964
 21
271.862280319
  0
LINE
  8
ENDCAP2
 62
7
  6
BYLAYER
 10
471.8462993964
 20
271.9037016753
 11
471.7962993964
 21
271.9037016753
  0
LINE
  8
ENDCAP3
 62
8
  6
HIDDEN
 10
471.7962993964
 20
271.9037016753
 11
461.8462993964
 21
271.9037016753
  0
LINE
  8
BASE3
 62
8
  6
HIDDEN
 10
221.7962993964
 20
271.9037016753
 11
471.7962993964
 21
271.9037016753
  0
LINE
  8
ENDCAP3
 62
8
  6
HIDDEN
 10
221.7962993964
 20
271.9037016753
 11
231.7462993964
 21
271.9037016753
  0
LINE
  8
ENDCAP2
 62
7
  6
BYLAYER
 10
221.7462993964
 20
271.9037016753
 11
221.7962993964
 21
271.9037016753
  0
LINE
  8
BASE3
 62
8
  6
HIDDEN
 10
221.7962993964
 20
271.9744123534
 11
471.7962993964
 21
271.9744123534
  0
LINE
  8
ENDCAP3
 62
8
  6
HIDDEN
 10
468.2462993964
 20
272.0037016753
 11
471.7962993964
 21
272.0037016753
  0
LINE
  8
ENDCAP2
 62
7
  6
BYLAYER
 10
471.7962993964
 20
272.0037016753
 11
471.8462993964
 21
272.0037016753
  0
LINE
  8
ENDCAP2
 62
7
  6
BYLAYER
 10
221.7962993964
 20
272.0704494195
 11
221.7462993964
 21
272.0704494195
  0
LINE
  8
ENDCAP3
 62
8
  6
HIDDEN
 10
221.7962993964
 20
272.0704494195
 11
225.3462993964
 21
272.0704494195
  0
LINE
  8
ENDCAP3
 62
8
  6
HIDDEN
 10
468.2462993964
 20
272.1501482847
 11
471.7962993964
 21
272.1501482847
  0
LINE
  8
ENDCAP2
 62
7
  6
BYLAYER
 10
471.7962993964
 20
272.1501482847
 11
471.8462993964
 21
272.1501482847
  0
LINE
  8
ENDCAP3
 62
8
  6
HIDDEN
 10
471.8462993964
 20
272.2037016753
 11
461.8462993964
 21
272.2037016753
  0
LINE
  8
ENDCAP3
 62
8
  6
HIDDEN
 10
221.7462993964
 20
272.2037016753
 11
231.7462993964
 21
272.2037016753
  0
LINE
  8
ENDCAP3
 62
8
  6
HIDDEN
 10
225.3462993964
 20
272.2168960289
 11
221.7962993964
 21
272.2168960289
  0
LINE
  8
ENDCAP2
 62
7
  6
BYLAYER
 10
221.7962993964
 20
272.2168960289
 11
221.7462993964
 21
272.2168960289
  0
LINE
  8
ENDCAP3
 62
8
  6
HIDDEN
 10
471.8462993964
 20
272.4158337096
 11
461.8462993964
 21
272.4158337096
  0
LINE
  8
ENDCAP3
 62
8
  6
HIDDEN
 10
221.7462993964
 20
272.4158337096
 11
231.7462993964
 21
272.4158337096
  0
LINE
  8
ENDCAP2
 62
7
  6
BYLAYER
 10
221.7462993964
 20
272.5037016753
 11
220.1462993964
 21
272.5037016753
  0
LINE
  8
BASE2
 62
7
  6
BYLAYER
 10
221.7962993964
 20
272.5037016753
 11
471.7962993964
 21
272.5037016753
  0
LINE
  8
ENDCAP2
 62
7
  6
BYLAYER
 10
471.8462993964
 20
272.5037016753
 11
473.4462993964
 21
272.5037016752
  0
LINE
  8
ENDCAP3
 62
8
  6
HIDDEN
 10
231.7462993964
 20
272.6037016753
 11
221.7462993964
 21
272.6037016753
  0
LINE
  8
DIFFUSE3
 62
8
  6
HIDDEN
 10
221.7962993964
 20
272.6037016753
 11
471.7962993964
 21
272.6037016753
  0
LINE
  8
BASE2
 62
7
  6
BYLAYER
 10
221.7962993964
 20
272.6037016753
 11
471.7962993964
 21
272.6037016753
  0
LINE
  8
ENDCAP3
 62
8
  6
HIDDEN
 10
461.8462993964
 20
272.6037016753
 11
471.8462993964
 21
272.6037016753
  0
LINE
  8
ENDCAP3
 62
8
  6
HIDDEN
 10
231.7462993964
 20
272.8037016753
 11
221.7462993964
 21
272.8037016753
  0
LINE
  8
DIFFUSE2
 62
7
  6
BYLAYER
 10
221.7962993964
 20
272.8037016753
 11
471.7962993964
 21
272.8037016753
  0
LINE
  8
ENDCAP3
 62
8
  6
HIDDEN
 10
461.8462993964
 20
272.8037016753
 11
471.8462993964
 21
272.8037016753
  0
LINE
  8
ENDCAP3
 62
8
  6
HIDDEN
 10
221.7462993964
 20
272.8704494195
 11
225.3462993964
 21
272.8704494195
  0
LINE
  8
ENDCAP3
 62
8
  6
HIDDEN
 10
231.7462993964
 20
272.9451230315
 11
221.7462993964
 21
272.9451230315
  0
LINE
  8
ENDCAP3
 62
8
  6
HIDDEN
 10
461.8462993964
 20
272.9451230315
 11
471.8462993964
 21
272.9451230315
  0
LINE
  8
ENDCAP3
 62
8
  6
HIDDEN
 10
471.8462993964
 20
272.9501482847
 11
468.2462993964
 21
272.9501482847
  0
LINE
  8
ENDCAP3
 62
8
  6
HIDDEN
 10
221.7462993964
 20
273.0168960289
 11
225.3462993964
 21
273.0168960289
  0
LINE
  8
DIFFUSE2
 62
7
  6
BYLAYER
 10
221.7962993964
 20
273.0301917415
 11
471.7962993964
 21
273.0301917415
  0
LINE
  8
ENDCAP3
 62
8
  6
HIDDEN
 10
468.2462993964
 20
273.6214702781
 11
471.7962993964
 21
273.6214702781
  0
LINE
  8
ENDCAP2
 62
7
  6
BYLAYER
 10
471.7962993964
 20
273.6214702781
 11
471.8462993964
 21
273.6214702781
  0
LINE
  8
ENDCAP3
 62
8
  6
HIDDEN
 10
225.3462993964
 20
273.6978106734
 11
221.7962993964
 21
273.6978106734
  0
LINE
  8
ENDCAP2
 62
7
  6
BYLAYER
 10
221.7962993964
 20
273.6978106734
 11
221.7462993964
 21
273.6978106734
  0
LINE
  8
DIFFUSE3
 62
8
  6
HIDDEN
 10
221.7962993964
 20
273.8037016753
 11
471.7962993964
 21
273.8037016753
  0
LINE
  8
ENDCAP3
 62
8
  6
HIDDEN
 10
471.8462993964
 20
273.8982014298
 11
468.2462993964
 21
273.8982014298
  0
LINE
  8
ENDCAP3
 62
8
  6
HIDDEN
 10
221.7462993964
 20
273.9786468385
 11
225.3462993964
 21
273.9786468385
  0
LINE
  8
ENDCAP3
 62
8
  6
HIDDEN
 10
468.2462993964
 20
274.0381713636
 11
471.7962993964
 21
274.0381713636
  0
LINE
  8
ENDCAP2
 62
7
  6
BYLAYER
 10
471.7962993964
 20
274.0381713636
 11
471.8462993964
 21
274.0381713636
  0
LINE
  8
ENDCAP3
 62
8
  6
HIDDEN
 10
225.3462993964
 20
274.1171340255
 11
221.7962993964
 21
274.1171340255
  0
LINE
  8
ENDCAP2
 62
7
  6
BYLAYER
 10
221.7962993964
 20
274.1171340255
 11
221.7462993964
 21
274.1171340255
  0
LINE
  8
ENDCAP3
 62
8
  6
HIDDEN
 10
471.8462993964
 20
274.3302834487
 11
468.2462993964
 21
274.3302834487
  0
LINE
  8
ENDCAP3
 62
8
  6
HIDDEN
 10
221.7462993964
 20
274.4136890873
 11
225.3462993964
 21
274.4136890873
  0
LINE
  8
ENDCAP3
 62
8
  6
HIDDEN
 10
472.9462993964
 20
276.1992860875
 11
471.8462993964
 21
276.1992860875
  0
LINE
  8
ENDCAP3
 62
8
  6
HIDDEN
 10
221.7462993964
 20
276.1992860875
 11
220.6462993964
 21
276.1992860875
  0
LINE
  8
ENDCAP3
 62
8
  6
HIDDEN
 10
231.7462993964
 20
276.2409599755
 11
221.7462993964
 21
276.2409599755
  0
LINE
  8
ENDCAP3
 62
8
  6
HIDDEN
 10
461.8462993964
 20
276.2409599755
 11
471.8462993964
 21
276.2409599755
  0
LINE
  8
ENDCAP3
 62
8
  6
HIDDEN
 10
231.7462993964
 20
276.3823813317
 11
221.7462993964
 21
276.3823813317
  0
LINE
  8
ENDCAP3
 62
8
  6
HIDDEN
 10
461.8462993964
 20
276.3823813317
 11
471.8462993964
 21
276.3823813317
  0
LINE
  8
ENDCAP3
 62
8
  6
HIDDEN
 10
231.7462993964
 20
276.4409599755
 11
221.7462993964
 21
276.4409599755
  0
LINE
  8
ENDCAP3
 62
8
  6
HIDDEN
 10
461.8462993964
 20
276.4409599755
 11
471.8462993964
 21
276.4409599755
  0
LINE
  8
ENDCAP3
 62
8
  6
HIDDEN
 10
472.9462993964
 20
276.7850725252
 11
471.8462993964
 21
276.7850725252
  0
LINE
  8
ENDCAP3
 62
8
  6
HIDDEN
 10
221.7462993964
 20
276.7850725252
 11
220.6462993964
 21
276.7850725252
  0
LINE
  8
ENDCAP3
 62
8
  6
HIDDEN
 10
471.8462993964
 20
277.6894881129
 11
461.8462993964
 21
277.6894881129
  0
LINE
  8
ENDCAP3
 62
8
  6
HIDDEN
 10
221.7462993964
 20
277.6894881129
 11
231.7462993964
 21
277.6894881129
  0
LINE
  8
ENDCAP3
 62
8
  6
HIDDEN
 10
471.8462993964
 20
277.9016201472
 11
461.8462993964
 21
277.9016201472
  0
LINE
  8
ENDCAP3
 62
8
  6
HIDDEN
 10
221.7462993964
 20
277.9016201472
 11
231.7462993964
 21
277.9016201472
  0
LINE
  8
ENDCAP3
 62
8
  6
HIDDEN
 10
471.8462993964
 20
277.9894881129
 11
461.8462993964
 21
277.9894881129
  0
LINE
  8
ENDCAP3
 62
8
  6
HIDDEN
 10
221.7462993964
 20
277.9894881129
 11
231.7462993964
 21
277.9894881129
  0
LINE
  8
ENDCAP3
 62
8
  6
HIDDEN
 10
220.6462993964
 20
278.0578647313
 11
221.7462993964
 21
278.0578647313
  0
LINE
  8
ENDCAP3
 62
8
  6
HIDDEN
 10
471.8462993964
 20
278.0578647313
 11
472.9462993964
 21
278.0578647313
  0
LINE
  8
BASE3
 62
8
  6
HIDDEN
 10
221.7962993964
 20
278.4137521816
 11
471.7962993964
 21
278.4137521816
  0
LINE
  8
BASE3
 62
8
  6
HIDDEN
 10
221.7962993964
 20
278.4844628597
 11
471.7962993964
 21
278.4844628597
  0
LINE
  8
BASE3
 62
8
  6
HIDDEN
 10
221.7962993964
 20
278.5137521816
 11
471.7962993964
 21
278.5137521816
  0
LINE
  8
BASE3
 62
8
  6
HIDDEN
 10
221.7962993964
 20
279.4451230315
 11
471.7962993964
 21
279.4451230315
  0
LINE
  8
BASE3
 62
8
  6
HIDDEN
 10
221.7962993964
 20
279.5865443877
 11
471.7962993964
 21
279.5865443877
  0
LINE
  8
ENDCAP3
 62
8
  6
HIDDEN
 10
472.9462993964
 20
279.6134996499
 11
471.8462993964
 21
279.6134996499
  0
LINE
  8
ENDCAP3
 62
8
  6
HIDDEN
 10
221.7462993964
 20
279.6134996499
 11
220.6462993964
 21
279.6134996499
  0
LINE
  8
ENDCAP3
 62
8
  6
HIDDEN
 10
220.6462993964
 20
280.886291856
 11
221.7462993964
 21
280.886291856
  0
LINE
  8
ENDCAP3
 62
8
  6
HIDDEN
 10
471.8462993964
 20
280.886291856
 11
472.9462993964
 21
280.886291856
  0
LINE
  8
ENDCAP3
 62
8
  6
HIDDEN
 10
220.6462993964
 20
281.4720782937
 11
221.7462993964
 21
281.4720782937
  0
LINE
  8
ENDCAP3
 62
8
  6
HIDDEN
 10
471.8462993964
 20
281.4720782937
 11
472.9462993964
 21
281.4720782937
  0
LINE
  8
ENDCAP3
 62
8
  6
HIDDEN
 10
471.8462993964
 20
282.4117566492
 11
468.2462993964
 21
282.4117566492
  0
LINE
  8
ENDCAP3
 62
8
  6
HIDDEN
 10
225.3462993964
 20
282.4178012472
 11
221.7462993964
 21
282.4178012472
  0
LINE
  8
ENDCAP3
 62
8
  6
HIDDEN
 10
471.8462993964
 20
282.8117566492
 11
468.2462993964
 21
282.8117566492
  0
LINE
  8
ENDCAP3
 62
8
  6
HIDDEN
 10
225.3462993964
 20
282.8178012472
 11
221.7462993964
 21
282.8178012472
  0
LINE
  8
ENDCAP3
 62
8
  6
HIDDEN
 10
471.8462993964
 20
283.4774708203
 11
468.2462993964
 21
283.4774708203
  0
LINE
  8
ENDCAP3
 62
8
  6
HIDDEN
 10
221.7462993964
 20
283.5106944661
 11
225.3462993964
 21
283.5106944661
  0
LINE
  8
ENDCAP3
 62
8
  6
HIDDEN
 10
468.2462993964
 20
283.8088416702
 11
471.8462993964
 21
283.8088416702
  0
LINE
  8
ENDCAP3
 62
8
  6
HIDDEN
 10
471.8462993964
 20
283.8310242109
 11
468.2462993964
 21
283.8310242109
  0
LINE
  8
ENDCAP3
 62
8
  6
HIDDEN
 10
225.3462993964
 20
283.8350924897
 11
221.7462993964
 21
283.8350924897
  0
LINE
  8
ENDCAP3
 62
8
  6
HIDDEN
 10
221.7462993964
 20
283.8642478567
 11
225.3462993964
 21
283.8642478567
  0
LINE
  8
ENDCAP3
 62
8
  6
HIDDEN
 10
468.2462993964
 20
284.1623950608
 11
471.8462993964
 21
284.1623950608
  0
LINE
  8
ENDCAP3
 62
8
  6
HIDDEN
 10
225.3462993964
 20
284.1886458803
 11
221.7462993964
 21
284.1886458803
  0
LINE
  8
ENDCAP3
 62
8
  6
HIDDEN
 10
471.8462993964
 20
284.7927750204
 11
468.2462993964
 21
284.7927750204
  0
LINE
  8
ENDCAP3
 62
8
  6
HIDDEN
 10
221.7462993964
 20
284.8123010018
 11
225.3462993964
 21
284.8123010018
  0
LINE
  8
BASE3
 62
8
  6
HIDDEN
 10
221.7962993964
 20
284.9037016753
 11
471.7962993964
 21
284.9037016753
  0
LINE
  8
ENDCAP3
 62
8
  6
HIDDEN
 10
471.8462993964
 20
284.9325365049
 11
468.2462993964
 21
284.9325365049
  0
LINE
  8
ENDCAP3
 62
8
  6
HIDDEN
 10
471.8462993964
 20
284.9392216299
 11
468.2462993964
 21
284.9392216299
  0
LINE
  8
ENDCAP3
 62
8
  6
HIDDEN
 10
221.7462993964
 20
284.9525423606
 11
225.3462993964
 21
284.9525423606
  0
LINE
  8
ENDCAP3
 62
8
  6
HIDDEN
 10
221.7462993964
 20
284.9587476112
 11
225.3462993964
 21
284.9587476112
  0
LINE
  8
BASE3
 62
8
  6
HIDDEN
 10
221.7962993964
 20
285.0037016753
 11
471.7962993964
 21
285.0037016753
  0
LINE
  8
BASE3
 62
8
  6
HIDDEN
 10
221.7962993964
 20
285.1037016753
 11
471.7962993964
 21
285.1037016753
  0
LINE
  8
BASE3
 62
8
  6
HIDDEN
 10
221.7962993964
 20
285.5037016753
 11
471.7962993964
 21
285.5037016753
  0
LINE
  8
BASE3
 62
8
  6
HIDDEN
 10
221.7962993964
 20
285.6037016753
 11
471.7962993964
 21
285.6037016753
  0
LINE
  8
ENDCAP3
 62
8
  6
HIDDEN
 10
468.2462993964
 20
285.6433097053
 11
471.8462993964
 21
285.6433097053
  0
LINE
  8
ENDCAP3
 62
8
  6
HIDDEN
 10
225.3462993964
 20
285.6599678737
 11
221.7462993964
 21
285.6599678737
  0
LINE
  8
BASE3
 62
8
  6
HIDDEN
 10
221.7962993964
 20
285.7037016753
 11
471.7962993964
 21
285.7037016753
  0
LINE
  8
DIFFUSE3
 62
8
  6
HIDDEN
 10
221.7962993964
 20
285.7043442164
 11
471.7962993964
 21
285.7043442164
  0
LINE
  8
ENDCAP3
 62
8
  6
HIDDEN
 10
468.2462993964
 20
285.7854117516
 11
471.7962993964
 21
285.7854117516
  0
LINE
  8
ENDCAP2
 62
7
  6
BYLAYER
 10
471.7962993964
 20
285.7854117516
 11
471.8462993964
 21
285.7854117516
  0
LINE
  8
ENDCAP3
 62
8
  6
HIDDEN
 10
468.2462993964
 20
285.7897563147
 11
471.7962993964
 21
285.7897563147
  0
LINE
  8
ENDCAP2
 62
7
  6
BYLAYER
 10
471.7962993964
 20
285.7897563147
 11
471.8462993964
 21
285.7897563147
  0
LINE
  8
ENDCAP3
 62
8
  6
HIDDEN
 10
225.3462993964
 20
285.8024108224
 11
221.7962993964
 21
285.8024108224
  0
LINE
  8
ENDCAP2
 62
7
  6
BYLAYER
 10
221.7962993964
 20
285.8024108224
 11
221.7462993964
 21
285.8024108224
  0
LINE
  8
DIFFUSE3
 62
8
  6
HIDDEN
 10
221.7962993964
 20
285.8043442164
 11
471.7962993964
 21
285.8043442164
  0
LINE
  8
ENDCAP3
 62
8
  6
HIDDEN
 10
225.3462993964
 20
285.8064144831
 11
221.7962993964
 21
285.8064144831
  0
LINE
  8
ENDCAP2
 62
7
  6
BYLAYER
 10
221.7962993964
 20
285.8064144831
 11
221.7462993964
 21
285.8064144831
  0
LINE
  8
DIFFUSE3
 62
8
  6
HIDDEN
 10
221.7962993964
 20
285.9152158439
 11
471.7962993964
 21
285.9152158439
  0
LINE
  8
DIFFUSE3
 62
8
  6
HIDDEN
 10
221.7962993964
 20
285.9219714367
 11
471.7962993964
 21
285.9219714367
  0
LINE
  8
DIFFUSE3
 62
8
  6
HIDDEN
 10
221.7962993964
 20
285.9251636312
 11
471.7962993964
 21
285.9251636312
  0
LINE
  8
DIFFUSE3
 62
8
  6
HIDDEN
 10
221.7962993964
 20
286.2037016753
 11
471.7962993964
 21
286.2037016753
  0
LINE
  8
DIFFUSE3
 62
8
  6
HIDDEN
 10
221.7962993964
 20
286.3037016753
 11
471.7962993964
 21
286.3037016753
  0
LINE
  8
BASE3
 62
8
  6
HIDDEN
 10
221.7962993964
 20
286.3037016753
 11
471.7962993964
 21
286.3037016753
  0
LINE
  8
BASE3
 62
8
  6
HIDDEN
 10
221.7962993964
 20
286.4037016753
 11
471.7962993964
 21
286.4037016753
  0
LINE
  8
DIFFUSE3
 62
8
  6
HIDDEN
 10
221.7962993964
 20
286.5037016753
 11
471.7962993964
 21
286.5037016753
  0
LINE
  8
BASE3
 62
8
  6
HIDDEN
 10
221.7962993964
 20
286.5037016753
 11
471.7962993964
 21
286.5037016753
  0
LINE
  8
DIFFUSE3
 62
8
  6
HIDDEN
 10
221.7962993964
 20
286.6706652952
 11
471.7962993964
 21
286.6706652952
  0
LINE
  8
DIFFUSE2
 62
7
  6
BYLAYER
 10
221.7962993964
 20
286.8689032239
 11
471.7962993964
 21
286.8689032239
  0
LINE
  8
DIFFUSE2
 62
7
  6
BYLAYER
 10
221.7962993964
 20
286.8706652952
 11
471.7962993964
 21
286.8706652952
  0
LINE
  8
ENDCAP3
 62
8
  6
HIDDEN
 10
221.7462993964
 20
286.9037016753
 11
220.6462993964
 21
286.9037016753
  0
LINE
  8
BASE2
 62
7
  6
BYLAYER
 10
221.7962993964
 20
286.9037016753
 11
471.7962993964
 21
286.9037016753
  0
LINE
  8
ENDCAP3
 62
8
  6
HIDDEN
 10
471.8462993964
 20
286.9037016753
 11
472.9462993964
 21
286.9037016753
  0
LINE
  8
ENDCAP2
 62
7
  6
BYLAYER
 10
221.7462993964
 20
287.0037016753
 11
220.6462993964
 21
287.0037016753
  0
LINE
  8
BASE2
 62
7
  6
BYLAYER
 10
221.7962993964
 20
287.0037016753
 11
471.7962993964
 21
287.0037016753
  0
LINE
  8
ENDCAP2
 62
7
  6
BYLAYER
 10
471.8462993964
 20
287.0037016753
 11
472.9462993964
 21
287.0037016753
  0
POLYLINE
  8
ENDCAP3
 62
8
  6
HIDDEN
 66
1
 70
0
  0
VERTEX
  8
ENDCAP3
 62
8
  6
HIDDEN
 10
220.6462993964
 20
276.7850725252
  0
VERTEX
  8
ENDCAP3
 62
8
  6
HIDDEN
 10
220.4549582426
 20
276.7581600405
  0
VERTEX
  8
ENDCAP3
 62
8
  6
HIDDEN
 10
220.2927460118
 20
276.6815191388
  0
VERTEX
  8
ENDCAP3
 62
8
  6
HIDDEN
 10
220.1843594027
 20
276.5668177714
  0
VERTEX
  8
ENDCAP3
 62
8
  6
HIDDEN
 10
220.1462993964
 20
276.4315191346
  0
SEQEND
  0
POLYLINE
  8
ENDCAP3
 62
8
  6
HIDDEN
 66
1
 70
0
  0
VERTEX
  8
ENDCAP3
 62
8
  6
HIDDEN
 10
220.6462993964
 20
278.0578647313
  0
VERTEX
  8
ENDCAP3
 62
8
  6
HIDDEN
 10
220.4549576827
 20
278.0309520826
  0
VERTEX
  8
ENDCAP3
 62
8
  6
HIDDEN
 10
220.2927460074
 20
277.9543113418
  0
VERTEX
  8
ENDCAP3
 62
8
  6
HIDDEN
 10
220.184359631
 20
277.8396103673
  0
VERTEX
  8
ENDCAP3
 62
8
  6
HIDDEN
 10
220.1462993964
 20
277.7043113407
  0
SEQEND
  0
POLYLINE
  8
ENDCAP3
 62
8
  6
HIDDEN
 66
1
 70
0
  0
VERTEX
  8
ENDCAP3
 62
8
  6
HIDDEN
 10
220.6462993964
 20
286.9037016753
  0
VERTEX
  8
ENDCAP3
 62
8
  6
HIDDEN
 10
220.6002469045
 20
286.9020012254
  0
VERTEX
  8
ENDCAP3
 62
8
  6
HIDDEN
 10
220.5559022358
 20
286.8971097488
  0
VERTEX
  8
ENDCAP3
 62
8
  6
HIDDEN
 10
220.5125623276
 20
286.8891273773
  0
VERTEX
  8
ENDCAP3
 62
8
  6
HIDDEN
 10
220.4690920129
 20
286.8777367561
  0
VERTEX
  8
ENDCAP3
 62
8
  6
HIDDEN
 10
220.4246600768
 20
286.8622550424
  0
VERTEX
  8
ENDCAP3
 62
8
  6
HIDDEN
 10
220.3790002135
 20
286.8417439431
  0
VERTEX
  8
ENDCAP3
 62
8
  6
HIDDEN
 10
220.3326322738
 20
286.815201215
  0
VERTEX
  8
ENDCAP3
 62
8
  6
HIDDEN
 10
220.2873141512
 20
286.7821303703
  0
VERTEX
  8
ENDCAP3
 62
8
  6
HIDDEN
 10
220.2451501521
 20
286.7424701246
  0
VERTEX
  8
ENDCAP3
 62
8
  6
HIDDEN
 10
220.2076315576
 20
286.695651659
  0
VERTEX
  8
ENDCAP3
 62
8
  6
HIDDEN
 10
220.176492159
 20
286.6405953358
  0
VERTEX
  8
ENDCAP3
 62
8
  6
HIDDEN
 10
220.1546717338
 20
286.5765946461
  0
VERTEX
  8
ENDCAP3
 62
8
  6
HIDDEN
 10
220.1462993964
 20
286.5037016753
  0
SEQEND
  0
POLYLINE
  8
ENDCAP3
 62
8
  6
HIDDEN
 66
1
 70
0
  0
VERTEX
  8
ENDCAP3
 62
8
  6
HIDDEN
 10
472.9462993964
 20
276.7850725252
  0
VERTEX
  8
ENDCAP3
 62
8
  6
HIDDEN
 10
473.1376411101
 20
276.7581598765
  0
VERTEX
  8
ENDCAP3
 62
8
  6
HIDDEN
 10
473.2998527854
 20
276.6815191357
  0
VERTEX
  8
ENDCAP3
 62
8
  6
HIDDEN
 10
473.4082391618
 20
276.5668181611
  0
VERTEX
  8
ENDCAP3
 62
8
  6
HIDDEN
 10
473.4462993964
 20
276.4315191346
  0
SEQEND
  0
POLYLINE
  8
ENDCAP3
 62
8
  6
HIDDEN
 66
1
 70
0
  0
VERTEX
  8
ENDCAP3
 62
8
  6
HIDDEN
 10
472.9462993964
 20
278.0578647313
  0
VERTEX
  8
ENDCAP3
 62
8
  6
HIDDEN
 10
473.1376405502
 20
278.0309522466
  0
VERTEX
  8
ENDCAP3
 62
8
  6
HIDDEN
 10
473.299852781
 20
277.9543113449
  0
VERTEX
  8
ENDCAP3
 62
8
  6
HIDDEN
 10
473.4082393901
 20
277.8396099775
  0
VERTEX
  8
ENDCAP3
 62
8
  6
HIDDEN
 10
473.4462993964
 20
277.7043113407
  0
SEQEND
  0
LINE
  8
ENDCAP3
 62
8
  6
HIDDEN
 10
461.8462993964
 20
271.9037016753
 11
461.8462993964
 21
277.9892194799
  0
LINE
  8
ENDCAP3
 62
8
  6
HIDDEN
 10
468.2462993964
 20
272.0037016753
 11
468.2462993964
 21
285.7896378087
  0
LINE
  8
BASE2
 62
7
  6
BYLAYER
 10
471.7962993964
 20
287.0037016753
 11
471.7962993964
 21
286.9037016753
  0
LINE
  8
DIFFUSE3
 62
8
  6
HIDDEN
 10
471.7962993964
 20
272.8037016753
 11
471.7962993964
 21
272.7884775818
  0
LINE
  8
BASE3
 62
8
  6
HIDDEN
 10
471.7962993964
 20
286.9037016753
 11
471.7962993964
 21
272.6037016753
  0
LINE
  8
DIFFUSE2
 62
7
  6
BYLAYER
 10
471.7962993964
 20
286.8704642006
 11
471.7962993964
 21
272.8037016753
  0
LINE
  8
DIFFUSE2
 62
7
  6
BYLAYER
 10
471.7962993964
 20
272.7884775818
 11
471.7962993964
 21
272.6037016753
  0
LINE
  8
DIFFUSE3
 62
8
  6
HIDDEN
 10
471.7962993964
 20
272.6037016753
 11
471.7962993964
 21
271.7037016753
  0
LINE
  8
BASE2
 62
7
  6
BYLAYER
 10
471.7962993964
 20
272.6037016753
 11
471.7962993964
 21
271.0037016753
  0
LINE
  8
ENDCAP2
 62
7
  6
BYLAYER
 10
471.8462993964
 20
287.0037016753
 11
471.8462993964
 21
271.0037016753
  0
LINE
  8
ENDCAP2
 62
7
  6
BYLAYER
 10
472.9462993964
 20
287.0037016753
 11
472.9462993964
 21
271.0037016753
  0
LINE
  8
ENDCAP2
 62
7
  6
BYLAYER
 10
473.4462993964
 20
286.5037016753
 11
473.4462993964
 21
271.5037016753
  0
POLYLINE
  8
ENDCAP2
 62
7
  6
BYLAYER
 66
1
 70
0
  0
VERTEX
  8
ENDCAP2
 62
7
  6
BYLAYER
 10
473.4462993964
 20
271.5037016753
  0
VERTEX
  8
ENDCAP2
 62
7
  6
BYLAYER
 10
473.4379270634
 20
271.4308086727
  0
VERTEX
  8
ENDCAP2
 62
7
  6
BYLAYER
 10
473.4161066719
 20
271.3668078668
  0
VERTEX
  8
ENDCAP2
 62
7
  6
BYLAYER
 10
473.3849673803
 20
271.3117512608
  0
VERTEX
  8
ENDCAP2
 62
7
  6
BYLAYER
 10
473.3474488556
 20
271.2649326647
  0
VERTEX
  8
ENDCAP2
 62
7
  6
BYLAYER
 10
473.3052848984
 20
271.2252723387
  0
VERTEX
  8
ENDCAP2
 62
7
  6
BYLAYER
 10
473.2599666968
 20
271.1922016827
  0
VERTEX
  8
ENDCAP2
 62
7
  6
BYLAYER
 10
473.2135986255
 20
271.1656592793
  0
VERTEX
  8
ENDCAP2
 62
7
  6
BYLAYER
 10
473.1679387057
 20
271.145148341
  0
VERTEX
  8
ENDCAP2
 62
7
  6
BYLAYER
 10
473.1235067732
 20
271.1296666168
  0
VERTEX
  8
ENDCAP2
 62
7
  6
BYLAYER
 10
473.080036474
 20
271.1182759238
  0
VERTEX
  8
ENDCAP2
 62
7
  6
BYLAYER
 10
473.0366965699
 20
271.1102935104
  0
VERTEX
  8
ENDCAP2
 62
7
  6
BYLAYER
 10
472.9923518916
 20
271.1054020624
  0
VERTEX
  8
ENDCAP2
 62
7
  6
BYLAYER
 10
472.9462993964
 20
271.1037016753
  0
SEQEND
  0
POLYLINE
  8
ENDCAP3
 62
8
  6
HIDDEN
 66
1
 70
0
  0
VERTEX
  8
ENDCAP3
 62
8
  6
HIDDEN
 10
473.4462993964
 20
286.5037016753
  0
VERTEX
  8
ENDCAP3
 62
8
  6
HIDDEN
 10
473.4379270634
 20
286.5765946778
  0
VERTEX
  8
ENDCAP3
 62
8
  6
HIDDEN
 10
473.4161066719
 20
286.6405954837
  0
VERTEX
  8
ENDCAP3
 62
8
  6
HIDDEN
 10
473.3849673803
 20
286.6956520897
  0
VERTEX
  8
ENDCAP3
 62
8
  6
HIDDEN
 10
473.3474488556
 20
286.7424706858
  0
VERTEX
  8
ENDCAP3
 62
8
  6
HIDDEN
 10
473.3052848984
 20
286.7821310119
  0
VERTEX
  8
ENDCAP3
 62
8
  6
HIDDEN
 10
473.2599666968
 20
286.8152016678
  0
VERTEX
  8
ENDCAP3
 62
8
  6
HIDDEN
 10
473.2135986255
 20
286.8417440712
  0
VERTEX
  8
ENDCAP3
 62
8
  6
HIDDEN
 10
473.1679387057
 20
286.8622550095
  0
VERTEX
  8
ENDCAP3
 62
8
  6
HIDDEN
 10
473.1235067732
 20
286.8777367338
  0
VERTEX
  8
ENDCAP3
 62
8
  6
HIDDEN
 10
473.080036474
 20
286.8891274267
  0
VERTEX
  8
ENDCAP3
 62
8
  6
HIDDEN
 10
473.0366965699
 20
286.8971098401
  0
VERTEX
  8
ENDCAP3
 62
8
  6
HIDDEN
 10
472.9923518916
 20
286.9020012881
  0
VERTEX
  8
ENDCAP3
 62
8
  6
HIDDEN
 10
472.9462993964
 20
286.9037016753
  0
SEQEND
  0
LINE
  8
ENDCAP2
 62
7
  6
BYLAYER
 10
220.1462993964
 20
200.9808180174
 11
220.1462993964
 21
215.9808180174
  0
LINE
  8
ENDCAP2
 62
7
  6
BYLAYER
 10
220.6462993964
 20
200.4808180174
 11
220.6462993964
 21
216.4808180174
  0
POLYLINE
  8
ENDCAP2
 62
7
  6
BYLAYER
 66
1
 70
0
  0
VERTEX
  8
ENDCAP2
 62
7
  6
BYLAYER
 10
220.1462993964
 20
215.9808180174
  0
VERTEX
  8
ENDCAP2
 62
7
  6
BYLAYER
 10
220.1546717294
 20
216.0537110199
  0
VERTEX
  8
ENDCAP2
 62
7
  6
BYLAYER
 10
220.1764921209
 20
216.1177118258
  0
VERTEX
  8
ENDCAP2
 62
7
  6
BYLAYER
 10
220.2076314125
 20
216.1727684319
  0
VERTEX
  8
ENDCAP2
 62
7
  6
BYLAYER
 10
220.2451499372
 20
216.2195870279
  0
VERTEX
  8
ENDCAP2
 62
7
  6
BYLAYER
 10
220.2873138944
 20
216.259247354
  0
VERTEX
  8
ENDCAP2
 62
7
  6
BYLAYER
 10
220.332632096
 20
216.2923180099
  0
VERTEX
  8
ENDCAP2
 62
7
  6
BYLAYER
 10
220.3790001673
 20
216.3188604134
  0
VERTEX
  8
ENDCAP2
 62
7
  6
BYLAYER
 10
220.4246600871
 20
216.3393713516
  0
VERTEX
  8
ENDCAP2
 62
7
  6
BYLAYER
 10
220.4690920195
 20
216.3548530759
  0
VERTEX
  8
ENDCAP2
 62
7
  6
BYLAYER
 10
220.5125623188
 20
216.3662437689
  0
VERTEX
  8
ENDCAP2
 62
7
  6
BYLAYER
 10
220.5559022229
 20
216.3742261823
  0
VERTEX
  8
ENDCAP2
 62
7
  6
BYLAYER
 10
220.6002469012
 20
216.3791176302
  0
VERTEX
  8
ENDCAP2
 62
7
  6
BYLAYER
 10
220.6462993964
 20
216.3808180174
  0
SEQEND
  0
POLYLINE
  8
ENDCAP3
 62
8
  6
HIDDEN
 66
1
 70
0
  0
VERTEX
  8
ENDCAP3
 62
8
  6
HIDDEN
 10
220.1462993964
 20
200.9808180174
  0
VERTEX
  8
ENDCAP3
 62
8
  6
HIDDEN
 10
220.1546717294
 20
200.9079250148
  0
VERTEX
  8
ENDCAP3
 62
8
  6
HIDDEN
 10
220.1764921209
 20
200.843924209
  0
VERTEX
  8
ENDCAP3
 62
8
  6
HIDDEN
 10
220.2076314125
 20
200.7888676029
  0
VERTEX
  8
ENDCAP3
 62
8
  6
HIDDEN
 10
220.2451499372
 20
200.7420490069
  0
VERTEX
  8
ENDCAP3
 62
8
  6
HIDDEN
 10
220.2873138944
 20
200.7023886808
  0
VERTEX
  8
ENDCAP3
 62
8
  6
HIDDEN
 10
220.332632096
 20
200.6693180249
  0
VERTEX
  8
ENDCAP3
 62
8
  6
HIDDEN
 10
220.3790001673
 20
200.6427756214
  0
VERTEX
  8
ENDCAP3
 62
8
  6
HIDDEN
 10
220.4246600871
 20
200.6222646832
  0
VERTEX
  8
ENDCAP3
 62
8
  6
HIDDEN
 10
220.4690920195
 20
200.6067829589
  0
VERTEX
  8
ENDCAP3
 62
8
  6
HIDDEN
 10
220.5125623188
 20
200.5953922659
  0
VERTEX
  8
ENDCAP3
 62
8
  6
HIDDEN
 10
220.5559022229
 20
200.5874098525
  0
VERTEX
  8
ENDCAP3
 62
8
  6
HIDDEN
 10
220.6002469012
 20
200.5825184046
  0
VERTEX
  8
ENDCAP3
 62
8
  6
HIDDEN
 10
220.6462993964
 20
200.5808180174
  0
SEQEND
  0
LINE
  8
ENDCAP2
 62
7
  6
BYLAYER
 10
221.7462993964
 20
200.4808180174
 11
221.7462993964
 21
216.4808180174
  0
LINE
  8
DIFFUSE3
 62
8
  6
HIDDEN
 10
221.7962993964
 20
215.7808180174
 11
221.7962993964
 21
214.8808180174
  0
LINE
  8
BASE2
 62
7
  6
BYLAYER
 10
221.7962993964
 20
216.4808180174
 11
221.7962993964
 21
214.8808180174
  0
LINE
  8
DIFFUSE3
 62
8
  6
HIDDEN
 10
221.7962993964
 20
214.6960421109
 11
221.7962993964
 21
214.6808180174
  0
LINE
  8
DIFFUSE2
 62
7
  6
BYLAYER
 10
221.7962993964
 20
214.8808180174
 11
221.7962993964
 21
214.6960421109
  0
LINE
  8
BASE3
 62
8
  6
HIDDEN
 10
221.7962993964
 20
214.8808180174
 11
221.7962993964
 21
200.5808180174
  0
LINE
  8
DIFFUSE2
 62
7
  6
BYLAYER
 10
221.7962993964
 20
214.6808180174
 11
221.7962993964
 21
200.6140554921
  0
LINE
  8
BASE2
 62
7
  6
BYLAYER
 10
221.7962993964
 20
200.5808180174
 11
221.7962993964
 21
200.4808180174
  0
LINE
  8
ENDCAP3
 62
8
  6
HIDDEN
 10
225.3462993964
 20
215.4808180174
 11
225.3462993964
 21
201.694881884
  0
LINE
  8
ENDCAP3
 62
8
  6
HIDDEN
 10
231.7462993964
 20
209.4953002128
 11
231.7462993964
 21
215.5808180174
  0
POLYLINE
  8
ENDCAP3
 62
8
  6
HIDDEN
 66
1
 70
0
  0
VERTEX
  8
ENDCAP3
 62
8
  6
HIDDEN
 10
472.9462993964
 20
209.4266549614
  0
VERTEX
  8
ENDCAP3
 62
8
  6
HIDDEN
 10
473.1376411101
 20
209.45356761
  0
VERTEX
  8
ENDCAP3
 62
8
  6
HIDDEN
 10
473.2998527854
 20
209.5302083508
  0
VERTEX
  8
ENDCAP3
 62
8
  6
HIDDEN
 10
473.4082391618
 20
209.6449093254
  0
VERTEX
  8
ENDCAP3
 62
8
  6
HIDDEN
 10
473.4462993964
 20
209.780208352
  0
SEQEND
  0
POLYLINE
  8
ENDCAP3
 62
8
  6
HIDDEN
 66
1
 70
0
  0
VERTEX
  8
ENDCAP3
 62
8
  6
HIDDEN
 10
220.6462993964
 20
209.4266549614
  0
VERTEX
  8
ENDCAP3
 62
8
  6
HIDDEN
 10
220.4549582426
 20
209.453567446
  0
VERTEX
  8
ENDCAP3
 62
8
  6
HIDDEN
 10
220.2927460118
 20
209.5302083477
  0
VERTEX
  8
ENDCAP3
 62
8
  6
HIDDEN
 10
220.1843594027
 20
209.6449097152
  0
VERTEX
  8
ENDCAP3
 62
8
  6
HIDDEN
 10
220.1462993964
 20
209.780208352
  0
SEQEND
  0
POLYLINE
  8
ENDCAP3
 62
8
  6
HIDDEN
 66
1
 70
0
  0
VERTEX
  8
ENDCAP3
 62
8
  6
HIDDEN
 10
472.9462993964
 20
210.6994471675
  0
VERTEX
  8
ENDCAP3
 62
8
  6
HIDDEN
 10
473.1376405502
 20
210.7263596522
  0
VERTEX
  8
ENDCAP3
 62
8
  6
HIDDEN
 10
473.299852781
 20
210.8030005539
  0
VERTEX
  8
ENDCAP3
 62
8
  6
HIDDEN
 10
473.4082393901
 20
210.9177019213
  0
VERTEX
  8
ENDCAP3
 62
8
  6
HIDDEN
 10
473.4462993964
 20
211.0530005581
  0
SEQEND
  0
POLYLINE
  8
ENDCAP3
 62
8
  6
HIDDEN
 66
1
 70
0
  0
VERTEX
  8
ENDCAP3
 62
8
  6
HIDDEN
 10
472.9462993964
 20
200.5808180174
  0
VERTEX
  8
ENDCAP3
 62
8
  6
HIDDEN
 10
472.9923518882
 20
200.5825184672
  0
VERTEX
  8
ENDCAP3
 62
8
  6
HIDDEN
 10
473.036696557
 20
200.5874099438
  0
VERTEX
  8
ENDCAP3
 62
8
  6
HIDDEN
 10
473.0800364652
 20
200.5953923154
  0
VERTEX
  8
ENDCAP3
 62
8
  6
HIDDEN
 10
473.1235067799
 20
200.6067829366
  0
VERTEX
  8
ENDCAP3
 62
8
  6
HIDDEN
 10
473.167938716
 20
200.6222646503
  0
VERTEX
  8
ENDCAP3
 62
8
  6
HIDDEN
 10
473.2135985792
 20
200.6427757495
  0
VERTEX
  8
ENDCAP3
 62
8
  6
HIDDEN
 10
473.259966519
 20
200.6693184777
  0
VERTEX
  8
ENDCAP3
 62
8
  6
HIDDEN
 10
473.3052846416
 20
200.7023893224
  0
VERTEX
  8
ENDCAP3
 62
8
  6
HIDDEN
 10
473.3474486406
 20
200.742049568
  0
VERTEX
  8
ENDCAP3
 62
8
  6
HIDDEN
 10
473.3849672352
 20
200.7888680336
  0
VERTEX
  8
ENDCAP3
 62
8
  6
HIDDEN
 10
473.4161066338
 20
200.8439243569
  0
VERTEX
  8
ENDCAP3
 62
8
  6
HIDDEN
 10
473.437927059
 20
200.9079250465
  0
VERTEX
  8
ENDCAP3
 62
8
  6
HIDDEN
 10
473.4462993964
 20
200.9808180174
  0
SEQEND
  0
LINE
  8
ENDCAP2
 62
7
  6
BYLAYER
 10
221.7462993964
 20
200.4808180174
 11
220.6462993964
 21
200.4808180174
  0
LINE
  8
BASE2
 62
7
  6
BYLAYER
 10
221.7962993964
 20
200.4808180174
 11
471.7962993964
 21
200.4808180174
  0
LINE
  8
ENDCAP2
 62
7
  6
BYLAYER
 10
471.8462993964
 20
200.4808180174
 11
472.9462993964
 21
200.4808180174
  0
LINE
  8
ENDCAP3
 62
8
  6
HIDDEN
 10
221.7462993964
 20
200.5808180174
 11
220.6462993964
 21
200.5808180174
  0
LINE
  8
BASE2
 62
7
  6
BYLAYER
 10
221.7962993964
 20
200.5808180174
 11
471.7962993964
 21
200.5808180174
  0
LINE
  8
ENDCAP3
 62
8
  6
HIDDEN
 10
471.8462993964
 20
200.5808180174
 11
472.9462993964
 21
200.5808180174
  0
LINE
  8
DIFFUSE2
 62
7
  6
BYLAYER
 10
221.7962993964
 20
200.6138543975
 11
471.7962993964
 21
200.6138543975
  0
LINE
  8
DIFFUSE2
 62
7
  6
BYLAYER
 10
221.7962993964
 20
200.6156164687
 11
471.7962993964
 21
200.6156164687
  0
LINE
  8
DIFFUSE3
 62
8
  6
HIDDEN
 10
221.7962993964
 20
200.8138543974
 11
471.7962993964
 21
200.8138543974
  0
LINE
  8
DIFFUSE3
 62
8
  6
HIDDEN
 10
221.7962993964
 20
200.9808180174
 11
471.7962993964
 21
200.9808180174
  0
LINE
  8
BASE3
 62
8
  6
HIDDEN
 10
221.7962993964
 20
200.9808180174
 11
471.7962993964
 21
200.9808180174
  0
LINE
  8
BASE3
 62
8
  6
HIDDEN
 10
221.7962993964
 20
201.0808180174
 11
471.7962993964
 21
201.0808180174
  0
POLYLINE
  8
ENDCAP3
 62
8
  6
HIDDEN
 66
1
 70
0
  0
VERTEX
  8
ENDCAP3
 62
8
  6
HIDDEN
 10
220.6462993964
 20
210.6994471675
  0
VERTEX
  8
ENDCAP3
 62
8
  6
HIDDEN
 10
220.4549576827
 20
210.7263598162
  0
VERTEX
  8
ENDCAP3
 62
8
  6
HIDDEN
 10
220.2927460074
 20
210.803000557
  0
VERTEX
  8
ENDCAP3
 62
8
  6
HIDDEN
 10
220.184359631
 20
210.9177015315
  0
VERTEX
  8
ENDCAP3
 62
8
  6
HIDDEN
 10
220.1462993964
 20
211.0530005581
  0
SEQEND
  0
LINE
  8
DIFFUSE3
 62
8
  6
HIDDEN
 10
221.7962993964
 20
201.1808180174
 11
471.7962993964
 21
201.1808180174
  0
LINE
  8
BASE3
 62
8
  6
HIDDEN
 10
221.7962993964
 20
201.1808180174
 11
471.7962993964
 21
201.1808180174
  0
LINE
  8
DIFFUSE3
 62
8
  6
HIDDEN
 10
221.7962993964
 20
201.2808180174
 11
471.7962993964
 21
201.2808180174
  0
LINE
  8
DIFFUSE3
 62
8
  6
HIDDEN
 10
221.7962993964
 20
201.5537311757
 11
471.7962993964
 21
201.5537311757
  0
LINE
  8
ENDCAP3
 62
8
  6
HIDDEN
 10
468.2462993964
 20
201.6781052096
 11
471.7962993964
 21
201.6781052096
  0
LINE
  8
ENDCAP2
 62
7
  6
BYLAYER
 10
471.7962993964
 20
201.6781052096
 11
471.8462993964
 21
201.6781052096
  0
LINE
  8
DIFFUSE3
 62
8
  6
HIDDEN
 10
221.7962993964
 20
201.6801754763
 11
471.7962993964
 21
201.6801754763
  0
LINE
  8
ENDCAP3
 62
8
  6
HIDDEN
 10
468.2462993964
 20
201.6821088702
 11
471.7962993964
 21
201.6821088702
  0
LINE
  8
ENDCAP2
 62
7
  6
BYLAYER
 10
471.7962993964
 20
201.6821088702
 11
471.8462993964
 21
201.6821088702
  0
LINE
  8
ENDCAP3
 62
8
  6
HIDDEN
 10
225.3462993964
 20
201.694763378
 11
221.7962993964
 21
201.694763378
  0
LINE
  8
ENDCAP2
 62
7
  6
BYLAYER
 10
221.7962993964
 20
201.694763378
 11
221.7462993964
 21
201.694763378
  0
LINE
  8
ENDCAP3
 62
8
  6
HIDDEN
 10
225.3462993964
 20
201.699107941
 11
221.7962993964
 21
201.699107941
  0
LINE
  8
ENDCAP2
 62
7
  6
BYLAYER
 10
221.7962993964
 20
201.699107941
 11
221.7462993964
 21
201.699107941
  0
LINE
  8
DIFFUSE3
 62
8
  6
HIDDEN
 10
221.7962993964
 20
201.7795370374
 11
471.7962993964
 21
201.7795370374
  0
LINE
  8
BASE3
 62
8
  6
HIDDEN
 10
221.7962993964
 20
201.7808180174
 11
471.7962993964
 21
201.7808180174
  0
LINE
  8
ENDCAP3
 62
8
  6
HIDDEN
 10
468.2462993964
 20
201.824551819
 11
471.8462993964
 21
201.824551819
  0
LINE
  8
ENDCAP3
 62
8
  6
HIDDEN
 10
225.3462993964
 20
201.8412099874
 11
221.7462993964
 21
201.8412099874
  0
LINE
  8
BASE3
 62
8
  6
HIDDEN
 10
221.7962993964
 20
201.8808180174
 11
471.7962993964
 21
201.8808180174
  0
LINE
  8
BASE3
 62
8
  6
HIDDEN
 10
221.7962993964
 20
201.9808180174
 11
471.7962993964
 21
201.9808180174
  0
LINE
  8
BASE3
 62
8
  6
HIDDEN
 10
221.7962993964
 20
202.3808180174
 11
471.7962993964
 21
202.3808180174
  0
LINE
  8
BASE3
 62
8
  6
HIDDEN
 10
221.7962993964
 20
202.4808180174
 11
471.7962993964
 21
202.4808180174
  0
LINE
  8
ENDCAP3
 62
8
  6
HIDDEN
 10
471.8462993964
 20
202.5257720815
 11
468.2462993964
 21
202.5257720815
  0
LINE
  8
ENDCAP3
 62
8
  6
HIDDEN
 10
471.8462993964
 20
202.5319773321
 11
468.2462993964
 21
202.5319773321
  0
LINE
  8
ENDCAP3
 62
8
  6
HIDDEN
 10
221.7462993964
 20
202.5452980628
 11
225.3462993964
 21
202.5452980628
  0
LINE
  8
ENDCAP3
 62
8
  6
HIDDEN
 10
221.7462993964
 20
202.5519831877
 11
225.3462993964
 21
202.5519831877
  0
LINE
  8
BASE3
 62
8
  6
HIDDEN
 10
221.7962993964
 20
202.5808180174
 11
471.7962993964
 21
202.5808180174
  0
LINE
  8
ENDCAP3
 62
8
  6
HIDDEN
 10
471.8462993964
 20
202.6722186909
 11
468.2462993964
 21
202.6722186909
  0
LINE
  8
ENDCAP3
 62
8
  6
HIDDEN
 10
221.7462993964
 20
202.6917446722
 11
225.3462993964
 21
202.6917446722
  0
LINE
  8
ENDCAP3
 62
8
  6
HIDDEN
 10
468.2462993964
 20
203.2958738124
 11
471.8462993964
 21
203.2958738124
  0
LINE
  8
ENDCAP3
 62
8
  6
HIDDEN
 10
225.3462993964
 20
203.3221246319
 11
221.7462993964
 21
203.3221246319
  0
LINE
  8
ENDCAP3
 62
8
  6
HIDDEN
 10
471.8462993964
 20
203.620271836
 11
468.2462993964
 21
203.620271836
  0
LINE
  8
ENDCAP3
 62
8
  6
HIDDEN
 10
468.2462993964
 20
203.649427203
 11
471.8462993964
 21
203.649427203
  0
LINE
  8
ENDCAP3
 62
8
  6
HIDDEN
 10
221.7462993964
 20
203.6534954818
 11
225.3462993964
 21
203.6534954818
  0
LINE
  8
ENDCAP3
 62
8
  6
HIDDEN
 10
225.3462993964
 20
203.6756780225
 11
221.7462993964
 21
203.6756780225
  0
LINE
  8
ENDCAP3
 62
8
  6
HIDDEN
 10
471.8462993964
 20
203.9738252266
 11
468.2462993964
 21
203.9738252266
  0
LINE
  8
ENDCAP3
 62
8
  6
HIDDEN
 10
221.7462993964
 20
204.0070488723
 11
225.3462993964
 21
204.0070488723
  0
LINE
  8
ENDCAP3
 62
8
  6
HIDDEN
 10
468.2462993964
 20
204.6667184454
 11
471.8462993964
 21
204.6667184454
  0
LINE
  8
ENDCAP3
 62
8
  6
HIDDEN
 10
221.7462993964
 20
204.6727630434
 11
225.3462993964
 21
204.6727630434
  0
LINE
  8
ENDCAP3
 62
8
  6
HIDDEN
 10
468.2462993964
 20
205.0667184454
 11
471.8462993964
 21
205.0667184454
  0
LINE
  8
ENDCAP3
 62
8
  6
HIDDEN
 10
221.7462993964
 20
205.0727630434
 11
225.3462993964
 21
205.0727630434
  0
LINE
  8
ENDCAP3
 62
8
  6
HIDDEN
 10
472.9462993964
 20
206.012441399
 11
471.8462993964
 21
206.012441399
  0
LINE
  8
ENDCAP3
 62
8
  6
HIDDEN
 10
221.7462993964
 20
206.012441399
 11
220.6462993964
 21
206.012441399
  0
LINE
  8
ENDCAP3
 62
8
  6
HIDDEN
 10
472.9462993964
 20
206.5982278366
 11
471.8462993964
 21
206.5982278366
  0
LINE
  8
ENDCAP3
 62
8
  6
HIDDEN
 10
221.7462993964
 20
206.5982278366
 11
220.6462993964
 21
206.5982278366
  0
LINE
  8
ENDCAP3
 62
8
  6
HIDDEN
 10
220.6462993964
 20
207.8710200428
 11
221.7462993964
 21
207.8710200428
  0
LINE
  8
ENDCAP3
 62
8
  6
HIDDEN
 10
471.8462993964
 20
207.8710200428
 11
472.9462993964
 21
207.8710200428
  0
LINE
  8
BASE3
 62
8
  6
HIDDEN
 10
221.7962993964
 20
207.8979753049
 11
471.7962993964
 21
207.8979753049
  0
LINE
  8
BASE3
 62
8
  6
HIDDEN
 10
221.7962993964
 20
208.0393966612
 11
471.7962993964
 21
208.0393966612
  0
LINE
  8
BASE3
 62
8
  6
HIDDEN
 10
221.7962993964
 20
208.9707675111
 11
471.7962993964
 21
208.9707675111
  0
LINE
  8
BASE3
 62
8
  6
HIDDEN
 10
221.7962993964
 20
209.0000568329
 11
471.7962993964
 21
209.0000568329
  0
LINE
  8
BASE3
 62
8
  6
HIDDEN
 10
221.7962993964
 20
209.0707675111
 11
471.7962993964
 21
209.0707675111
  0
LINE
  8
ENDCAP3
 62
8
  6
HIDDEN
 10
472.9462993964
 20
209.4266549614
 11
471.8462993964
 21
209.4266549614
  0
LINE
  8
ENDCAP3
 62
8
  6
HIDDEN
 10
221.7462993964
 20
209.4266549614
 11
220.6462993964
 21
209.4266549614
  0
LINE
  8
ENDCAP3
 62
8
  6
HIDDEN
 10
471.8462993964
 20
209.4950315798
 11
461.8462993964
 21
209.4950315798
  0
LINE
  8
ENDCAP3
 62
8
  6
HIDDEN
 10
221.7462993964
 20
209.4950315798
 11
231.7462993964
 21
209.4950315798
  0
LINE
  8
ENDCAP3
 62
8
  6
HIDDEN
 10
471.8462993964
 20
209.5828995454
 11
461.8462993964
 21
209.5828995454
  0
LINE
  8
ENDCAP3
 62
8
  6
HIDDEN
 10
221.7462993964
 20
209.5828995454
 11
231.7462993964
 21
209.5828995454
  0
LINE
  8
ENDCAP3
 62
8
  6
HIDDEN
 10
471.8462993964
 20
209.7950315798
 11
461.8462993964
 21
209.7950315798
  0
LINE
  8
ENDCAP3
 62
8
  6
HIDDEN
 10
221.7462993964
 20
209.7950315798
 11
231.7462993964
 21
209.7950315798
  0
LINE
  8
ENDCAP3
 62
8
  6
HIDDEN
 10
220.6462993964
 20
210.6994471675
 11
221.7462993964
 21
210.6994471675
  0
LINE
  8
ENDCAP3
 62
8
  6
HIDDEN
 10
471.8462993964
 20
210.6994471675
 11
472.9462993964
 21
210.6994471675
  0
LINE
  8
ENDCAP3
 62
8
  6
HIDDEN
 10
231.7462993964
 20
211.0435597172
 11
221.7462993964
 21
211.0435597172
  0
LINE
  8
ENDCAP3
 62
8
  6
HIDDEN
 10
461.8462993964
 20
211.0435597172
 11
471.8462993964
 21
211.0435597172
  0
LINE
  8
ENDCAP3
 62
8
  6
HIDDEN
 10
231.7462993964
 20
211.102138361
 11
221.7462993964
 21
211.102138361
  0
LINE
  8
ENDCAP3
 62
8
  6
HIDDEN
 10
461.8462993964
 20
211.102138361
 11
471.8462993964
 21
211.102138361
  0
LINE
  8
ENDCAP3
 62
8
  6
HIDDEN
 10
231.7462993964
 20
211.2435597172
 11
221.7462993964
 21
211.2435597172
  0
LINE
  8
ENDCAP3
 62
8
  6
HIDDEN
 10
461.8462993964
 20
211.2435597172
 11
471.8462993964
 21
211.2435597172
  0
LINE
  8
ENDCAP3
 62
8
  6
HIDDEN
 10
220.6462993964
 20
211.2852336051
 11
221.7462993964
 21
211.2852336051
  0
LINE
  8
ENDCAP3
 62
8
  6
HIDDEN
 10
471.8462993964
 20
211.2852336051
 11
472.9462993964
 21
211.2852336051
  0
LINE
  8
ENDCAP3
 62
8
  6
HIDDEN
 10
471.8462993964
 20
213.0708306053
 11
468.2462993964
 21
213.0708306053
  0
LINE
  8
ENDCAP3
 62
8
  6
HIDDEN
 10
221.7462993964
 20
213.1542362439
 11
225.3462993964
 21
213.1542362439
  0
LINE
  8
ENDCAP3
 62
8
  6
HIDDEN
 10
468.2462993964
 20
213.3673856672
 11
471.7962993964
 21
213.3673856672
  0
LINE
  8
ENDCAP2
 62
7
  6
BYLAYER
 10
471.7962993964
 20
213.3673856672
 11
471.8462993964
 21
213.3673856672
  0
LINE
  8
ENDCAP3
 62
8
  6
HIDDEN
 10
225.3462993964
 20
213.4463483291
 11
221.7962993964
 21
213.4463483291
  0
LINE
  8
ENDCAP2
 62
7
  6
BYLAYER
 10
221.7962993964
 20
213.4463483291
 11
221.7462993964
 21
213.4463483291
  0
LINE
  8
ENDCAP3
 62
8
  6
HIDDEN
 10
471.8462993964
 20
213.5058728542
 11
468.2462993964
 21
213.5058728542
  0
LINE
  8
ENDCAP3
 62
8
  6
HIDDEN
 10
221.7462993964
 20
213.5863182629
 11
225.3462993964
 21
213.5863182629
  0
LINE
  8
DIFFUSE3
 62
8
  6
HIDDEN
 10
221.7962993964
 20
213.6028213124
 11
471.7962993964
 21
213.6028213124
  0
LINE
  8
DIFFUSE3
 62
8
  6
HIDDEN
 10
221.7962993964
 20
213.7584718358
 11
471.7962993964
 21
213.7584718358
  0
LINE
  8
ENDCAP3
 62
8
  6
HIDDEN
 10
468.2462993964
 20
213.7867090193
 11
471.7962993964
 21
213.7867090193
  0
LINE
  8
ENDCAP2
 62
7
  6
BYLAYER
 10
471.7962993964
 20
213.7867090193
 11
471.8462993964
 21
213.7867090193
  0
LINE
  8
ENDCAP3
 62
8
  6
HIDDEN
 10
225.3462993964
 20
213.8630494146
 11
221.7962993964
 21
213.8630494146
  0
LINE
  8
ENDCAP2
 62
7
  6
BYLAYER
 10
221.7962993964
 20
213.8630494146
 11
221.7462993964
 21
213.8630494146
  0
LINE
  8
DIFFUSE2
 62
7
  6
BYLAYER
 10
221.7962993964
 20
214.4543279512
 11
471.7962993964
 21
214.4543279512
  0
LINE
  8
ENDCAP3
 62
8
  6
HIDDEN
 10
471.8462993964
 20
214.4676236637
 11
468.2462993964
 21
214.4676236637
  0
LINE
  8
ENDCAP3
 62
8
  6
HIDDEN
 10
221.7462993964
 20
214.534371408
 11
225.3462993964
 21
214.534371408
  0
LINE
  8
ENDCAP3
 62
8
  6
HIDDEN
 10
231.7462993964
 20
214.5393966612
 11
221.7462993964
 21
214.5393966612
  0
LINE
  8
ENDCAP3
 62
8
  6
HIDDEN
 10
461.8462993964
 20
214.5393966612
 11
471.8462993964
 21
214.5393966612
  0
LINE
  8
ENDCAP3
 62
8
  6
HIDDEN
 10
471.8462993964
 20
214.6140702731
 11
468.2462993964
 21
214.6140702731
  0
LINE
  8
ENDCAP3
 62
8
  6
HIDDEN
 10
231.7462993964
 20
214.6808180174
 11
221.7462993964
 21
214.6808180174
  0
LINE
  8
DIFFUSE2
 62
7
  6
BYLAYER
 10
221.7962993964
 20
214.6808180174
 11
471.7962993964
 21
214.6808180174
  0
LINE
  8
ENDCAP3
 62
8
  6
HIDDEN
 10
461.8462993964
 20
214.6808180174
 11
471.8462993964
 21
214.6808180174
  0
LINE
  8
ENDCAP3
 62
8
  6
HIDDEN
 10
231.7462993964
 20
214.8808180174
 11
221.7462993964
 21
214.8808180174
  0
LINE
  8
DIFFUSE3
 62
8
  6
HIDDEN
 10
221.7962993964
 20
214.8808180174
 11
471.7962993964
 21
214.8808180174
  0
LINE
  8
BASE2
 62
7
  6
BYLAYER
 10
221.7962993964
 20
214.8808180174
 11
471.7962993964
 21
214.8808180174
  0
LINE
  8
ENDCAP3
 62
8
  6
HIDDEN
 10
461.8462993964
 20
214.8808180174
 11
471.8462993964
 21
214.8808180174
  0
LINE
  8
ENDCAP2
 62
7
  6
BYLAYER
 10
220.1462993964
 20
214.9808180174
 11
221.7462993964
 21
214.9808180174
  0
LINE
  8
BASE2
 62
7
  6
BYLAYER
 10
221.7962993964
 20
214.9808180174
 11
471.7962993964
 21
214.9808180174
  0
LINE
  8
ENDCAP2
 62
7
  6
BYLAYER
 10
473.4462993964
 20
214.9808180174
 11
471.8462993964
 21
214.9808180174
  0
LINE
  8
ENDCAP3
 62
8
  6
HIDDEN
 10
471.8462993964
 20
215.068685983
 11
461.8462993964
 21
215.068685983
  0
LINE
  8
ENDCAP3
 62
8
  6
HIDDEN
 10
221.7462993964
 20
215.068685983
 11
231.7462993964
 21
215.068685983
  0
LINE
  8
ENDCAP3
 62
8
  6
HIDDEN
 10
468.2462993964
 20
215.2676236637
 11
471.7962993964
 21
215.2676236637
  0
LINE
  8
ENDCAP2
 62
7
  6
BYLAYER
 10
471.7962993964
 20
215.2676236637
 11
471.8462993964
 21
215.2676236637
  0
LINE
  8
ENDCAP3
 62
8
  6
HIDDEN
 10
471.8462993964
 20
215.2808180174
 11
461.8462993964
 21
215.2808180174
  0
LINE
  8
ENDCAP3
 62
8
  6
HIDDEN
 10
221.7462993964
 20
215.2808180174
 11
231.7462993964
 21
215.2808180174
  0
LINE
  8
ENDCAP3
 62
8
  6
HIDDEN
 10
225.3462993964
 20
215.334371408
 11
221.7962993964
 21
215.334371408
  0
LINE
  8
ENDCAP2
 62
7
  6
BYLAYER
 10
221.7962993964
 20
215.334371408
 11
221.7462993964
 21
215.334371408
  0
LINE
  8
ENDCAP3
 62
8
  6
HIDDEN
 10
471.7962993964
 20
215.4140702731
 11
468.2462993964
 21
215.4140702731
  0
LINE
  8
ENDCAP2
 62
7
  6
BYLAYER
 10
471.7962993964
 20
215.4140702731
 11
471.8462993964
 21
215.4140702731
  0
LINE
  8
ENDCAP3
 62
8
  6
HIDDEN
 10
225.3462993964
 20
215.4808180174
 11
221.7962993964
 21
215.4808180174
  0
LINE
  8
ENDCAP2
 62
7
  6
BYLAYER
 10
221.7962993964
 20
215.4808180174
 11
221.7462993964
 21
215.4808180174
  0
LINE
  8
BASE3
 62
8
  6
HIDDEN
 10
221.7962993964
 20
215.5101073393
 11
471.7962993964
 21
215.5101073393
  0
LINE
  8
ENDCAP2
 62
7
  6
BYLAYER
 10
471.8462993964
 20
215.5808180174
 11
471.7962993964
 21
215.5808180174
  0
LINE
  8
ENDCAP3
 62
8
  6
HIDDEN
 10
471.7962993964
 20
215.5808180174
 11
461.8462993964
 21
215.5808180174
  0
LINE
  8
BASE3
 62
8
  6
HIDDEN
 10
221.7962993964
 20
215.5808180174
 11
471.7962993964
 21
215.5808180174
  0
LINE
  8
ENDCAP3
 62
8
  6
HIDDEN
 10
221.7962993964
 20
215.5808180174
 11
231.7462993964
 21
215.5808180174
  0
LINE
  8
ENDCAP2
 62
7
  6
BYLAYER
 10
221.7462993964
 20
215.5808180174
 11
221.7962993964
 21
215.5808180174
  0
LINE
  8
BASE3
 62
8
  6
HIDDEN
 10
221.7962993964
 20
215.6222393736
 11
471.7962993964
 21
215.6222393736
  0
LINE
  8
DIFFUSE3
 62
8
  6
HIDDEN
 10
221.7962993964
 20
215.6695361658
 11
471.7962993964
 21
215.6695361658
  0
LINE
  8
BASE3
 62
8
  6
HIDDEN
 10
221.7962993964
 20
215.6808180174
 11
471.7962993964
 21
215.6808180174
  0
LINE
  8
DIFFUSE3
 62
8
  6
HIDDEN
 10
221.7962993964
 20
215.6808180174
 11
471.7962993964
 21
215.6808180174
  0
LINE
  8
BASE3
 62
8
  6
HIDDEN
 10
221.7962993964
 20
215.7808180174
 11
471.7962993964
 21
215.7808180174
  0
LINE
  8
DIFFUSE3
 62
8
  6
HIDDEN
 10
221.7962993964
 20
215.7808180174
 11
471.7962993964
 21
215.7808180174
  0
LINE
  8
BASE3
 62
8
  6
HIDDEN
 10
221.7962993964
 20
215.8808180174
 11
471.7962993964
 21
215.8808180174
  0
LINE
  8
ENDCAP3
 62
8
  6
HIDDEN
 10
221.7462993964
 20
216.2808180174
 11
220.6462993964
 21
216.2808180174
  0
LINE
  8
BASE3
 62
8
  6
HIDDEN
 10
221.7962993964
 20
216.2808180174
 11
471.7962993964
 21
216.2808180174
  0
LINE
  8
ENDCAP3
 62
8
  6
HIDDEN
 10
471.8462993964
 20
216.2808180174
 11
472.9462993964
 21
216.2808180174
  0
LINE
  8
ENDCAP2
 62
7
  6
BYLAYER
 10
221.7462993964
 20
216.3808180174
 11
220.6462993964
 21
216.3808180174
  0
LINE
  8
BASE2
 62
7
  6
BYLAYER
 10
221.7962993964
 20
216.3808180174
 11
471.7962993964
 21
216.3808180174
  0
LINE
  8
ENDCAP2
 62
7
  6
BYLAYER
 10
471.8462993964
 20
216.3808180174
 11
472.9462993964
 21
216.3808180174
  0
LINE
  8
ENDCAP2
 62
7
  6
BYLAYER
 10
221.7462993964
 20
216.4808180174
 11
220.6462993964
 21
216.4808180174
  0
LINE
  8
BASE2
 62
7
  6
BYLAYER
 10
221.7962993964
 20
216.4808180174
 11
471.7962993964
 21
216.4808180174
  0
LINE
  8
ENDCAP2
 62
7
  6
BYLAYER
 10
471.8462993964
 20
216.4808180174
 11
472.9462993964
 21
216.4808180174
  0
POLYLINE
  8
ENDCAP3
 62
8
  6
HIDDEN
 66
1
 70
0
  0
VERTEX
  8
ENDCAP3
 62
8
  6
HIDDEN
 10
220.6462993964
 20
206.5982278366
  0
VERTEX
  8
ENDCAP3
 62
8
  6
HIDDEN
 10
220.4549576831
 20
206.5713151881
  0
VERTEX
  8
ENDCAP3
 62
8
  6
HIDDEN
 10
220.2927460077
 20
206.4946744473
  0
VERTEX
  8
ENDCAP3
 62
8
  6
HIDDEN
 10
220.1843596312
 20
206.3799734728
  0
VERTEX
  8
ENDCAP3
 62
8
  6
HIDDEN
 10
220.1462993964
 20
206.244674446
  0
SEQEND
  0
POLYLINE
  8
ENDCAP3
 62
8
  6
HIDDEN
 66
1
 70
0
  0
VERTEX
  8
ENDCAP3
 62
8
  6
HIDDEN
 10
220.6462993964
 20
207.8710200428
  0
VERTEX
  8
ENDCAP3
 62
8
  6
HIDDEN
 10
220.4549582793
 20
207.8441075689
  0
VERTEX
  8
ENDCAP3
 62
8
  6
HIDDEN
 10
220.2927460127
 20
207.767466657
  0
VERTEX
  8
ENDCAP3
 62
8
  6
HIDDEN
 10
220.1843593883
 20
207.6527652644
  0
VERTEX
  8
ENDCAP3
 62
8
  6
HIDDEN
 10
220.1462993964
 20
207.5174666522
  0
SEQEND
  0
POLYLINE
  8
ENDCAP3
 62
8
  6
HIDDEN
 66
1
 70
0
  0
VERTEX
  8
ENDCAP3
 62
8
  6
HIDDEN
 10
220.6462993964
 20
216.2808180174
  0
VERTEX
  8
ENDCAP3
 62
8
  6
HIDDEN
 10
220.579149056
 20
216.2781019655
  0
VERTEX
  8
ENDCAP3
 62
8
  6
HIDDEN
 10
220.5106150473
 20
216.2695615117
  0
VERTEX
  8
ENDCAP3
 62
8
  6
HIDDEN
 10
220.4422541814
 20
216.2546987474
  0
VERTEX
  8
ENDCAP3
 62
8
  6
HIDDEN
 10
220.3761234212
 20
216.2332467931
  0
VERTEX
  8
ENDCAP3
 62
8
  6
HIDDEN
 10
220.314739137
 20
216.2053692991
  0
VERTEX
  8
ENDCAP3
 62
8
  6
HIDDEN
 10
220.2612253674
 20
216.1721766834
  0
VERTEX
  8
ENDCAP3
 62
8
  6
HIDDEN
 10
220.2168668859
 20
216.1344765012
  0
VERTEX
  8
ENDCAP3
 62
8
  6
HIDDEN
 10
220.1812301856
 20
216.0909826343
  0
VERTEX
  8
ENDCAP3
 62
8
  6
HIDDEN
 10
220.1561652723
 20
216.040118137
  0
VERTEX
  8
ENDCAP3
 62
8
  6
HIDDEN
 10
220.1462993964
 20
215.9808180174
  0
SEQEND
  0
POLYLINE
  8
ENDCAP2
 62
7
  6
BYLAYER
 66
1
 70
0
  0
VERTEX
  8
ENDCAP2
 62
7
  6
BYLAYER
 10
472.9462993964
 20
216.3808180174
  0
VERTEX
  8
ENDCAP2
 62
7
  6
BYLAYER
 10
472.9923518882
 20
216.3791175676
  0
VERTEX
  8
ENDCAP2
 62
7
  6
BYLAYER
 10
473.036696557
 20
216.374226091
  0
VERTEX
  8
ENDCAP2
 62
7
  6
BYLAYER
 10
473.0800364652
 20
216.3662437194
  0
VERTEX
  8
ENDCAP2
 62
7
  6
BYLAYER
 10
473.1235067799
 20
216.3548530982
  0
VERTEX
  8
ENDCAP2
 62
7
  6
BYLAYER
 10
473.167938716
 20
216.3393713845
  0
VERTEX
  8
ENDCAP2
 62
7
  6
BYLAYER
 10
473.2135985792
 20
216.3188602853
  0
VERTEX
  8
ENDCAP2
 62
7
  6
BYLAYER
 10
473.259966519
 20
216.2923175571
  0
VERTEX
  8
ENDCAP2
 62
7
  6
BYLAYER
 10
473.3052846416
 20
216.2592467124
  0
VERTEX
  8
ENDCAP2
 62
7
  6
BYLAYER
 10
473.3474486406
 20
216.2195864668
  0
VERTEX
  8
ENDCAP2
 62
7
  6
BYLAYER
 10
473.3849672352
 20
216.1727680012
  0
VERTEX
  8
ENDCAP2
 62
7
  6
BYLAYER
 10
473.4161066338
 20
216.1177116779
  0
VERTEX
  8
ENDCAP2
 62
7
  6
BYLAYER
 10
473.437927059
 20
216.0537109883
  0
VERTEX
  8
ENDCAP2
 62
7
  6
BYLAYER
 10
473.4462993964
 20
215.9808180174
  0
SEQEND
  0
POLYLINE
  8
ENDCAP3
 62
8
  6
HIDDEN
 66
1
 70
0
  0
VERTEX
  8
ENDCAP3
 62
8
  6
HIDDEN
 10
472.9462993964
 20
206.5982278366
  0
VERTEX
  8
ENDCAP3
 62
8
  6
HIDDEN
 10
473.1376405135
 20
206.5713153627
  0
VERTEX
  8
ENDCAP3
 62
8
  6
HIDDEN
 10
473.2998527801
 20
206.4946744509
  0
VERTEX
  8
ENDCAP3
 62
8
  6
HIDDEN
 10
473.4082394044
 20
206.3799730583
  0
VERTEX
  8
ENDCAP3
 62
8
  6
HIDDEN
 10
473.4462993964
 20
206.244674446
  0
SEQEND
  0
POLYLINE
  8
ENDCAP3
 62
8
  6
HIDDEN
 66
1
 70
0
  0
VERTEX
  8
ENDCAP3
 62
8
  6
HIDDEN
 10
472.9462993964
 20
207.8710200428
  0
VERTEX
  8
ENDCAP3
 62
8
  6
HIDDEN
 10
473.1376411097
 20
207.8441073942
  0
VERTEX
  8
ENDCAP3
 62
8
  6
HIDDEN
 10
473.2998527851
 20
207.7674666535
  0
VERTEX
  8
ENDCAP3
 62
8
  6
HIDDEN
 10
473.4082391616
 20
207.652765679
  0
VERTEX
  8
ENDCAP3
 62
8
  6
HIDDEN
 10
473.4462993964
 20
207.5174666522
  0
SEQEND
  0
LINE
  8
ENDCAP3
 62
8
  6
HIDDEN
 10
461.8462993964
 20
209.4953002128
 11
461.8462993964
 21
215.5808180174
  0
LINE
  8
ENDCAP3
 62
8
  6
HIDDEN
 10
468.2462993964
 20
201.6782240515
 11
468.2462993964
 21
215.4140702731
  0
LINE
  8
DIFFUSE3
 62
8
  6
HIDDEN
 10
471.7962993964
 20
215.7808180174
 11
471.7962993964
 21
214.8808180174
  0
LINE
  8
BASE2
 62
7
  6
BYLAYER
 10
471.7962993964
 20
216.4808180174
 11
471.7962993964
 21
214.8808180174
  0
LINE
  8
DIFFUSE3
 62
8
  6
HIDDEN
 10
471.7962993964
 20
214.6960421109
 11
471.7962993964
 21
214.6808180174
  0
LINE
  8
DIFFUSE2
 62
7
  6
BYLAYER
 10
471.7962993964
 20
214.8808180174
 11
471.7962993964
 21
214.6960421109
  0
LINE
  8
BASE3
 62
8
  6
HIDDEN
 10
471.7962993964
 20
214.8808180174
 11
471.7962993964
 21
200.5808180174
  0
LINE
  8
DIFFUSE2
 62
7
  6
BYLAYER
 10
471.7962993964
 20
214.6808180174
 11
471.7962993964
 21
200.6140554921
  0
LINE
  8
BASE2
 62
7
  6
BYLAYER
 10
471.7962993964
 20
200.5808180174
 11
471.7962993964
 21
200.4808180174
  0
LINE
  8
ENDCAP2
 62
7
  6
BYLAYER
 10
471.8462993964
 20
216.4808180174
 11
471.8462993964
 21
200.4808180174
  0
LINE
  8
ENDCAP2
 62
7
  6
BYLAYER
 10
472.9462993964
 20
216.4808180174
 11
472.9462993964
 21
200.4808180174
  0
LINE
  8
ENDCAP2
 62
7
  6
BYLAYER
 10
473.4462993964
 20
215.9808180174
 11
473.4462993964
 21
200.9808180174
  0
POLYLINE
  8
ENDCAP3
 62
8
  6
HIDDEN
 66
1
 70
0
  0
VERTEX
  8
ENDCAP3
 62
8
  6
HIDDEN
 10
473.4462993964
 20
215.9808180174
  0
VERTEX
  8
ENDCAP3
 62
8
  6
HIDDEN
 10
473.4364335226
 20
216.0401181548
  0
VERTEX
  8
ENDCAP3
 62
8
  6
HIDDEN
 10
473.4113686179
 20
216.0909826864
  0
VERTEX
  8
ENDCAP3
 62
8
  6
HIDDEN
 10
473.3757320286
 20
216.1344769587
  0
VERTEX
  8
ENDCAP3
 62
8
  6
HIDDEN
 10
473.3313736259
 20
216.1721773515
  0
VERTEX
  8
ENDCAP3
 62
8
  6
HIDDEN
 10
473.2778602048
 20
216.2053711259
  0
VERTEX
  8
ENDCAP3
 62
8
  6
HIDDEN
 10
473.2164761675
 20
216.2332497046
  0
VERTEX
  8
ENDCAP3
 62
8
  6
HIDDEN
 10
473.150345111
 20
216.2547009827
  0
VERTEX
  8
ENDCAP3
 62
8
  6
HIDDEN
 10
473.0819837308
 20
216.2695614169
  0
VERTEX
  8
ENDCAP3
 62
8
  6
HIDDEN
 10
473.0134496307
 20
216.2781005993
  0
VERTEX
  8
ENDCAP3
 62
8
  6
HIDDEN
 10
472.9462993964
 20
216.2808180174
  0
SEQEND
  0
CIRCLE
  8
AP0179
 62
3
  6
BYLAYER
 10
541.3872611327
 20
99.5528219353
 40
5.0
  0
CIRCLE
  8
AP0179
 62
3
  6
BYLAYER
 10
541.3872611327
 20
99.5528219353
 40
2.5
  0
ARC
  8
ENDCAP3
 62
8
  6
HIDDEN
 10
132.9899091211
 20
272.5037016753
 40
0.5
 50
225.0
 51
270.0
  0
ARC
  8
ENDCAP3
 62
8
  6
HIDDEN
 10
131.5185871277
 20
273.9750236687
 40
0.5
 50
172.7444309384
 51
225.0
  0
ARC
  8
ENDCAP3
 62
8
  6
HIDDEN
 10
133.3143071448
 20
273.3037016753
 40
0.5
 50
225.0
 51
270.0
  0
ARC
  8
ENDCAP3
 62
8
  6
HIDDEN
 10
132.3662539996
 20
274.2517548204
 40
0.5
 50
170.9638700642
 51
225.0
  0
ARC
  8
ENDCAP3
 62
8
  6
HIDDEN
 10
133.3475307905
 20
273.3704494195
 40
0.5
 50
225.0
 51
270.0
  0
ARC
  8
ENDCAP3
 62
8
  6
HIDDEN
 10
132.385779981
 20
274.3322002291
 40
0.5
 50
170.62022399
 51
225.0
  0
ARC
  8
ENDCAP3
 62
8
  6
HIDDEN
 10
131.5352452961
 20
274.051364064
 40
0.5
 50
172.4414123639
 51
225.0
  0
ARC
  8
ENDCAP3
 62
8
  6
HIDDEN
 10
133.0161599406
 20
272.5704494195
 40
0.5
 50
225.0
 51
270.0
  0
ARC
  8
DIFFUSE3
 62
8
  6
HIDDEN
 10
130.1543363156
 20
273.0037016752
 40
0.2
 50
172.3887893758
 51
269.9999999933
  0
ARC
  8
DIFFUSE3
 62
8
  6
HIDDEN
 10
130.3212999356
 20
272.6037016753
 40
0.2
 50
0.0000000001
 51
89.9999999999
  0
ARC
  8
ENDCAP3
 62
8
  6
HIDDEN
 10
129.9212999356
 20
271.1037016753
 40
0.1
 50
180.0
 51
270.0
  0
ARC
  8
DIFFUSE3
 62
8
  6
HIDDEN
 10
130.6212999356
 20
271.8037016753
 40
0.1
 50
180.0000000002
 51
270.0000000001
  0
ARC
  8
DIFFUSE3
 62
8
  6
HIDDEN
 10
131.0206573944
 20
271.8037016753
 40
0.1
 50
270.0000000002
 51
6.4778162964
  0
ARC
  8
BASE3
 62
8
  6
HIDDEN
 10
131.9212999356
 20
271.9037016753
 40
0.1
 50
180.0000000001
 51
270.0
  0
ARC
  8
BASE3
 62
8
  6
HIDDEN
 10
131.7212999356
 20
272.5037016753
 40
0.1
 50
0.0000000003
 51
90.0000000001
  0
ARC
  8
BASE3
 62
8
  6
HIDDEN
 10
131.3212999356
 20
272.5037016753
 40
0.1
 50
89.9999999998
 51
179.9999999999
  0
ARC
  8
BASE3
 62
8
  6
HIDDEN
 10
131.1212999356
 20
271.7037016753
 40
0.1
 50
269.9999999999
 51
359.9999999999
  0
ARC
  8
BASE3
 62
8
  6
HIDDEN
 10
130.5212999356
 20
271.7037016753
 40
0.1
 50
180.0000000001
 51
270.0000000001
  0
ARC
  8
BASE3
 62
8
  6
HIDDEN
 10
130.3212999356
 20
272.5037016753
 40
0.1
 50
0.0000000001
 51
90.0000000002
  0
ARC
  8
BASE3
 62
8
  6
HIDDEN
 10
129.9212999356
 20
272.5037016753
 40
0.1
 50
89.9999999999
 51
179.9999999998
  0
ARC
  8
ENDCAP2
 62
7
  6
BYLAYER
 10
129.9212999356
 20
271.1037016753
 40
0.1
 50
180.0000000001
 51
270.0
  0
ARC
  8
BASE2
 62
7
  6
BYLAYER
 10
129.9212999356
 20
271.1037016753
 40
0.1
 50
180.0000000002
 51
270.0000000001
  0
ARC
  8
ENDCAP3
 62
8
  6
HIDDEN
 10
134.0072003636
 20
272.4037016753
 40
0.4
 50
270.0
 51
90.0
  0
ARC
  8
ENDCAP3
 62
8
  6
HIDDEN
 10
134.0132449616
 20
272.4704494195
 40
0.4
 50
269.9999999999
 51
90.0000000001
  0
ARC
  8
BASE3
 62
8
  6
HIDDEN
 10
137.2384572231
 20
272.0037016753
 40
0.2
 50
269.9999999998
 51
314.9999999998
  0
ARC
  8
ENDCAP3
 62
8
  6
HIDDEN
 10
137.3529233172
 20
278.1992860875
 40
2.5
 50
135.0
 51
315.0
  0
ARC
  8
ENDCAP2
 62
7
  6
BYLAYER
 10
137.3529233172
 20
278.1992860875
 40
2.5
 50
135.0
 51
315.0
  0
ARC
  8
ENDCAP2
 62
7
  6
BYLAYER
 10
137.3529233172
 20
278.1992860875
 40
2.0
 50
135.0
 51
315.0
  0
ARC
  8
ENDCAP2
 62
7
  6
BYLAYER
 10
137.3529233172
 20
278.1992860875
 40
2.0
 50
135.0
 51
315.0
  0
ARC
  8
ENDCAP3
 62
8
  6
HIDDEN
 10
139.1355134979
 20
272.2037016753
 40
0.3
 50
135.0
 51
270.0
  0
ARC
  8
ENDCAP3
 62
8
  6
HIDDEN
 10
139.1355134979
 20
272.2037016753
 40
0.3
 50
135.0
 51
270.0
  0
ARC
  8
ENDCAP3
 62
8
  6
HIDDEN
 10
140.5840416354
 20
272.8037016753
 40
0.2
 50
135.0
 51
270.0
  0
ARC
  8
ENDCAP3
 62
8
  6
HIDDEN
 10
140.5840416354
 20
272.8037016753
 40
0.2
 50
135.0
 51
270.0
  0
ARC
  8
BASE3
 62
8
  6
HIDDEN
 10
138.4112494292
 20
271.9037016753
 40
0.1
 50
135.0
 51
270.0
  0
ARC
  8
ENDCAP3
 62
8
  6
HIDDEN
 10
144.3212999356
 20
272.5037016753
 40
14.5
 50
131.324086352
 51
180.0000000216
  0
ARC
  8
ENDCAP3
 62
8
  6
HIDDEN
 10
144.3212999356
 20
272.5037016753
 40
14.5
 50
118.9247560533
 51
126.4301434928
  0
ARC
  8
ENDCAP3
 62
8
  6
HIDDEN
 10
144.3212999356
 20
272.5037016753
 40
14.5
 50
106.06508875
 51
114.2541869923
  0
ARC
  8
ENDCAP3
 62
8
  6
HIDDEN
 10
144.3212999356
 20
272.5037016753
 40
14.5
 50
96.4285713964
 51
102.1168302036
  0
ARC
  8
ENDCAP3
 62
8
  6
HIDDEN
 10
144.3212999356
 20
272.5037016753
 40
14.5
 50
89.9999999637
 51
91.2580118646
  0
ARC
  8
ENDCAP2
 62
7
  6
BYLAYER
 10
144.3212999356
 20
272.5037016753
 40
14.5
 50
126.4301434928
 51
131.324086352
  0
ARC
  8
ENDCAP2
 62
7
  6
BYLAYER
 10
144.3212999356
 20
272.5037016753
 40
14.5
 50
114.2541869923
 51
118.9247560533
  0
ARC
  8
ENDCAP2
 62
7
  6
BYLAYER
 10
144.3212999356
 20
272.5037016753
 40
14.5
 50
102.1168302036
 51
106.06508875
  0
ARC
  8
ENDCAP2
 62
7
  6
BYLAYER
 10
144.3212999356
 20
272.5037016753
 40
14.5
 50
91.2580118646
 51
96.4285713964
  0
ARC
  8
ENDCAP2
 62
7
  6
BYLAYER
 10
144.3212999356
 20
272.5037016753
 40
14.5
 50
90.0
 51
180.0000000001
  0
ARC
  8
DIFFUSE3
 62
8
  6
HIDDEN
 10
144.3111745692
 20
272.5138270416
 40
14.3643602261
 50
92.0600913043
 51
177.9399086957
  0
ARC
  8
ENDCAP3
 62
8
  6
HIDDEN
 10
144.3212999356
 20
272.5037016753
 40
14.0
 50
89.9999999999
 51
180.0
  0
ARC
  8
ENDCAP2
 62
7
  6
BYLAYER
 10
144.3212999356
 20
272.5037016753
 40
14.0
 50
90.0
 51
180.0000000001
  0
ARC
  8
DIFFUSE3
 62
8
  6
HIDDEN
 10
144.4942299382
 20
272.3230317708
 40
13.6803816296
 50
96.5095415239
 51
173.7865293501
  0
ARC
  8
ENDCAP3
 62
8
  6
HIDDEN
 10
144.4942299382
 20
272.3230317708
 40
13.5803816296
 50
97.5585876361
 51
172.7444309384
  0
ARC
  8
ENDCAP3
 62
8
  6
HIDDEN
 10
144.5019698401
 20
272.3307716726
 40
13.5803816296
 50
97.2555690616
 51
172.4414123639
  0
ARC
  8
ENDCAP3
 62
8
  6
HIDDEN
 10
144.4942299382
 20
272.3230317708
 40
12.7803816296
 50
99.37977601
 51
170.9638700642
  0
ARC
  8
ENDCAP3
 62
8
  6
HIDDEN
 10
144.5019698401
 20
272.3307716726
 40
12.7803816296
 50
99.0361299358
 51
170.62022399
  0
ARC
  8
ENDCAP3
 62
8
  6
HIDDEN
 10
144.6212999356
 20
272.2037016753
 40
0.3
 50
270.0
 51
360.0
  0
ARC
  8
ENDCAP3
 62
8
  6
HIDDEN
 10
144.6212999356
 20
272.2037016753
 40
0.3
 50
269.9999999999
 51
360.0
  0
ARC
  8
ENDCAP3
 62
8
  6
HIDDEN
 10
144.0212999356
 20
272.8037016753
 40
0.2
 50
270.0
 51
360.0
  0
ARC
  8
ENDCAP3
 62
8
  6
HIDDEN
 10
144.0212999356
 20
272.8037016753
 40
0.2
 50
270.0
 51
360.0
  0
ARC
  8
ENDCAP3
 62
8
  6
HIDDEN
 10
145.6212999356
 20
271.2037016753
 40
0.2
 50
270.0
 51
360.0
  0
ARC
  8
BASE3
 62
8
  6
HIDDEN
 10
145.6212999356
 20
271.2037016753
 40
0.2
 50
270.0
 51
360.0
  0
ARC
  8
ENDCAP2
 62
7
  6
BYLAYER
 10
145.6212999356
 20
271.2037016753
 40
0.2
 50
270.0
 51
360.0
  0
ARC
  8
BASE3
 62
8
  6
HIDDEN
 10
144.9212999356
 20
271.9037016753
 40
0.1
 50
269.9999999998
 51
359.9999999998
  0
ARC
  8
ENDCAP3
 62
8
  6
HIDDEN
 10
144.6212999356
 20
277.6894881129
 40
0.3
 50
0.0
 51
135.0
  0
ARC
  8
ENDCAP3
 62
8
  6
HIDDEN
 10
144.6212999356
 20
277.6894881129
 40
0.3
 50
0.0
 51
135.0
  0
ARC
  8
ENDCAP3
 62
8
  6
HIDDEN
 10
144.0212999356
 20
276.2409599755
 40
0.2
 50
0.0
 51
135.0
  0
ARC
  8
ENDCAP3
 62
8
  6
HIDDEN
 10
144.0212999356
 20
276.2409599755
 40
0.2
 50
0.0
 51
135.0
  0
ARC
  8
BASE3
 62
8
  6
HIDDEN
 10
144.9212999356
 20
278.4137521816
 40
0.1
 50
0.0
 51
135.0
  0
ARC
  8
ENDCAP3
 62
8
  6
HIDDEN
 10
138.6257155233
 20
279.4720782937
 40
2.5
 50
315.0
 51
135.0
  0
ARC
  8
ENDCAP2
 62
7
  6
BYLAYER
 10
138.6257155233
 20
279.4720782937
 40
2.5
 50
315.0
 51
135.0
  0
ARC
  8
ENDCAP3
 62
8
  6
HIDDEN
 10
138.6257155233
 20
279.4720782937
 40
2.0
 50
335.0000127681
 51
114.9999530773
  0
ARC
  8
ENDCAP2
 62
7
  6
BYLAYER
 10
138.6257155233
 20
279.4720782937
 40
2.0
 50
315.0
 51
335.0000127681
  0
ARC
  8
ENDCAP2
 62
7
  6
BYLAYER
 10
138.6257155233
 20
279.4720782937
 40
2.0
 50
114.9999530773
 51
135.0
  0
ARC
  8
ENDCAP2
 62
7
  6
BYLAYER
 10
138.6257155233
 20
279.4720782937
 40
2.0
 50
315.0
 51
135.0
  0
ARC
  8
ENDCAP3
 62
8
  6
HIDDEN
 10
144.3545521913
 20
282.8117566492
 40
0.4
 50
180.0
 51
360.0
  0
ARC
  8
ENDCAP3
 62
8
  6
HIDDEN
 10
144.4212999356
 20
282.8178012472
 40
0.4
 50
180.0
 51
360.0
  0
ARC
  8
BASE3
 62
8
  6
HIDDEN
 10
144.8212999356
 20
279.5865443877
 40
0.2
 50
315.0000000001
 51
360.0
  0
ARC
  8
ENDCAP3
 62
8
  6
HIDDEN
 10
144.2545521913
 20
283.8088416702
 40
0.5
 50
0.0
 51
45.0
  0
ARC
  8
ENDCAP3
 62
8
  6
HIDDEN
 10
142.7736375468
 20
285.2897563147
 40
0.5
 50
45.0
 51
97.5585876361
  0
ARC
  8
ENDCAP3
 62
8
  6
HIDDEN
 10
143.4545521913
 20
283.4774708203
 40
0.5
 50
0.0
 51
45.0
  0
ARC
  8
ENDCAP3
 62
8
  6
HIDDEN
 10
142.4928013818
 20
284.4392216299
 40
0.5
 50
45.0
 51
99.37977601
  0
ARC
  8
ENDCAP3
 62
8
  6
HIDDEN
 10
143.5212999356
 20
283.5106944661
 40
0.5
 50
0.0
 51
45.0
  0
ARC
  8
ENDCAP3
 62
8
  6
HIDDEN
 10
142.5732467905
 20
284.4587476112
 40
0.5
 50
45.0
 51
99.0361299358
  0
ARC
  8
ENDCAP3
 62
8
  6
HIDDEN
 10
144.3212999356
 20
283.8350924897
 40
0.5
 50
0.0
 51
45.0
  0
ARC
  8
ENDCAP3
 62
8
  6
HIDDEN
 10
142.8499779422
 20
285.3064144831
 40
0.5
 50
45.0
 51
97.2555690616
  0
ARC
  8
DIFFUSE3
 62
8
  6
HIDDEN
 10
143.0425444962
 20
285.4251636312
 40
0.5
 50
83.5221837032
 51
101.4482356125
  0
ARC
  8
DIFFUSE3
 62
8
  6
HIDDEN
 10
144.2212999356
 20
286.5037016753
 40
0.2
 50
180.0000000001
 51
269.9999999998
  0
ARC
  8
DIFFUSE3
 62
8
  6
HIDDEN
 10
143.8212999356
 20
286.6706652952
 40
0.2
 50
0.0000000067
 51
97.6112106242
  0
ARC
  8
ENDCAP3
 62
8
  6
HIDDEN
 10
145.7212999356
 20
286.9037016753
 40
0.1
 50
0.0
 51
89.9999999999
  0
ARC
  8
DIFFUSE3
 62
8
  6
HIDDEN
 10
145.0212999356
 20
285.8043442164
 40
0.1
 50
263.5221837029
 51
360.0
  0
ARC
  8
DIFFUSE3
 62
8
  6
HIDDEN
 10
145.0212999356
 20
286.2037016753
 40
0.1
 50
0.0000000003
 51
90.0000000001
  0
ARC
  8
BASE3
 62
8
  6
HIDDEN
 10
144.3212999356
 20
286.9037016753
 40
0.1
 50
89.9999999998
 51
179.9999999998
  0
ARC
  8
BASE3
 62
8
  6
HIDDEN
 10
144.3212999356
 20
286.5037016753
 40
0.1
 50
180.0000000002
 51
270.0000000002
  0
ARC
  8
BASE3
 62
8
  6
HIDDEN
 10
145.1212999356
 20
286.3037016753
 40
0.1
 50
0.0000000001
 51
90.0000000001
  0
ARC
  8
BASE3
 62
8
  6
HIDDEN
 10
145.1212999356
 20
285.7037016753
 40
0.1
 50
269.9999999999
 51
359.9999999999
  0
ARC
  8
BASE3
 62
8
  6
HIDDEN
 10
144.3212999356
 20
285.5037016753
 40
0.1
 50
89.9999999998
 51
179.9999999999
  0
ARC
  8
BASE3
 62
8
  6
HIDDEN
 10
144.3212999356
 20
285.1037016753
 40
0.1
 50
180.0000000005
 51
270.0000000003
  0
ARC
  8
BASE3
 62
8
  6
HIDDEN
 10
144.9212999356
 20
284.9037016753
 40
0.1
 50
0.0000000001
 51
90.0000000001
  0
ARC
  8
ENDCAP2
 62
7
  6
BYLAYER
 10
145.7212999356
 20
286.9037016753
 40
0.1
 50
0.0
 51
90.0
  0
ARC
  8
BASE2
 62
7
  6
BYLAYER
 10
145.7212999356
 20
286.9037016753
 40
0.1
 50
0.0000000002
 51
90.0000000002
  0
ARC
  8
ENDCAP3
 62
8
  6
HIDDEN
 10
220.6462993964
 20
275.6992860875
 40
0.5
 50
90.0
 51
180.0
  0
ARC
  8
ENDCAP2
 62
7
  6
BYLAYER
 10
220.6462993964
 20
271.5037016753
 40
0.5
 50
180.0
 51
270.0
  0
ARC
  8
ENDCAP3
 62
8
  6
HIDDEN
 10
220.6462993964
 20
281.9720782937
 40
0.5
 50
180.0
 51
270.0
  0
ARC
  8
ENDCAP2
 62
7
  6
BYLAYER
 10
220.6462993964
 20
286.5037016753
 40
0.5
 50
90.0
 51
179.9999999999
  0
ARC
  8
ENDCAP3
 62
8
  6
HIDDEN
 10
472.9462993964
 20
275.6992860875
 40
0.5
 50
0.0
 51
90.0
  0
ARC
  8
ENDCAP2
 62
7
  6
BYLAYER
 10
472.9462993964
 20
271.5037016753
 40
0.5
 50
270.0
 51
360.0
  0
ARC
  8
ENDCAP3
 62
8
  6
HIDDEN
 10
472.9462993964
 20
281.9720782937
 40
0.5
 50
270.0
 51
360.0
  0
ARC
  8
ENDCAP2
 62
7
  6
BYLAYER
 10
472.9462993964
 20
286.5037016753
 40
0.5
 50
0.0
 51
90.0
  0
ARC
  8
ENDCAP3
 62
8
  6
HIDDEN
 10
220.6462993964
 20
205.512441399
 40
0.5
 50
90.0
 51
180.0
  0
ARC
  8
ENDCAP2
 62
7
  6
BYLAYER
 10
220.6462993964
 20
200.9808180174
 40
0.5
 50
180.0
 51
270.0
  0
ARC
  8
ENDCAP3
 62
8
  6
HIDDEN
 10
220.6462993964
 20
211.7852336051
 40
0.5
 50
180.0
 51
270.0
  0
ARC
  8
ENDCAP2
 62
7
  6
BYLAYER
 10
220.6462993964
 20
215.9808180174
 40
0.5
 50
90.0
 51
180.0
  0
ARC
  8
ENDCAP3
 62
8
  6
HIDDEN
 10
472.9462993964
 20
205.512441399
 40
0.5
 50
0.0
 51
90.0
  0
ARC
  8
ENDCAP2
 62
7
  6
BYLAYER
 10
472.9462993964
 20
200.9808180174
 40
0.5
 50
270.0
 51
359.9999999999
  0
ARC
  8
ENDCAP3
 62
8
  6
HIDDEN
 10
472.9462993964
 20
211.7852336051
 40
0.5
 50
270.0
 51
360.0
  0
ARC
  8
ENDCAP2
 62
7
  6
BYLAYER
 10
472.9462993964
 20
215.9808180174
 40
0.5
 50
0.0
 51
90.0
  0
ENDSEC
  0
EOF
