999
DXF file: E:\PTCStandard\library\LED\LedStrip_V1\LS-12V-60-W10-2835\ls-12v-60-w10-2835.dxf
999
Pro/ENGINEER 2011310 by Parametric Technology Corporation
  0
SECTION
  2
HEADER
  9
$EXTMAX
 10
74.25
 20
52.5
 30
0.0
  9
$EXTMIN
 10
0.0
 20
0.0
 30
0.0
  9
$LIMMIN
 10
0.0
 20
0.0
  9
$LIMMAX
 10
74.25
 20
52.5
  9
$VIEWCTR
 10
37.125
 20
26.25
  9
$VIEWSIZE
 40
52.5
  9
$CLAYER
  8
0
  9
$LTSCALE
 40
4.08375
  9
$CELTYPE
  6
BYLAYER
  9
$DIMSCALE
 40
1.0
  9
$DIMASZ
 40
0.875
  9
$DIMEXO
 40
0.4640625
  9
$DIMDLI
 40
2.8215
  9
$DIMEXE
 40
1.3365
  9
$DIMCEN
 40
0.66825
  9
$DIMLFAC
 40
1.0
  9
$DIMBLK
  1
_FILLED
  9
$DIMTXT
 40
3.5
  9
$PDMODE
 70
3
  9
$PDSIZE
 40
8.0
  9
$TILEMODE
 70
1
  0
ENDSEC
  0
SECTION
  2
TABLES
  0
TABLE
  2
LTYPE
 70
6
  0
LTYPE
  2
BYBLOCK
 70
0
  3

 72
65
 73
0
 40
0.0
  0
LTYPE
  2
BYLAYER
 70
0
  3

 72
65
 73
0
 40
0.0
  0
LTYPE
  2
CONTINUOUS
 70
64
  3
Solid line
 72
65
 73
0
 40
0.0
  0
LTYPE
  2
CENTER
 70
64
  3
____ _ ____ _ ____ _ ____ _ ____ _ ____ _ ____
 72
65
 73
4
 40
0.6
 49
0.375
 49
-0.075
 49
0.075
 49
-0.075
  0
LTYPE
  2
HIDDEN
 70
64
  3
- - - - - - - - - - - - - - - - - - - -
 72
65
 73
2
 40
0.2
 49
0.1
 49
-0.1
  0
LTYPE
  2
PHANTOM
 70
64
  3
_____ _ _ _____ _ _ _____ _ _ _____
 72
65
 73
6
 40
0.8
 49
0.45
 49
-0.05
 49
0.1
 49
-0.05
 49
0.1
 49
-0.05
  0
LTYPE
  2
DOT
 70
64
  3
. . . . . . . . . . . . . . . . . . . .
 72
65
 73
2
 40
0.2
 49
0.1
 49
-0.1
  0
LTYPE
  2
DASHED
 70
64
  3
- - - - - - - - - - - - - - - - - - - -
 72
65
 73
2
 40
0.2
 49
0.1
 49
-0.1
  0
ENDTAB
  0
TABLE
  2
LAYER
 70
36
  0
LAYER
  2
0
 70
0
 62
7
  6
CONTINUOUS
  0
LAYER
  2
DEFAULT_1
 70
0
 62
7
  6
CENTER
  0
LAYER
  2
DEFAULT_2
 70
0
 62
8
  6
HIDDEN
  0
LAYER
  2
DEFAULT_3
 70
0
 62
7
  6
PHANTOM
  0
LAYER
  2
01_ALL_DTM_PLN
 70
0
 62
7
  6
CONTINUOUS
  0
LAYER
  2
01__ASM_ALL_DTM_PLN
 70
0
 62
7
  6
CONTINUOUS
  0
LAYER
  2
01__ASM_DEF_DTM_PLN
 70
0
 62
7
  6
CONTINUOUS
  0
LAYER
  2
01___PRT_ALL_DTM_PLN
 70
0
 62
7
  6
CONTINUOUS
  0
LAYER
  2
01___PRT_DEF_DTM_PLN
 70
0
 62
7
  6
CONTINUOUS
  0
LAYER
  2
02_ALL_AXES
 70
0
 62
7
  6
CONTINUOUS
  0
LAYER
  2
02__ASM_ALL_AXES
 70
0
 62
7
  6
CONTINUOUS
  0
LAYER
  2
02___PRT_ALL_AXES
 70
0
 62
7
  6
CONTINUOUS
  0
LAYER
  2
03_ALL_CURVES
 70
0
 62
7
  6
CONTINUOUS
  0
LAYER
  2
03__ASM_ALL_CURVES
 70
0
 62
7
  6
CONTINUOUS
  0
LAYER
  2
03___PRT_ALL_CURVES
 70
0
 62
7
  6
CONTINUOUS
  0
LAYER
  2
04_ALL_DTM_PNT
 70
0
 62
7
  6
CONTINUOUS
  0
LAYER
  2
04__ASM_ALL_DTM_PNT
 70
0
 62
7
  6
CONTINUOUS
  0
LAYER
  2
04___PRT_ALL_DTM_PNT
 70
0
 62
7
  6
CONTINUOUS
  0
LAYER
  2
05_ALL_DTM_CSYS
 70
0
 62
7
  6
CONTINUOUS
  0
LAYER
  2
05__ASM_ALL_DTM_CSYS
 70
0
 62
7
  6
CONTINUOUS
  0
LAYER
  2
05__ASM_DEF_DTM_CSYS
 70
0
 62
7
  6
CONTINUOUS
  0
LAYER
  2
05___PRT_ALL_DTM_CSYS
 70
0
 62
7
  6
CONTINUOUS
  0
LAYER
  2
05___PRT_DEF_DTM_CSYS
 70
0
 62
7
  6
CONTINUOUS
  0
LAYER
  2
06_ALL_SURFS
 70
0
 62
7
  6
CONTINUOUS
  0
LAYER
  2
06__ASM_ALL_SURFS
 70
0
 62
7
  6
CONTINUOUS
  0
LAYER
  2
06___PRT_ALL_SURFS
 70
0
 62
7
  6
CONTINUOUS
  0
LAYER
  2
07__ASM_ALL_SKELETONS
 70
0
 62
7
  6
CONTINUOUS
  0
LAYER
  2
INTF_YELLOW
 70
0
 62
7
  6
CONTINUOUS
  0
LAYER
  2
LAYER_01
 70
0
 62
7
  6
CONTINUOUS
  0
LAYER
  2
LAYER_02
 70
0
 62
7
  6
CONTINUOUS
  0
LAYER
  2
LAYER_02_208
 70
0
 62
7
  6
CONTINUOUS
  0
LAYER
  2
LAYER_04
 70
0
 62
7
  6
CONTINUOUS
  0
LAYER
  2
LAYER_04_210
 70
0
 62
7
  6
CONTINUOUS
  0
LAYER
  2
LS-12V-60-W10-28359
 70
0
 62
7
  6
CONTINUOUS
  0
LAYER
  2
LS-12V-60-W10-28354
 70
0
 62
7
  6
CONTINUOUS
  0
LAYER
  2
LS-12V-60-W10-2835_PLATE2
 70
0
 62
7
  6
CONTINUOUS
  0
LAYER
  2
LS-12V-60-W10-2835_PADS2
 70
0
 62
7
  6
CONTINUOUS
  0
LAYER
  2
LED_CHIP_2835_BASE2
 70
0
 62
7
  6
CONTINUOUS
  0
LAYER
  2
LED_CHIP_2835_SLICONE2
 70
0
 62
7
  6
CONTINUOUS
  0
LAYER
  2
LED_CHIP_2835_ELETRODE_22
 70
0
 62
7
  6
CONTINUOUS
  0
LAYER
  2
LED_CHIP_2835_ELETRODE_12
 70
0
 62
7
  6
CONTINUOUS
  0
LAYER
  2
RES_1206_032
 70
0
 62
7
  6
CONTINUOUS
  0
LAYER
  2
RES_1206_012
 70
0
 62
7
  6
CONTINUOUS
  0
ENDTAB
  0
TABLE
  2
STYLE
 70
1
  0
STYLE
  2
STANDARD
 70
0
 40
0.0
 41
0.85
 50
0.0
 71
0
 42
0.2
  3
SIMHEI.SHX
  4

  0
STYLE
  2
TEXTSTYLE_1
 70
0
 40
0.0
 41
0.8
 50
0.0
 71
0
 42
0.2
  3
gdt
  4

  0
STYLE
  2
TEXTSTYLE_2
 70
0
 40
0.0
 41
1.0
 50
0.0
 71
0
 42
0.2
  3
TXT.TTF
  4

  0
STYLE
  2
TEXTSTYLE_3
 70
0
 40
0.0
 41
1.0
 50
0.0
 71
0
 42
0.2
  3
TXT.TTF
  4

  0
STYLE
  2
TEXTSTYLE_4
 70
0
 40
0.0
 41
1.0
 50
0.0
 71
0
 42
0.2
  3
TXT.TTF
  4

  0
STYLE
  2
TEXTSTYLE_5
 70
0
 40
0.0
 41
1.0
 50
0.0
 71
0
 42
0.2
  3
TXT.TTF
  4

  0
STYLE
  2
TEXTSTYLE_6
 70
0
 40
0.0
 41
1.0
 50
0.0
 71
0
 42
0.2
  3
TXT.TTF
  4

  0
STYLE
  2
TEXTSTYLE_7
 70
0
 40
0.0
 41
0.75
 50
0.0
 71
0
 42
0.2
  3
SIMHEI.SHX
  4

  0
STYLE
  2
TEXTSTYLE_8
 70
0
 40
0.0
 41
0.55
 50
0.0
 71
0
 42
0.2
  3
gdt
  4

  0
ENDTAB
  0
ENDSEC
  0
SECTION
  2
BLOCKS
  0
BLOCK
  8
LS-12V-60-W10-28359
 62
7
  6
BYLAYER
  2
SYMBOL_283_BL0
 70
64
 10
46.8476668225
 20
4.3580413197
  0
LINE
  8
LS-12V-60-W10-28359
 62
7
  6
BYLAYER
 10
43.0007748073
 20
5.3133724834
 11
43.0007748073
 21
5.045937337
  0
LINE
  8
LS-12V-60-W10-28359
 62
7
  6
BYLAYER
 10
43.2519102946
 20
5.045937337
 11
43.2519102946
 21
5.3133724834
  0
LINE
  8
LS-12V-60-W10-28359
 62
7
  6
BYLAYER
 10
43.4319827182
 20
5.3133724834
 11
43.4319827182
 21
5.045937337
  0
LINE
  8
LS-12V-60-W10-28359
 62
7
  6
BYLAYER
 10
43.6796685423
 20
5.045937337
 11
43.6796685423
 21
5.3133724834
  0
LINE
  8
LS-12V-60-W10-28359
 62
7
  6
BYLAYER
 10
43.8656053935
 20
5.3133724834
 11
43.8656053935
 21
5.045937337
  0
LINE
  8
LS-12V-60-W10-28359
 62
7
  6
BYLAYER
 10
44.1163959145
 20
5.045937337
 11
44.1163959145
 21
5.3133724834
  0
LINE
  8
LS-12V-60-W10-28359
 62
7
  6
BYLAYER
 10
45.7933572839
 20
3.3291463923
 11
46.1473497468
 21
3.3291463923
  0
LINE
  8
LS-12V-60-W10-28359
 62
7
  6
BYLAYER
 10
46.1473497468
 20
3.3291463923
 11
46.1473497468
 21
3.2718560297
  0
LINE
  8
LS-12V-60-W10-28359
 62
7
  6
BYLAYER
 10
46.1473497468
 20
3.2718560297
 11
45.883702835
 21
3.2718560297
  0
LINE
  8
LS-12V-60-W10-28359
 62
7
  6
BYLAYER
 10
45.883702835
 20
3.2718560297
 11
45.883702835
 21
3.0728892222
  0
LINE
  8
LS-12V-60-W10-28359
 62
7
  6
BYLAYER
 10
45.883702835
 20
3.0728892222
 11
46.1473497468
 21
3.0728892222
  0
LINE
  8
LS-12V-60-W10-28359
 62
7
  6
BYLAYER
 10
46.1473497468
 20
3.0728892222
 11
46.1473497468
 21
3.0163934554
  0
LINE
  8
LS-12V-60-W10-28359
 62
7
  6
BYLAYER
 10
46.1473497468
 20
3.0163934554
 11
45.883702835
 21
3.0163934554
  0
LINE
  8
LS-12V-60-W10-28359
 62
7
  6
BYLAYER
 10
45.883702835
 20
3.0163934554
 11
45.883702835
 21
2.7801601013
  0
LINE
  8
LS-12V-60-W10-28359
 62
7
  6
BYLAYER
 10
45.883702835
 20
2.7801601013
 11
46.1473497468
 21
2.7801601013
  0
LINE
  8
LS-12V-60-W10-28359
 62
7
  6
BYLAYER
 10
46.1473497468
 20
2.7801601013
 11
46.1473497468
 21
2.7260481221
  0
LINE
  8
LS-12V-60-W10-28359
 62
7
  6
BYLAYER
 10
46.1473497468
 20
2.7260481221
 11
45.7933572839
 21
2.7260481221
  0
LINE
  8
LS-12V-60-W10-28359
 62
7
  6
BYLAYER
 10
45.7933572839
 20
2.7260481221
 11
45.7933572839
 21
3.3291463923
  0
LINE
  8
LS-12V-60-W10-28359
 62
7
  6
BYLAYER
 10
48.7372952762
 20
3.0239421162
 11
48.7372952762
 21
3.0221145457
  0
ARC
  8
LS-12V-60-W10-28359
 62
7
  6
BYLAYER
 10
49.10291562
 20
3.0164005658
 40
0.3656649907
 50
179.1046442283
 51
200.8922339549
  0
ARC
  8
LS-12V-60-W10-28359
 62
7
  6
BYLAYER
 10
49.0448981934
 20
3.0057787408
 40
0.3078624918
 50
202.8963230435
 51
250.070082015
  0
ARC
  8
LS-12V-60-W10-28359
 62
7
  6
BYLAYER
 10
49.0599259632
 20
3.0513810582
 40
0.3558590418
 50
250.2981849841
 51
270.5013647429
  0
LINE
  8
LS-12V-60-W10-28359
 62
7
  6
BYLAYER
 10
49.0630398557
 20
2.6955356405
 11
49.0992336979
 21
2.6955356405
  0
LINE
  8
LS-12V-60-W10-28359
 62
7
  6
BYLAYER
 10
49.0992336979
 20
2.6955356405
 11
49.1241045488
 21
2.696409696
  0
LINE
  8
LS-12V-60-W10-28359
 62
7
  6
BYLAYER
 10
49.1241045488
 20
2.696409696
 11
49.1489753998
 21
2.6991113219
  0
LINE
  8
LS-12V-60-W10-28359
 62
7
  6
BYLAYER
 10
49.1489753998
 20
2.6991113219
 11
49.1743230082
 21
2.7036405184
  0
LINE
  8
LS-12V-60-W10-28359
 62
7
  6
BYLAYER
 10
49.1743230082
 20
2.7036405184
 11
49.2005446721
 21
2.70912323
  0
LINE
  8
LS-12V-60-W10-28359
 62
7
  6
BYLAYER
 10
49.2005446721
 20
2.70912323
 11
49.2064246816
 21
2.7108713409
  0
LINE
  8
LS-12V-60-W10-28359
 62
7
  6
BYLAYER
 10
49.2064246816
 20
2.7108713409
 11
49.2132184764
 21
2.7126989114
  0
LINE
  8
LS-12V-60-W10-28359
 62
7
  6
BYLAYER
 10
49.2132184764
 20
2.7126989114
 11
49.251239889
 21
2.7253329859
  0
LINE
  8
LS-12V-60-W10-28359
 62
7
  6
BYLAYER
 10
49.251239889
 20
2.7253329859
 11
49.2638739635
 21
2.7308156974
  0
LINE
  8
LS-12V-60-W10-28359
 62
7
  6
BYLAYER
 10
49.2638739635
 20
2.7308156974
 11
49.2765477677
 21
2.7371724644
  0
LINE
  8
LS-12V-60-W10-28359
 62
7
  6
BYLAYER
 10
49.2765477677
 20
2.7371724644
 11
49.2883077867
 21
2.7444032869
  0
LINE
  8
LS-12V-60-W10-28359
 62
7
  6
BYLAYER
 10
49.2883077867
 20
2.7444032869
 11
49.3009815909
 21
2.7525081648
  0
LINE
  8
LS-12V-60-W10-28359
 62
7
  6
BYLAYER
 10
49.3009815909
 20
2.7525081648
 11
49.3082124134
 21
2.8086066337
  0
LINE
  8
LS-12V-60-W10-28359
 62
7
  6
BYLAYER
 10
49.3082124134
 20
2.8086066337
 11
49.2720185712
 21
2.8077325782
  0
ARC
  8
LS-12V-60-W10-28359
 62
7
  6
BYLAYER
 10
49.0998875779
 20
3.0122434646
 40
0.2673084015
 50
300.1226166813
 51
310.0863647934
  0
ARC
  8
LS-12V-60-W10-28359
 62
7
  6
BYLAYER
 10
49.0831349784
 20
3.0384195504
 40
0.2983598955
 50
290.9261388757
 51
300.3825747552
  0
ARC
  8
LS-12V-60-W10-28359
 62
7
  6
BYLAYER
 10
49.0840962004
 20
3.021240297
 40
0.282019091
 50
282.3564329875
 51
291.9903650689
  0
ARC
  8
LS-12V-60-W10-28359
 62
7
  6
BYLAYER
 10
49.0733745354
 20
3.0663948646
 40
0.3284230229
 50
274.3560974414
 51
282.4978406016
  0
ARC
  8
LS-12V-60-W10-28359
 62
7
  6
BYLAYER
 10
49.1139840818
 20
2.9857573872
 40
0.2473333335
 50
247.3413638217
 51
266.3689009432
  0
ARC
  8
LS-12V-60-W10-28359
 62
7
  6
BYLAYER
 10
49.1276057983
 20
3.0138798023
 40
0.2785382026
 50
229.1447438403
 51
246.9841673426
  0
ARC
  8
LS-12V-60-W10-28359
 62
7
  6
BYLAYER
 10
49.0725370058
 20
2.9497277872
 40
0.1939928758
 50
197.9155448152
 51
229.0523049251
  0
ARC
  8
LS-12V-60-W10-28359
 62
7
  6
BYLAYER
 10
49.3025416909
 20
3.0245090223
 40
0.4358488582
 50
180.1894261358
 51
197.9684336648
  0
LINE
  8
LS-12V-60-W10-28359
 62
7
  6
BYLAYER
 10
48.8666952147
 20
3.0230680607
 11
48.8666952147
 21
3.0338745647
  0
ARC
  8
LS-12V-60-W10-28359
 62
7
  6
BYLAYER
 10
49.1860608836
 20
3.039277767
 40
0.3194113729
 50
160.1190365148
 51
180.9692687312
  0
ARC
  8
LS-12V-60-W10-28359
 62
7
  6
BYLAYER
 10
49.1126125916
 20
3.0629406862
 40
0.2423088525
 50
135.1351303734
 51
159.4747438859
  0
ARC
  8
LS-12V-60-W10-28359
 62
7
  6
BYLAYER
 10
49.1136543422
 20
3.0644871488
 40
0.2419632124
 50
95.5684905603
 51
135.5687020976
  0
LINE
  8
LS-12V-60-W10-28359
 62
7
  6
BYLAYER
 10
49.0901753049
 20
3.305308516
 11
49.0947045014
 21
3.305308516
  0
LINE
  8
LS-12V-60-W10-28359
 62
7
  6
BYLAYER
 10
49.0947045014
 20
3.305308516
 11
49.1046369499
 21
3.3039577031
  0
LINE
  8
LS-12V-60-W10-28359
 62
7
  6
BYLAYER
 10
49.1046369499
 20
3.3039577031
 11
49.1155229134
 21
3.3026068901
  0
LINE
  8
LS-12V-60-W10-28359
 62
7
  6
BYLAYER
 10
49.1155229134
 20
3.3026068901
 11
49.1521537833
 21
3.2931511991
  0
ARC
  8
LS-12V-60-W10-28359
 62
7
  6
BYLAYER
 10
49.0730093032
 20
3.0466978446
 40
0.2588495793
 50
63.4314101522
 51
72.196424709
  0
ARC
  8
LS-12V-60-W10-28359
 62
7
  6
BYLAYER
 10
49.0715383222
 20
3.0440967657
 40
0.2618339513
 50
54.371244206
 51
63.3980911646
  0
LINE
  8
LS-12V-60-W10-28359
 62
7
  6
BYLAYER
 10
49.2240647101
 20
3.2569176272
 11
49.2575569263
 21
3.2302192057
  0
LINE
  8
LS-12V-60-W10-28359
 62
7
  6
BYLAYER
 10
49.2575569263
 20
3.2302192057
 11
49.3009815909
 21
3.2302192057
  0
LINE
  8
LS-12V-60-W10-28359
 62
7
  6
BYLAYER
 10
49.3009815909
 20
3.2302192057
 11
49.3227137881
 21
3.2999052641
  0
ARC
  8
LS-12V-60-W10-28359
 62
7
  6
BYLAYER
 10
49.2117284795
 20
3.1216751602
 40
0.2099612076
 50
58.0891485033
 51
67.5454670452
  0
ARC
  8
LS-12V-60-W10-28359
 62
7
  6
BYLAYER
 10
49.1711147496
 20
3.0076513075
 40
0.3309072331
 50
68.5873384549
 51
81.3423857767
  0
LINE
  8
LS-12V-60-W10-28359
 62
7
  6
BYLAYER
 10
49.2209260564
 20
3.3347880231
 11
49.1833814012
 21
3.338840462
  0
LINE
  8
LS-12V-60-W10-28359
 62
7
  6
BYLAYER
 10
49.1833814012
 20
3.338840462
 11
49.1444462033
 21
3.341542088
  0
ARC
  8
LS-12V-60-W10-28359
 62
7
  6
BYLAYER
 10
49.1399134703
 20
3.4351671518
 40
0.0937347227
 50
261.6918862418
 51
272.7717347723
  0
ARC
  8
LS-12V-60-W10-28359
 62
7
  6
BYLAYER
 10
49.1218234481
 20
3.4286340875
 40
0.0863376931
 50
260.9563938617
 51
273.01803113
  0
LINE
  8
LS-12V-60-W10-28359
 62
7
  6
BYLAYER
 10
49.1082523611
 20
3.3433696585
 11
49.0720585189
 21
3.3424161435
  0
ARC
  8
LS-12V-60-W10-28359
 62
7
  6
BYLAYER
 10
49.0664480329
 20
2.962387258
 40
0.3800702979
 50
89.1541858308
 51
110.4524797124
  0
ARC
  8
LS-12V-60-W10-28359
 62
7
  6
BYLAYER
 10
49.0380974102
 20
3.0484521665
 40
0.2895454303
 50
111.1471074556
 51
136.8410387207
  0
ARC
  8
LS-12V-60-W10-28359
 62
7
  6
BYLAYER
 10
49.0755460766
 20
3.0124180989
 40
0.34151154
 50
136.728707552
 51
157.5391803557
  0
ARC
  8
LS-12V-60-W10-28359
 62
7
  6
BYLAYER
 10
49.0497017653
 20
3.026097112
 40
0.3124139217
 50
158.0467340334
 51
180.395222912
  0
LINE
  8
LS-12V-60-W10-28359
 62
7
  6
BYLAYER
 10
49.6647078533
 20
3.0239421162
 11
49.6647078533
 21
3.0221145457
  0
ARC
  8
LS-12V-60-W10-28359
 62
7
  6
BYLAYER
 10
50.0303281972
 20
3.0164005658
 40
0.3656649907
 50
179.1046442283
 51
200.8922339548
  0
ARC
  8
LS-12V-60-W10-28359
 62
7
  6
BYLAYER
 10
49.9723107705
 20
3.0057787408
 40
0.3078624918
 50
202.8963230435
 51
250.0700820149
  0
ARC
  8
LS-12V-60-W10-28359
 62
7
  6
BYLAYER
 10
49.9873385403
 20
3.0513810582
 40
0.3558590418
 50
250.2981849841
 51
270.5013647429
  0
LINE
  8
LS-12V-60-W10-28359
 62
7
  6
BYLAYER
 10
49.9904524329
 20
2.6955356405
 11
50.026646275
 21
2.6955356405
  0
LINE
  8
LS-12V-60-W10-28359
 62
7
  6
BYLAYER
 10
50.026646275
 20
2.6955356405
 11
50.051517126
 21
2.696409696
  0
LINE
  8
LS-12V-60-W10-28359
 62
7
  6
BYLAYER
 10
50.051517126
 20
2.696409696
 11
50.0763879769
 21
2.6991113219
  0
LINE
  8
LS-12V-60-W10-28359
 62
7
  6
BYLAYER
 10
50.0763879769
 20
2.6991113219
 11
50.1017355854
 21
2.7036405184
  0
LINE
  8
LS-12V-60-W10-28359
 62
7
  6
BYLAYER
 10
50.1017355854
 20
2.7036405184
 11
50.1279572493
 21
2.70912323
  0
LINE
  8
LS-12V-60-W10-28359
 62
7
  6
BYLAYER
 10
50.1279572493
 20
2.70912323
 11
50.1338372588
 21
2.7108713409
  0
LINE
  8
LS-12V-60-W10-28359
 62
7
  6
BYLAYER
 10
50.1338372588
 20
2.7108713409
 11
50.1406310535
 21
2.7126989114
  0
LINE
  8
LS-12V-60-W10-28359
 62
7
  6
BYLAYER
 10
50.1406310535
 20
2.7126989114
 11
50.1786524662
 21
2.7253329859
  0
LINE
  8
LS-12V-60-W10-28359
 62
7
  6
BYLAYER
 10
50.1786524662
 20
2.7253329859
 11
50.1912865406
 21
2.7308156974
  0
LINE
  8
LS-12V-60-W10-28359
 62
7
  6
BYLAYER
 10
50.1912865406
 20
2.7308156974
 11
50.2039603449
 21
2.7371724644
  0
LINE
  8
LS-12V-60-W10-28359
 62
7
  6
BYLAYER
 10
50.2039603449
 20
2.7371724644
 11
50.2157203638
 21
2.7444032869
  0
LINE
  8
LS-12V-60-W10-28359
 62
7
  6
BYLAYER
 10
50.2157203638
 20
2.7444032869
 11
50.2283941681
 21
2.7525081648
  0
LINE
  8
LS-12V-60-W10-28359
 62
7
  6
BYLAYER
 10
50.2283941681
 20
2.7525081648
 11
50.2356249905
 21
2.8086066337
  0
LINE
  8
LS-12V-60-W10-28359
 62
7
  6
BYLAYER
 10
50.2356249905
 20
2.8086066337
 11
50.1994311484
 21
2.8077325782
  0
ARC
  8
LS-12V-60-W10-28359
 62
7
  6
BYLAYER
 10
50.027300155
 20
3.0122434646
 40
0.2673084015
 50
300.1226166814
 51
310.0863647934
  0
ARC
  8
LS-12V-60-W10-28359
 62
7
  6
BYLAYER
 10
50.0105475556
 20
3.0384195504
 40
0.2983598955
 50
290.9261388756
 51
300.3825747552
  0
ARC
  8
LS-12V-60-W10-28359
 62
7
  6
BYLAYER
 10
50.0115087775
 20
3.021240297
 40
0.282019091
 50
282.3564329875
 51
291.990365069
  0
ARC
  8
LS-12V-60-W10-28359
 62
7
  6
BYLAYER
 10
50.0007871126
 20
3.0663948646
 40
0.3284230229
 50
274.3560974413
 51
282.4978406017
  0
ARC
  8
LS-12V-60-W10-28359
 62
7
  6
BYLAYER
 10
50.0413966589
 20
2.9857573872
 40
0.2473333335
 50
247.3413638216
 51
266.3689009432
  0
ARC
  8
LS-12V-60-W10-28359
 62
7
  6
BYLAYER
 10
50.0550183754
 20
3.0138798023
 40
0.2785382026
 50
229.1447438403
 51
246.9841673426
  0
ARC
  8
LS-12V-60-W10-28359
 62
7
  6
BYLAYER
 10
49.999949583
 20
2.9497277872
 40
0.1939928758
 50
197.9155448152
 51
229.0523049251
  0
ARC
  8
LS-12V-60-W10-28359
 62
7
  6
BYLAYER
 10
50.229954268
 20
3.0245090223
 40
0.4358488582
 50
180.1894261358
 51
197.9684336648
  0
LINE
  8
LS-12V-60-W10-28359
 62
7
  6
BYLAYER
 10
49.7941077918
 20
3.0230680607
 11
49.7941077918
 21
3.0338745647
  0
ARC
  8
LS-12V-60-W10-28359
 62
7
  6
BYLAYER
 10
50.1134734608
 20
3.039277767
 40
0.3194113729
 50
160.1190365147
 51
180.9692687312
  0
ARC
  8
LS-12V-60-W10-28359
 62
7
  6
BYLAYER
 10
50.0400251688
 20
3.0629406862
 40
0.2423088525
 50
135.1351303734
 51
159.4747438859
  0
ARC
  8
LS-12V-60-W10-28359
 62
7
  6
BYLAYER
 10
50.0410669194
 20
3.0644871488
 40
0.2419632124
 50
95.5684905604
 51
135.5687020976
  0
LINE
  8
LS-12V-60-W10-28359
 62
7
  6
BYLAYER
 10
50.0175878821
 20
3.305308516
 11
50.0221170785
 21
3.305308516
  0
LINE
  8
LS-12V-60-W10-28359
 62
7
  6
BYLAYER
 10
50.0221170785
 20
3.305308516
 11
50.032049527
 21
3.3039577031
  0
LINE
  8
LS-12V-60-W10-28359
 62
7
  6
BYLAYER
 10
50.032049527
 20
3.3039577031
 11
50.0429354905
 21
3.3026068901
  0
LINE
  8
LS-12V-60-W10-28359
 62
7
  6
BYLAYER
 10
50.0429354905
 20
3.3026068901
 11
50.0795663604
 21
3.2931511991
  0
ARC
  8
LS-12V-60-W10-28359
 62
7
  6
BYLAYER
 10
50.0002120184
 20
3.046184909
 40
0.2594021204
 50
54.3289773468
 51
72.1869316133
  0
LINE
  8
LS-12V-60-W10-28359
 62
7
  6
BYLAYER
 10
50.1514772872
 20
3.2569176272
 11
50.1849695034
 21
3.2302192057
  0
LINE
  8
LS-12V-60-W10-28359
 62
7
  6
BYLAYER
 10
50.1849695034
 20
3.2302192057
 11
50.2283941681
 21
3.2302192057
  0
LINE
  8
LS-12V-60-W10-28359
 62
7
  6
BYLAYER
 10
50.2283941681
 20
3.2302192057
 11
50.2501263653
 21
3.2999052641
  0
ARC
  8
LS-12V-60-W10-28359
 62
7
  6
BYLAYER
 10
50.1391410566
 20
3.1216751602
 40
0.2099612076
 50
58.0891485032
 51
67.5454670453
  0
ARC
  8
LS-12V-60-W10-28359
 62
7
  6
BYLAYER
 10
50.0985273267
 20
3.0076513075
 40
0.3309072331
 50
68.5873384549
 51
81.3423857767
  0
LINE
  8
LS-12V-60-W10-28359
 62
7
  6
BYLAYER
 10
50.1483386335
 20
3.3347880231
 11
50.1107939784
 21
3.338840462
  0
LINE
  8
LS-12V-60-W10-28359
 62
7
  6
BYLAYER
 10
50.1107939784
 20
3.338840462
 11
50.0718587804
 21
3.341542088
  0
ARC
  8
LS-12V-60-W10-28359
 62
7
  6
BYLAYER
 10
50.0673260475
 20
3.4351671518
 40
0.0937347227
 50
261.6918862419
 51
272.7717347724
  0
ARC
  8
LS-12V-60-W10-28359
 62
7
  6
BYLAYER
 10
50.0492360253
 20
3.4286340875
 40
0.0863376931
 50
260.9563938617
 51
273.01803113
  0
LINE
  8
LS-12V-60-W10-28359
 62
7
  6
BYLAYER
 10
50.0356649382
 20
3.3433696585
 11
49.9994710961
 21
3.3424161435
  0
ARC
  8
LS-12V-60-W10-28359
 62
7
  6
BYLAYER
 10
49.9938606101
 20
2.962387258
 40
0.3800702979
 50
89.1541858308
 51
110.4524797125
  0
ARC
  8
LS-12V-60-W10-28359
 62
7
  6
BYLAYER
 10
49.9655099874
 20
3.0484521665
 40
0.2895454303
 50
111.1471074555
 51
136.8410387208
  0
ARC
  8
LS-12V-60-W10-28359
 62
7
  6
BYLAYER
 10
50.0029586538
 20
3.0124180989
 40
0.34151154
 50
136.728707552
 51
157.5391803557
  0
ARC
  8
LS-12V-60-W10-28359
 62
7
  6
BYLAYER
 10
49.9771143425
 20
3.026097112
 40
0.3124139217
 50
158.0467340334
 51
180.3952229121
  0
LINE
  8
LS-12V-60-W10-28359
 62
7
  6
BYLAYER
 10
46.3559708942
 20
3.3362182956
 11
46.7433761137
 21
2.9100765271
  0
LINE
  8
LS-12V-60-W10-28359
 62
7
  6
BYLAYER
 10
46.7433761137
 20
2.9100765271
 11
46.7433761137
 21
3.3362182956
  0
LINE
  8
LS-12V-60-W10-28359
 62
7
  6
BYLAYER
 10
46.7433761137
 20
3.3362182956
 11
46.8340395032
 21
3.3362182956
  0
LINE
  8
LS-12V-60-W10-28359
 62
7
  6
BYLAYER
 10
46.8340395032
 20
3.3362182956
 11
46.8340395032
 21
2.7260481221
  0
LINE
  8
LS-12V-60-W10-28359
 62
7
  6
BYLAYER
 10
46.8340395032
 20
2.7260481221
 11
46.7644726342
 21
2.7260481221
  0
LINE
  8
LS-12V-60-W10-28359
 62
7
  6
BYLAYER
 10
46.7644726342
 20
2.7260481221
 11
46.3691611857
 21
3.1653007226
  0
LINE
  8
LS-12V-60-W10-28359
 62
7
  6
BYLAYER
 10
46.3691611857
 20
3.1653007226
 11
46.3691611857
 21
2.7260481221
  0
LINE
  8
LS-12V-60-W10-28359
 62
7
  6
BYLAYER
 10
46.3691611857
 20
2.7260481221
 11
46.2784580664
 21
2.7260481221
  0
LINE
  8
LS-12V-60-W10-28359
 62
7
  6
BYLAYER
 10
46.2784580664
 20
2.7260481221
 11
46.2784580664
 21
3.3362182956
  0
LINE
  8
LS-12V-60-W10-28359
 62
7
  6
BYLAYER
 10
46.2784580664
 20
3.3362182956
 11
46.3559708942
 21
3.3362182956
  0
LINE
  8
LS-12V-60-W10-28359
 62
7
  6
BYLAYER
 10
49.5530652558
 20
4.9286487852
 11
49.5530652558
 21
5.0811239025
  0
LINE
  8
LS-12V-60-W10-28359
 62
7
  6
BYLAYER
 10
49.5530652558
 20
5.0811239025
 11
48.6616722623
 21
5.0811239025
  0
LINE
  8
LS-12V-60-W10-28359
 62
7
  6
BYLAYER
 10
48.6616722623
 20
5.0811239025
 11
48.6616722623
 21
4.9286487852
  0
LINE
  8
LS-12V-60-W10-28359
 62
7
  6
BYLAYER
 10
48.6616722623
 20
4.9286487852
 11
49.5530652558
 21
4.9286487852
  0
LINE
  8
LS-12V-60-W10-28359
 62
7
  6
BYLAYER
 10
48.6616722623
 20
5.200740977
 11
49.5530652558
 21
5.200740977
  0
LINE
  8
LS-12V-60-W10-28359
 62
7
  6
BYLAYER
 10
49.5530652558
 20
5.200740977
 11
49.5530652558
 21
5.3579593814
  0
LINE
  8
LS-12V-60-W10-28359
 62
7
  6
BYLAYER
 10
49.5530652558
 20
5.3579593814
 11
48.6616722623
 21
5.3579593814
  0
LINE
  8
LS-12V-60-W10-28359
 62
7
  6
BYLAYER
 10
48.6616722623
 20
5.3579593814
 11
48.6616722623
 21
5.200740977
  0
LINE
  8
LS-12V-60-W10-28359
 62
7
  6
BYLAYER
 10
49.5530652558
 20
5.6207374823
 11
48.6616722623
 21
5.6207374823
  0
LINE
  8
LS-12V-60-W10-28359
 62
7
  6
BYLAYER
 10
48.6616722623
 20
5.6207374823
 11
48.6616722623
 21
5.4776626975
  0
LINE
  8
LS-12V-60-W10-28359
 62
7
  6
BYLAYER
 10
48.6616722623
 20
5.4776626975
 11
49.5530652558
 21
5.4776626975
  0
LINE
  8
LS-12V-60-W10-28359
 62
7
  6
BYLAYER
 10
49.5530652558
 20
5.4776626975
 11
49.5530652558
 21
5.6207374823
  0
LINE
  8
LS-12V-60-W10-28359
 62
7
  6
BYLAYER
 10
42.2011225802
 20
4.8231432717
 11
42.2011225802
 21
3.8822690751
  0
LINE
  8
LS-12V-60-W10-28359
 62
7
  6
BYLAYER
 10
42.4163680374
 20
3.8822690751
 11
42.2011225802
 21
3.8822690751
  0
LINE
  8
LS-12V-60-W10-28359
 62
7
  6
BYLAYER
 10
42.4163680374
 20
3.8830677596
 11
42.4163680374
 21
5.074006099
  0
LINE
  8
LS-12V-60-W10-28359
 62
7
  6
BYLAYER
 10
42.4163680374
 20
5.074006099
 11
42.6906038206
 21
5.363171624
  0
LINE
  8
LS-12V-60-W10-28359
 62
7
  6
BYLAYER
 10
42.4771331767
 20
5.4870373063
 11
42.6906038206
 21
5.363171624
  0
LINE
  8
LS-12V-60-W10-28359
 62
7
  6
BYLAYER
 10
41.8542224241
 20
4.7698973175
 11
41.9773816854
 21
4.5931256014
  0
LINE
  8
LS-12V-60-W10-28359
 62
7
  6
BYLAYER
 10
41.8810714558
 20
5.3858185089
 11
42.0387835297
 21
5.2327089273
  0
LINE
  8
LS-12V-60-W10-28359
 62
7
  6
BYLAYER
 10
42.0387835297
 20
5.2327089273
 11
42.6628093978
 21
5.8552936271
  0
LINE
  8
LS-12V-60-W10-28359
 62
7
  6
BYLAYER
 10
42.6628093978
 20
5.8552936271
 11
42.3879111112
 21
5.9510915148
  0
LINE
  8
LS-12V-60-W10-28359
 62
7
  6
BYLAYER
 10
42.7174720723
 20
5.7652487436
 11
42.7174720723
 21
5.6059062857
  0
LINE
  8
LS-12V-60-W10-28359
 62
7
  6
BYLAYER
 10
42.7189437711
 20
5.6059371097
 11
43.3748999565
 21
5.6196757692
  0
LINE
  8
LS-12V-60-W10-28359
 62
7
  6
BYLAYER
 10
42.7174720723
 20
5.7652487436
 11
43.396251767
 21
5.7536654723
  0
LINE
  8
LS-12V-60-W10-28359
 62
7
  6
BYLAYER
 10
43.3968939528
 20
5.988063316
 11
43.396251767
 21
5.7536654723
  0
LINE
  8
LS-12V-60-W10-28359
 62
7
  6
BYLAYER
 10
43.6815638385
 20
5.9491084896
 11
43.602123922
 21
5.7541985304
  0
LINE
  8
LS-12V-60-W10-28359
 62
7
  6
BYLAYER
 10
43.6815638385
 20
5.9491084896
 11
43.3968939528
 21
5.988063316
  0
LINE
  8
LS-12V-60-W10-28359
 62
7
  6
BYLAYER
 10
43.602123922
 20
5.7541985304
 11
44.4352426371
 21
5.7605620251
  0
LINE
  8
LS-12V-60-W10-28359
 62
7
  6
BYLAYER
 10
44.4352426371
 20
5.607551372
 11
43.5608699194
 21
5.6189128844
  0
LINE
  8
LS-12V-60-W10-28359
 62
7
  6
BYLAYER
 10
43.5608699194
 20
5.6189128844
 11
43.5205391502
 21
5.442712235
  0
LINE
  8
LS-12V-60-W10-28359
 62
7
  6
BYLAYER
 10
43.3752762701
 20
5.6213244699
 11
43.3346849383
 21
5.4434862094
  0
LINE
  8
LS-12V-60-W10-28359
 62
7
  6
BYLAYER
 10
43.3346849383
 20
5.4434862094
 11
42.8060072785
 21
5.4574508133
  0
LINE
  8
LS-12V-60-W10-28359
 62
7
  6
BYLAYER
 10
42.8060072785
 20
5.4574508133
 11
42.8036752226
 21
4.9049990298
  0
LINE
  8
LS-12V-60-W10-28359
 62
7
  6
BYLAYER
 10
42.8036752226
 20
4.9049990298
 11
44.316912961
 21
4.9047712355
  0
LINE
  8
LS-12V-60-W10-28359
 62
7
  6
BYLAYER
 10
44.3194283108
 20
5.4566389874
 11
44.316912961
 21
4.9047712355
  0
LINE
  8
LS-12V-60-W10-28359
 62
7
  6
BYLAYER
 10
44.3194283108
 20
5.4566389874
 11
43.5205391502
 21
5.442712235
  0
LINE
  8
LS-12V-60-W10-28359
 62
7
  6
BYLAYER
 10
43.4319827182
 20
5.3133724834
 11
43.6796685423
 21
5.3133724834
  0
LINE
  8
LS-12V-60-W10-28359
 62
7
  6
BYLAYER
 10
43.8687100904
 20
5.3133724834
 11
44.1163959145
 21
5.3133724834
  0
LINE
  8
LS-12V-60-W10-28359
 62
7
  6
BYLAYER
 10
43.0042244705
 20
5.3133724834
 11
43.2519102946
 21
5.3133724834
  0
LINE
  8
LS-12V-60-W10-28359
 62
7
  6
BYLAYER
 10
43.0042244705
 20
5.045937337
 11
43.2519102946
 21
5.045937337
  0
LINE
  8
LS-12V-60-W10-28359
 62
7
  6
BYLAYER
 10
43.4319827182
 20
5.045937337
 11
43.6796685423
 21
5.045937337
  0
LINE
  8
LS-12V-60-W10-28359
 62
7
  6
BYLAYER
 10
43.8687100904
 20
5.045937337
 11
44.1163959145
 21
5.045937337
  0
LINE
  8
LS-12V-60-W10-28359
 62
7
  6
BYLAYER
 10
42.6469881702
 20
4.6277802227
 11
44.3941103883
 21
4.6306863525
  0
LINE
  8
LS-12V-60-W10-28359
 62
7
  6
BYLAYER
 10
44.3941103883
 20
4.6342698105
 11
44.3941103883
 21
4.784151079
  0
LINE
  8
LS-12V-60-W10-28359
 62
7
  6
BYLAYER
 10
44.3941103883
 20
4.784151079
 11
42.6469881702
 21
4.785968548
  0
LINE
  8
LS-12V-60-W10-28359
 62
7
  6
BYLAYER
 10
42.6469881702
 20
4.7858283481
 11
42.6469881702
 21
4.6277802227
  0
LINE
  8
LS-12V-60-W10-28359
 62
7
  6
BYLAYER
 10
42.7484323812
 20
4.4667213539
 11
42.5115058202
 21
4.0257546947
  0
LINE
  8
LS-12V-60-W10-28359
 62
7
  6
BYLAYER
 10
42.5161469634
 20
4.0243950566
 11
42.7508916987
 21
3.955625815
  0
LINE
  8
LS-12V-60-W10-28359
 62
7
  6
BYLAYER
 10
42.944158847
 20
4.4389258795
 11
42.7508916987
 21
3.955625815
  0
LINE
  8
LS-12V-60-W10-28359
 62
7
  6
BYLAYER
 10
42.944158847
 20
4.4389258795
 11
42.7484323812
 21
4.4667213539
  0
LINE
  8
LS-12V-60-W10-28359
 62
7
  6
BYLAYER
 10
43.0511224982
 20
4.4960663
 11
43.2519102946
 21
4.4841109961
  0
LINE
  8
LS-12V-60-W10-28359
 62
7
  6
BYLAYER
 10
43.2519916355
 20
4.4841061529
 11
43.2519916355
 21
4.1259557243
  0
LINE
  8
LS-12V-60-W10-28359
 62
7
  6
BYLAYER
 10
43.0511224982
 20
4.4960663
 11
43.0511224982
 21
3.9955631382
  0
LINE
  8
LS-12V-60-W10-28359
 62
7
  6
BYLAYER
 10
43.0511224982
 20
3.9955631382
 11
43.3887663463
 21
3.9429690928
  0
LINE
  8
LS-12V-60-W10-28359
 62
7
  6
BYLAYER
 10
43.3887663463
 20
3.9429690928
 11
43.751868261
 21
3.9470623505
  0
LINE
  8
LS-12V-60-W10-28359
 62
7
  6
BYLAYER
 10
43.751868261
 20
3.9470623505
 11
44.0197270559
 21
4.0296263548
  0
LINE
  8
LS-12V-60-W10-28359
 62
7
  6
BYLAYER
 10
44.0197270559
 20
4.0296263548
 11
44.1220305592
 21
4.199671367
  0
LINE
  8
LS-12V-60-W10-28359
 62
7
  6
BYLAYER
 10
44.1220305592
 20
4.199671367
 11
43.9042417577
 21
4.2862169655
  0
LINE
  8
LS-12V-60-W10-28359
 62
7
  6
BYLAYER
 10
43.9042417577
 20
4.2862169655
 11
43.8771618829
 21
4.1629068212
  0
LINE
  8
LS-12V-60-W10-28359
 62
7
  6
BYLAYER
 10
43.8771618829
 20
4.1629068212
 11
43.7776258342
 21
4.0993115724
  0
LINE
  8
LS-12V-60-W10-28359
 62
7
  6
BYLAYER
 10
43.7776258342
 20
4.0993115724
 11
43.5590858036
 21
4.0863329502
  0
LINE
  8
LS-12V-60-W10-28359
 62
7
  6
BYLAYER
 10
43.5590858036
 20
4.0863329502
 11
43.3386488975
 21
4.0946193013
  0
LINE
  8
LS-12V-60-W10-28359
 62
7
  6
BYLAYER
 10
43.3386488975
 20
4.0946193013
 11
43.2519916355
 21
4.1259557243
  0
LINE
  8
LS-12V-60-W10-28359
 62
7
  6
BYLAYER
 10
43.6381378744
 20
4.5948444139
 11
43.7900221556
 21
4.3030172834
  0
LINE
  8
LS-12V-60-W10-28359
 62
7
  6
BYLAYER
 10
43.7900221556
 20
4.3030172834
 11
43.5589915552
 21
4.236775294
  0
LINE
  8
LS-12V-60-W10-28359
 62
7
  6
BYLAYER
 10
43.5589915552
 20
4.236775294
 11
43.4173376122
 21
4.5443329156
  0
LINE
  8
LS-12V-60-W10-28359
 62
7
  6
BYLAYER
 10
43.4173376122
 20
4.5443329156
 11
43.6381378744
 21
4.5948444139
  0
LINE
  8
LS-12V-60-W10-28359
 62
7
  6
BYLAYER
 10
43.9513519897
 20
4.4417612749
 11
44.1320708601
 21
4.5448840597
  0
LINE
  8
LS-12V-60-W10-28359
 62
7
  6
BYLAYER
 10
44.1320708601
 20
4.5448840597
 11
44.5492349435
 21
4.1892428636
  0
LINE
  8
LS-12V-60-W10-28359
 62
7
  6
BYLAYER
 10
44.5492349435
 20
4.1892428636
 11
44.3295361623
 21
4.0544872866
  0
LINE
  8
LS-12V-60-W10-28359
 62
7
  6
BYLAYER
 10
44.3295361623
 20
4.0544872866
 11
43.9513519897
 21
4.4417612749
  0
LINE
  8
LS-12V-60-W10-28359
 62
7
  6
BYLAYER
 10
45.0598616107
 20
4.5131540029
 11
44.8525379361
 21
4.0298347742
  0
LINE
  8
LS-12V-60-W10-28359
 62
7
  6
BYLAYER
 10
44.8525379361
 20
4.0298347742
 11
45.1334202492
 21
3.9852628391
  0
LINE
  8
LS-12V-60-W10-28359
 62
7
  6
BYLAYER
 10
45.1334202492
 20
3.9852628391
 11
45.3054190098
 21
4.4658264155
  0
LINE
  8
LS-12V-60-W10-28359
 62
7
  6
BYLAYER
 10
45.3063111448
 20
4.4683190356
 11
45.0598616107
 21
4.5131540029
  0
LINE
  8
LS-12V-60-W10-28359
 62
7
  6
BYLAYER
 10
45.5433312968
 20
4.555774142
 11
45.5459370778
 21
4.0663216056
  0
LINE
  8
LS-12V-60-W10-28359
 62
7
  6
BYLAYER
 10
45.5459370778
 20
4.0663216056
 11
45.5985265277
 21
3.9737184438
  0
LINE
  8
LS-12V-60-W10-28359
 62
7
  6
BYLAYER
 10
45.5985265277
 20
3.9737184438
 11
45.7907099717
 21
3.9229021462
  0
LINE
  8
LS-12V-60-W10-28359
 62
7
  6
BYLAYER
 10
45.7907099717
 20
3.9229021462
 11
46.5946856987
 21
3.925398035
  0
LINE
  8
LS-12V-60-W10-28359
 62
7
  6
BYLAYER
 10
46.5946856987
 20
3.925398035
 11
46.7476337695
 21
3.9597414661
  0
LINE
  8
LS-12V-60-W10-28359
 62
7
  6
BYLAYER
 10
46.7476337695
 20
3.9597414661
 11
46.8651402181
 21
4.0543855725
  0
LINE
  8
LS-12V-60-W10-28359
 62
7
  6
BYLAYER
 10
46.8651402181
 20
4.0543855725
 11
46.9682430802
 21
4.2569717282
  0
LINE
  8
LS-12V-60-W10-28359
 62
7
  6
BYLAYER
 10
46.9682430802
 20
4.2569717282
 11
46.6938326938
 21
4.3602896592
  0
LINE
  8
LS-12V-60-W10-28359
 62
7
  6
BYLAYER
 10
46.6899959815
 20
4.3617342152
 11
46.6597784808
 21
4.2161191721
  0
LINE
  8
LS-12V-60-W10-28359
 62
7
  6
BYLAYER
 10
46.6597784808
 20
4.2161191721
 11
46.6264334053
 21
4.1456352701
  0
LINE
  8
LS-12V-60-W10-28359
 62
7
  6
BYLAYER
 10
46.6264334053
 20
4.1456352701
 11
46.5563488455
 21
4.0997109146
  0
LINE
  8
LS-12V-60-W10-28359
 62
7
  6
BYLAYER
 10
46.5563488455
 20
4.0997109146
 11
46.3850310325
 21
4.0761497236
  0
LINE
  8
LS-12V-60-W10-28359
 62
7
  6
BYLAYER
 10
46.3850310325
 20
4.0761497236
 11
45.9423601802
 21
4.076948408
  0
LINE
  8
LS-12V-60-W10-28359
 62
7
  6
BYLAYER
 10
45.9423601802
 20
4.076948408
 11
45.8331400827
 21
4.0972150258
  0
LINE
  8
LS-12V-60-W10-28359
 62
7
  6
BYLAYER
 10
45.8331400827
 20
4.0972150258
 11
45.7954022428
 21
4.142740039
  0
LINE
  8
LS-12V-60-W10-28359
 62
7
  6
BYLAYER
 10
45.7954022428
 20
4.142740039
 11
45.7874153984
 21
4.4217804161
  0
LINE
  8
LS-12V-60-W10-28359
 62
7
  6
BYLAYER
 10
45.7874153984
 20
4.4217804161
 11
45.8369852961
 21
4.5305382515
  0
LINE
  8
LS-12V-60-W10-28359
 62
7
  6
BYLAYER
 10
45.8369852961
 20
4.5305382515
 11
45.5433312968
 21
4.555774142
  0
LINE
  8
LS-12V-60-W10-28359
 62
7
  6
BYLAYER
 10
46.0360313163
 20
4.5770439992
 11
46.2879638631
 21
4.2558918053
  0
LINE
  8
LS-12V-60-W10-28359
 62
7
  6
BYLAYER
 10
46.2879638631
 20
4.2558918053
 11
46.5227827015
 21
4.3471564467
  0
LINE
  8
LS-12V-60-W10-28359
 62
7
  6
BYLAYER
 10
46.5227827015
 20
4.3471564467
 11
46.263279726
 21
4.6521158381
  0
LINE
  8
LS-12V-60-W10-28359
 62
7
  6
BYLAYER
 10
46.263279726
 20
4.6521158381
 11
46.0360313163
 21
4.5770439992
  0
LINE
  8
LS-12V-60-W10-28359
 62
7
  6
BYLAYER
 10
46.9007639332
 20
4.485401637
 11
47.2994741302
 21
4.0881338646
  0
LINE
  8
LS-12V-60-W10-28359
 62
7
  6
BYLAYER
 10
47.2994741302
 20
4.0881338646
 11
47.5365960821
 21
4.2289923003
  0
LINE
  8
LS-12V-60-W10-28359
 62
7
  6
BYLAYER
 10
47.5290127851
 20
4.2244875662
 11
47.085432344
 21
4.5970533633
  0
LINE
  8
LS-12V-60-W10-28359
 62
7
  6
BYLAYER
 10
47.085432344
 20
4.5970533633
 11
46.9007639332
 21
4.485401637
  0
LINE
  8
LS-12V-60-W10-28359
 62
7
  6
BYLAYER
 10
47.1259741751
 20
5.8774556507
 11
47.1262430005
 21
4.6881719722
  0
LINE
  8
LS-12V-60-W10-28359
 62
7
  6
BYLAYER
 10
47.1262430005
 20
4.6881719722
 11
45.1532738512
 21
4.6891973055
  0
LINE
  8
LS-12V-60-W10-28359
 62
7
  6
BYLAYER
 10
45.1532738512
 20
4.6891973055
 11
45.1605869354
 21
5.8741764919
  0
LINE
  8
LS-12V-60-W10-28359
 62
7
  6
BYLAYER
 10
45.1605869354
 20
5.8741764919
 11
47.1259741751
 21
5.8774556507
  0
LINE
  8
LS-12V-60-W10-28359
 62
7
  6
BYLAYER
 10
45.4062250177
 20
5.7145683237
 11
45.4062250177
 21
4.8465180518
  0
LINE
  8
LS-12V-60-W10-28359
 62
7
  6
BYLAYER
 10
45.4062250177
 20
4.8465180518
 11
46.873366814
 21
4.8465180518
  0
LINE
  8
LS-12V-60-W10-28359
 62
7
  6
BYLAYER
 10
46.873366814
 20
4.8465180518
 11
46.873366814
 21
5.7145683237
  0
LINE
  8
LS-12V-60-W10-28359
 62
7
  6
BYLAYER
 10
46.873366814
 20
5.7145683237
 11
45.4062250177
 21
5.7145683237
  0
LINE
  8
LS-12V-60-W10-28359
 62
7
  6
BYLAYER
 10
45.6127031766
 20
5.4787394403
 11
46.0217148851
 21
5.4766439912
  0
LINE
  8
LS-12V-60-W10-28359
 62
7
  6
BYLAYER
 10
46.0328111934
 20
5.6399738621
 11
46.0217148851
 21
5.4766439912
  0
LINE
  8
LS-12V-60-W10-28359
 62
7
  6
BYLAYER
 10
46.2804033706
 20
5.6051312533
 11
46.2375789823
 21
5.4655150078
  0
LINE
  8
LS-12V-60-W10-28359
 62
7
  6
BYLAYER
 10
46.2375789823
 20
5.4655150078
 11
46.6961186229
 21
5.4796694219
  0
LINE
  8
LS-12V-60-W10-28359
 62
7
  6
BYLAYER
 10
46.6961186229
 20
5.4796694219
 11
46.6961186229
 21
5.3231860836
  0
LINE
  8
LS-12V-60-W10-28359
 62
7
  6
BYLAYER
 10
46.6961186229
 20
5.3231860836
 11
46.2047900063
 21
5.3397191432
  0
LINE
  8
LS-12V-60-W10-28359
 62
7
  6
BYLAYER
 10
46.2047900063
 20
5.3397191432
 11
46.1717329222
 21
5.2578946775
  0
LINE
  8
LS-12V-60-W10-28359
 62
7
  6
BYLAYER
 10
46.1717329222
 20
5.2578946775
 11
46.7424867129
 21
5.0570738993
  0
LINE
  8
LS-12V-60-W10-28359
 62
7
  6
BYLAYER
 10
46.0016435485
 20
5.3397881623
 11
45.6103071232
 21
5.3242938362
  0
LINE
  8
LS-12V-60-W10-28359
 62
7
  6
BYLAYER
 10
45.5921370522
 20
5.4543795648
 11
45.5921370522
 21
5.3276882451
  0
LINE
  8
LS-12V-60-W10-28359
 62
7
  6
BYLAYER
 10
46.0016435485
 20
5.3397881623
 11
45.9298807358
 21
5.2217627209
  0
LINE
  8
LS-12V-60-W10-28359
 62
7
  6
BYLAYER
 10
45.9298807358
 20
5.2217627209
 11
45.8152695183
 21
5.1294148322
  0
LINE
  8
LS-12V-60-W10-28359
 62
7
  6
BYLAYER
 10
45.8152695183
 20
5.1294148322
 11
45.6412561454
 21
5.0619259968
  0
LINE
  8
LS-12V-60-W10-28359
 62
7
  6
BYLAYER
 10
45.6412561454
 20
5.0619259968
 11
45.4894245683
 21
5.0262239981
  0
LINE
  8
LS-12V-60-W10-28359
 62
7
  6
BYLAYER
 10
45.4894245683
 20
5.0262239981
 11
45.5877442877
 21
4.9519072149
  0
LINE
  8
LS-12V-60-W10-28359
 62
7
  6
BYLAYER
 10
45.5877442877
 20
4.9519072149
 11
45.6496862492
 21
4.8840713145
  0
LINE
  8
LS-12V-60-W10-28359
 62
7
  6
BYLAYER
 10
45.6496862492
 20
4.8840713145
 11
45.8453200205
 21
4.9600937304
  0
LINE
  8
LS-12V-60-W10-28359
 62
7
  6
BYLAYER
 10
45.8453200205
 20
4.9600937304
 11
46.006853949
 21
5.0570340546
  0
LINE
  8
LS-12V-60-W10-28359
 62
7
  6
BYLAYER
 10
46.006853949
 20
5.0570340546
 11
46.0943840785
 21
5.1424610575
  0
LINE
  8
LS-12V-60-W10-28359
 62
7
  6
BYLAYER
 10
46.0943840785
 20
5.1424610575
 11
46.221700064
 21
5.0900796234
  0
LINE
  8
LS-12V-60-W10-28359
 62
7
  6
BYLAYER
 10
46.221700064
 20
5.0900796234
 11
46.4191747925
 21
4.9932391348
  0
LINE
  8
LS-12V-60-W10-28359
 62
7
  6
BYLAYER
 10
46.4191747925
 20
4.9932391348
 11
46.5750925421
 21
4.9006563954
  0
LINE
  8
LS-12V-60-W10-28359
 62
7
  6
BYLAYER
 10
46.5750925421
 20
4.9006563954
 11
46.7424867129
 21
5.0570738993
  0
LINE
  8
LS-12V-60-W10-28359
 62
7
  6
BYLAYER
 10
47.9624328066
 20
5.7893887515
 11
48.4422342413
 21
5.7681944151
  0
LINE
  8
LS-12V-60-W10-28359
 62
7
  6
BYLAYER
 10
48.443240841
 20
5.6214001674
 11
47.9624328066
 21
5.6033581505
  0
LINE
  8
LS-12V-60-W10-28359
 62
7
  6
BYLAYER
 10
47.9624328066
 20
5.7893887515
 11
47.9624328066
 21
5.6033581505
  0
LINE
  8
LS-12V-60-W10-28359
 62
7
  6
BYLAYER
 10
48.661436573
 20
5.7685620574
 11
49.5524959019
 21
5.7685620574
  0
LINE
  8
LS-12V-60-W10-28359
 62
7
  6
BYLAYER
 10
49.5346349787
 20
5.9952256772
 11
49.5524959019
 21
5.7685620574
  0
LINE
  8
LS-12V-60-W10-28359
 62
7
  6
BYLAYER
 10
49.7656626068
 20
5.8523161014
 11
49.7656626068
 21
5.7675417279
  0
LINE
  8
LS-12V-60-W10-28359
 62
7
  6
BYLAYER
 10
49.7656626068
 20
5.7675417279
 11
50.2850071656
 21
5.7884445103
  0
LINE
  8
LS-12V-60-W10-28359
 62
7
  6
BYLAYER
 10
50.2850071656
 20
5.7884445103
 11
50.2850071656
 21
5.6022716931
  0
LINE
  8
LS-12V-60-W10-28359
 62
7
  6
BYLAYER
 10
50.2850071656
 20
5.6022716931
 11
49.7656626068
 21
5.6217749759
  0
LINE
  8
LS-12V-60-W10-28359
 62
7
  6
BYLAYER
 10
48.4131310975
 20
5.9696066483
 11
48.4422342413
 21
5.7681944151
  0
LINE
  8
LS-12V-60-W10-28359
 62
7
  6
BYLAYER
 10
48.4131310975
 20
5.9696066483
 11
48.6135602984
 21
5.9514607947
  0
LINE
  8
LS-12V-60-W10-28359
 62
7
  6
BYLAYER
 10
48.6135602984
 20
5.9514607947
 11
48.7314017905
 21
5.9498445149
  0
LINE
  8
LS-12V-60-W10-28359
 62
7
  6
BYLAYER
 10
48.7314017905
 20
5.9498445149
 11
48.6782537382
 21
5.8972500882
  0
LINE
  8
LS-12V-60-W10-28359
 62
7
  6
BYLAYER
 10
48.6782537382
 20
5.8972500882
 11
48.6626793916
 21
5.847232475
  0
LINE
  8
LS-12V-60-W10-28359
 62
7
  6
BYLAYER
 10
48.6626793916
 20
5.847232475
 11
48.661436573
 21
5.7685620574
  0
LINE
  8
LS-12V-60-W10-28359
 62
7
  6
BYLAYER
 10
49.5346349787
 20
5.9952256772
 11
49.6230974338
 21
5.984406528
  0
LINE
  8
LS-12V-60-W10-28359
 62
7
  6
BYLAYER
 10
49.6230974338
 20
5.984406528
 11
49.7601716513
 21
5.9756209991
  0
LINE
  8
LS-12V-60-W10-28359
 62
7
  6
BYLAYER
 10
49.7601716513
 20
5.9756209991
 11
49.8677774916
 21
5.9732074102
  0
LINE
  8
LS-12V-60-W10-28359
 62
7
  6
BYLAYER
 10
49.8677774916
 20
5.9732074102
 11
49.7837328423
 21
5.9007443326
  0
LINE
  8
LS-12V-60-W10-28359
 62
7
  6
BYLAYER
 10
49.7837328423
 20
5.9007443326
 11
49.7656626068
 21
5.8523161014
  0
LINE
  8
LS-12V-60-W10-28359
 62
7
  6
BYLAYER
 10
48.443240841
 20
5.6214001674
 11
48.443240841
 21
4.9278357868
  0
LINE
  8
LS-12V-60-W10-28359
 62
7
  6
BYLAYER
 10
48.443240841
 20
4.9278357868
 11
47.8590031713
 21
4.9491130313
  0
LINE
  8
LS-12V-60-W10-28359
 62
7
  6
BYLAYER
 10
47.8590031713
 20
4.7692005747
 11
48.6111524427
 21
4.7910586905
  0
LINE
  8
LS-12V-60-W10-28359
 62
7
  6
BYLAYER
 10
47.8590031713
 20
4.9491130313
 11
47.8590031713
 21
4.7692005747
  0
LINE
  8
LS-12V-60-W10-28359
 62
7
  6
BYLAYER
 10
48.6111524427
 20
4.7910586905
 11
48.2214062371
 21
4.5527646647
  0
LINE
  8
LS-12V-60-W10-28359
 62
7
  6
BYLAYER
 10
48.2214062371
 20
4.5527646647
 11
47.7869199274
 21
4.3824495772
  0
LINE
  8
LS-12V-60-W10-28359
 62
7
  6
BYLAYER
 10
47.7869199274
 20
4.3824495772
 11
47.8767739001
 21
4.3333261141
  0
LINE
  8
LS-12V-60-W10-28359
 62
7
  6
BYLAYER
 10
47.8767739001
 20
4.3333261141
 11
47.9724765241
 21
4.2315087608
  0
LINE
  8
LS-12V-60-W10-28359
 62
7
  6
BYLAYER
 10
47.9739504082
 20
4.2307859764
 11
48.3481973924
 21
4.4173876517
  0
LINE
  8
LS-12V-60-W10-28359
 62
7
  6
BYLAYER
 10
48.3481973924
 20
4.4173876517
 11
48.688636636
 21
4.6502041667
  0
LINE
  8
LS-12V-60-W10-28359
 62
7
  6
BYLAYER
 10
48.688636636
 20
4.6502041667
 11
48.8148268907
 21
4.7728022286
  0
LINE
  8
LS-12V-60-W10-28359
 62
7
  6
BYLAYER
 10
48.5378849475
 20
4.470707952
 11
49.022280034
 21
4.4542333842
  0
LINE
  8
LS-12V-60-W10-28359
 62
7
  6
BYLAYER
 10
49.0218877197
 20
4.3236180844
 11
48.5378849475
 21
4.3051880474
  0
LINE
  8
LS-12V-60-W10-28359
 62
7
  6
BYLAYER
 10
48.5378849475
 20
4.470707952
 11
48.5378849475
 21
4.3051880474
  0
LINE
  8
LS-12V-60-W10-28359
 62
7
  6
BYLAYER
 10
49.0013984839
 20
4.6934795944
 11
49.0200906797
 21
4.526208407
  0
LINE
  8
LS-12V-60-W10-28359
 62
7
  6
BYLAYER
 10
49.0200906797
 20
4.526208407
 11
49.022280034
 21
4.4542333842
  0
LINE
  8
LS-12V-60-W10-28359
 62
7
  6
BYLAYER
 10
49.0013984839
 20
4.6934795944
 11
49.0944681684
 21
4.685146611
  0
LINE
  8
LS-12V-60-W10-28359
 62
7
  6
BYLAYER
 10
49.0944681684
 20
4.685146611
 11
49.2323410703
 21
4.6799551622
  0
LINE
  8
LS-12V-60-W10-28359
 62
7
  6
BYLAYER
 10
49.2323410703
 20
4.6799551622
 11
49.3136822555
 21
4.6775218788
  0
LINE
  8
LS-12V-60-W10-28359
 62
7
  6
BYLAYER
 10
49.3136822555
 20
4.6775218788
 11
49.2471167325
 21
4.6174581045
  0
LINE
  8
LS-12V-60-W10-28359
 62
7
  6
BYLAYER
 10
49.2471167325
 20
4.6174581045
 11
49.2323410703
 21
4.5721327624
  0
LINE
  8
LS-12V-60-W10-28359
 62
7
  6
BYLAYER
 10
49.2323410703
 20
4.5721327624
 11
49.2314449816
 21
4.4545211193
  0
LINE
  8
LS-12V-60-W10-28359
 62
7
  6
BYLAYER
 10
49.2314449816
 20
4.4545211193
 11
49.4888186119
 21
4.4598177627
  0
LINE
  8
LS-12V-60-W10-28359
 62
7
  6
BYLAYER
 10
49.4888186119
 20
4.4598177627
 11
49.7097546958
 21
4.4704498006
  0
LINE
  8
LS-12V-60-W10-28359
 62
7
  6
BYLAYER
 10
49.7097546958
 20
4.4704498006
 11
49.7097546958
 21
4.3054690563
  0
LINE
  8
LS-12V-60-W10-28359
 62
7
  6
BYLAYER
 10
49.7097546958
 20
4.3054690563
 11
49.2315423858
 21
4.3228802776
  0
LINE
  8
LS-12V-60-W10-28359
 62
7
  6
BYLAYER
 10
49.2315423858
 20
4.3228802776
 11
49.2315423858
 21
4.1205176492
  0
LINE
  8
LS-12V-60-W10-28359
 62
7
  6
BYLAYER
 10
49.0218877197
 20
4.3236180844
 11
49.0218877197
 21
4.1202676648
  0
LINE
  8
LS-12V-60-W10-28359
 62
7
  6
BYLAYER
 10
49.0218877197
 20
4.1202676648
 11
48.080438433
 21
4.1386453504
  0
LINE
  8
LS-12V-60-W10-28359
 62
7
  6
BYLAYER
 10
48.080438433
 20
4.1386453504
 11
48.080438433
 21
3.9564258525
  0
LINE
  8
LS-12V-60-W10-28359
 62
7
  6
BYLAYER
 10
48.080438433
 20
3.9564258525
 11
49.2123739592
 21
3.9737184438
  0
LINE
  8
LS-12V-60-W10-28359
 62
7
  6
BYLAYER
 10
49.2123739592
 20
3.9737184438
 11
50.1819768725
 21
3.9562490635
  0
LINE
  8
LS-12V-60-W10-28359
 62
7
  6
BYLAYER
 10
50.1819768725
 20
3.9562490635
 11
50.1819768725
 21
4.1391188834
  0
LINE
  8
LS-12V-60-W10-28359
 62
7
  6
BYLAYER
 10
50.1819768725
 20
4.1391188834
 11
49.2315423858
 21
4.1205176492
  0
LINE
  8
LS-12V-60-W10-28359
 62
7
  6
BYLAYER
 10
50.2176603204
 20
4.2653648676
 11
49.8564131266
 21
4.4461402916
  0
LINE
  8
LS-12V-60-W10-28359
 62
7
  6
BYLAYER
 10
49.8564131266
 20
4.4461402916
 11
49.5851599228
 21
4.6571926555
  0
LINE
  8
LS-12V-60-W10-28359
 62
7
  6
BYLAYER
 10
49.5851599228
 20
4.6571926555
 11
49.5032947674
 21
4.7728022286
  0
LINE
  8
LS-12V-60-W10-28359
 62
7
  6
BYLAYER
 10
49.7028862329
 20
4.7912169082
 11
49.8560137844
 21
4.6616852555
  0
LINE
  8
LS-12V-60-W10-28359
 62
7
  6
BYLAYER
 10
49.8560137844
 20
4.6616852555
 11
50.0747534861
 21
4.553363678
  0
LINE
  8
LS-12V-60-W10-28359
 62
7
  6
BYLAYER
 10
50.0747534861
 20
4.553363678
 11
50.3667580003
 21
4.4817561099
  0
LINE
  8
LS-12V-60-W10-28359
 62
7
  6
BYLAYER
 10
50.3667580003
 20
4.4817561099
 11
50.2994833211
 21
4.4203827183
  0
LINE
  8
LS-12V-60-W10-28359
 62
7
  6
BYLAYER
 10
50.2994833211
 20
4.4203827183
 11
50.2436752457
 21
4.3377188785
  0
LINE
  8
LS-12V-60-W10-28359
 62
7
  6
BYLAYER
 10
50.2436752457
 20
4.3377188785
 11
50.2176603204
 21
4.2653648676
  0
LINE
  8
LS-12V-60-W10-28359
 62
7
  6
BYLAYER
 10
50.3620802143
 20
4.7670895468
 11
49.7028862329
 21
4.7912169082
  0
LINE
  8
LS-12V-60-W10-28359
 62
7
  6
BYLAYER
 10
50.3620802143
 20
4.9489989999
 11
49.7656626068
 21
4.9277580367
  0
LINE
  8
LS-12V-60-W10-28359
 62
7
  6
BYLAYER
 10
50.3620802143
 20
4.9489989999
 11
50.3620802143
 21
4.7670895468
  0
LINE
  8
LS-12V-60-W10-28359
 62
7
  6
BYLAYER
 10
49.7656626068
 20
5.6217749759
 11
49.7656626068
 21
4.9277580367
  0
LINE
  8
LS-12V-60-W10-28359
 62
7
  6
BYLAYER
 10
50.7376615734
 20
5.9207114437
 11
50.7376615734
 21
3.957744755
  0
LINE
  8
LS-12V-60-W10-28359
 62
7
  6
BYLAYER
 10
50.8374971287
 20
3.8579091996
 11
51.7543868688
 21
3.8579091996
  0
LINE
  8
LS-12V-60-W10-28359
 62
7
  6
BYLAYER
 10
51.8542224241
 20
3.957744755
 11
51.8542224241
 21
5.9207114437
  0
LINE
  8
LS-12V-60-W10-28359
 62
7
  6
BYLAYER
 10
51.7543868688
 20
6.020546999
 11
50.8374971287
 21
6.020546999
  0
LINE
  8
LS-12V-60-W10-28359
 62
7
  6
BYLAYER
 10
51.2460870284
 20
5.7274298086
 11
50.8846195108
 21
5.7274298086
  0
LINE
  8
LS-12V-60-W10-28359
 62
7
  6
BYLAYER
 10
50.8846195108
 20
5.7274298086
 11
50.8846195108
 21
5.5994406267
  0
LINE
  8
LS-12V-60-W10-28359
 62
7
  6
BYLAYER
 10
50.8846195108
 20
5.5994406267
 11
51.2323981217
 21
5.5994406267
  0
LINE
  8
LS-12V-60-W10-28359
 62
7
  6
BYLAYER
 10
51.3063459839
 20
5.5994406267
 11
51.7072644867
 21
5.5994406267
  0
LINE
  8
LS-12V-60-W10-28359
 62
7
  6
BYLAYER
 10
51.7072644867
 20
5.5994406267
 11
51.7072644867
 21
5.7274298086
  0
LINE
  8
LS-12V-60-W10-28359
 62
7
  6
BYLAYER
 10
51.7072644867
 20
5.7274298086
 11
51.3197044899
 21
5.7274298086
  0
LINE
  8
LS-12V-60-W10-28359
 62
7
  6
BYLAYER
 10
51.3197044899
 20
5.7274298086
 11
51.3338488168
 21
5.8914275446
  0
LINE
  8
LS-12V-60-W10-28359
 62
7
  6
BYLAYER
 10
51.2594676686
 20
5.9133043529
 11
51.3338488168
 21
5.8914275446
  0
LINE
  8
LS-12V-60-W10-28359
 62
7
  6
BYLAYER
 10
51.2594676686
 20
5.9133043529
 11
51.2460870284
 21
5.7274298086
  0
LINE
  8
LS-12V-60-W10-28359
 62
7
  6
BYLAYER
 10
51.2323981217
 20
5.5994406267
 11
51.2086081812
 21
5.4333142626
  0
LINE
  8
LS-12V-60-W10-28359
 62
7
  6
BYLAYER
 10
51.3063459839
 20
5.5994406267
 11
51.2844151107
 21
5.4333142626
  0
LINE
  8
LS-12V-60-W10-28359
 62
7
  6
BYLAYER
 10
51.2844151107
 20
5.4333142626
 11
51.6759161223
 21
5.4333142626
  0
LINE
  8
LS-12V-60-W10-28359
 62
7
  6
BYLAYER
 10
51.6759161223
 20
5.4333142626
 11
51.6759161223
 21
5.3053250807
  0
LINE
  8
LS-12V-60-W10-28359
 62
7
  6
BYLAYER
 10
51.6759161223
 20
5.3053250807
 11
51.2632861107
 21
5.3053250807
  0
LINE
  8
LS-12V-60-W10-28359
 62
7
  6
BYLAYER
 10
51.2632861107
 20
5.3053250807
 11
51.2178469775
 21
5.1132414722
  0
LINE
  8
LS-12V-60-W10-28359
 62
7
  6
BYLAYER
 10
51.1846665761
 20
5.3053250807
 11
51.1311782736
 21
5.1132414722
  0
LINE
  8
LS-12V-60-W10-28359
 62
7
  6
BYLAYER
 10
51.1846665761
 20
5.3053250807
 11
50.9177649152
 21
5.3053250807
  0
LINE
  8
LS-12V-60-W10-28359
 62
7
  6
BYLAYER
 10
50.9177649152
 20
5.4333142626
 11
51.2086081812
 21
5.4333142626
  0
LINE
  8
LS-12V-60-W10-28359
 62
7
  6
BYLAYER
 10
50.9177649152
 20
5.4333142626
 11
50.9177649152
 21
5.3053250807
  0
LINE
  8
LS-12V-60-W10-28359
 62
7
  6
BYLAYER
 10
51.1311782736
 20
5.1132414722
 11
50.8486787109
 21
5.1132414722
  0
LINE
  8
LS-12V-60-W10-28359
 62
7
  6
BYLAYER
 10
50.8486787109
 20
5.1132414722
 11
50.8486787109
 21
4.9850526192
  0
LINE
  8
LS-12V-60-W10-28359
 62
7
  6
BYLAYER
 10
50.8486787109
 20
4.9850526192
 11
51.0889614381
 21
4.9850526192
  0
LINE
  8
LS-12V-60-W10-28359
 62
7
  6
BYLAYER
 10
51.0889614381
 20
4.9850526192
 11
50.8324910078
 21
4.5870528643
  0
LINE
  8
LS-12V-60-W10-28359
 62
7
  6
BYLAYER
 10
51.1784033333
 20
4.9850526192
 11
51.0843472965
 21
4.7709306362
  0
LINE
  8
LS-12V-60-W10-28359
 62
7
  6
BYLAYER
 10
51.1784033333
 20
4.9850526192
 11
51.409991521
 21
4.9850526192
  0
LINE
  8
LS-12V-60-W10-28359
 62
7
  6
BYLAYER
 10
51.409991521
 20
4.9850526192
 11
51.491868156
 21
4.7569990939
  0
LINE
  8
LS-12V-60-W10-28359
 62
7
  6
BYLAYER
 10
51.4861225879
 20
4.9850526192
 11
51.568892407
 21
4.8197249396
  0
LINE
  8
LS-12V-60-W10-28359
 62
7
  6
BYLAYER
 10
51.568892407
 20
4.8197249396
 11
51.6644350334
 21
4.703117011
  0
LINE
  8
LS-12V-60-W10-28359
 62
7
  6
BYLAYER
 10
51.6644350334
 20
4.703117011
 11
51.7603286159
 21
4.6260620041
  0
LINE
  8
LS-12V-60-W10-28359
 62
7
  6
BYLAYER
 10
51.4861225879
 20
4.9850526192
 11
51.7450023266
 21
4.9850526192
  0
LINE
  8
LS-12V-60-W10-28359
 62
7
  6
BYLAYER
 10
51.7450023266
 20
5.1132414722
 11
51.7450023266
 21
4.9850526192
  0
LINE
  8
LS-12V-60-W10-28359
 62
7
  6
BYLAYER
 10
51.7450023266
 20
5.1132414722
 11
51.2178469775
 21
5.1132414722
  0
LINE
  8
LS-12V-60-W10-28359
 62
7
  6
BYLAYER
 10
51.5463331984
 20
4.6654787109
 11
51.6164141313
 21
4.5703357224
  0
LINE
  8
LS-12V-60-W10-28359
 62
7
  6
BYLAYER
 10
51.6164141313
 20
4.5703357224
 11
51.7148656062
 21
4.4681147091
  0
LINE
  8
LS-12V-60-W10-28359
 62
7
  6
BYLAYER
 10
51.7603286159
 20
4.6260620041
 11
51.7148656062
 21
4.4681147091
  0
LINE
  8
LS-12V-60-W10-28359
 62
7
  6
BYLAYER
 10
51.5463331984
 20
4.6654787109
 11
51.4108621301
 21
4.4979525166
  0
LINE
  8
LS-12V-60-W10-28359
 62
7
  6
BYLAYER
 10
51.3730764742
 20
4.6156693676
 11
51.4108621301
 21
4.4979525166
  0
LINE
  8
LS-12V-60-W10-28359
 62
7
  6
BYLAYER
 10
51.491868156
 20
4.7569990939
 11
51.3730764742
 21
4.6156693676
  0
LINE
  8
LS-12V-60-W10-28359
 62
7
  6
BYLAYER
 10
51.3392706298
 20
4.8852170639
 11
51.3392706298
 21
4.1426862814
  0
LINE
  8
LS-12V-60-W10-28359
 62
7
  6
BYLAYER
 10
51.3392706298
 20
4.8852170639
 11
51.267588701
 21
4.8852170639
  0
LINE
  8
LS-12V-60-W10-28359
 62
7
  6
BYLAYER
 10
51.267588701
 20
4.8852170639
 11
51.267588701
 21
4.2265020699
  0
LINE
  8
LS-12V-60-W10-28359
 62
7
  6
BYLAYER
 10
51.267588701
 20
4.2265020699
 11
51.2607998833
 21
4.1626073145
  0
LINE
  8
LS-12V-60-W10-28359
 62
7
  6
BYLAYER
 10
51.2607998833
 20
4.1626073145
 11
51.2456248789
 21
4.1322573057
  0
LINE
  8
LS-12V-60-W10-28359
 62
7
  6
BYLAYER
 10
51.2456248789
 20
4.1322573057
 11
51.2159737189
 21
4.1188793413
  0
LINE
  8
LS-12V-60-W10-28359
 62
7
  6
BYLAYER
 10
51.2159737189
 20
4.1188793413
 11
51.103826817
 21
4.134244854
  0
LINE
  8
LS-12V-60-W10-28359
 62
7
  6
BYLAYER
 10
51.103826817
 20
4.134244854
 11
51.1149645791
 21
3.968431421
  0
LINE
  8
LS-12V-60-W10-28359
 62
7
  6
BYLAYER
 10
51.1149645791
 20
3.968431421
 11
51.2545853637
 21
3.9644025626
  0
LINE
  8
LS-12V-60-W10-28359
 62
7
  6
BYLAYER
 10
51.2545853637
 20
3.9644025626
 11
51.3092201276
 21
4.0198424704
  0
LINE
  8
LS-12V-60-W10-28359
 62
7
  6
BYLAYER
 10
51.3092201276
 20
4.0198424704
 11
51.3392706298
 21
4.1426862814
  0
LINE
  8
LS-12V-60-W10-28359
 62
7
  6
BYLAYER
 10
51.3522222049
 20
4.3499461397
 11
51.6612886979
 21
4.0958675931
  0
LINE
  8
LS-12V-60-W10-28359
 62
7
  6
BYLAYER
 10
51.6612886979
 20
4.0958675931
 11
51.6948026378
 21
4.2458823714
  0
LINE
  8
LS-12V-60-W10-28359
 62
7
  6
BYLAYER
 10
51.6948026378
 20
4.2458823714
 11
51.3809083834
 21
4.4722652943
  0
LINE
  8
LS-12V-60-W10-28359
 62
7
  6
BYLAYER
 10
51.3809083834
 20
4.4722652943
 11
51.3522222049
 21
4.3499461397
  0
LINE
  8
LS-12V-60-W10-28359
 62
7
  6
BYLAYER
 10
51.2263665342
 20
4.470433045
 11
51.2419186409
 21
4.3369959694
  0
LINE
  8
LS-12V-60-W10-28359
 62
7
  6
BYLAYER
 10
51.2419186409
 20
4.3369959694
 11
50.9248334422
 21
4.1274348753
  0
LINE
  8
LS-12V-60-W10-28359
 62
7
  6
BYLAYER
 10
50.9020766379
 20
4.2701300569
 11
50.9248334422
 21
4.1274348753
  0
LINE
  8
LS-12V-60-W10-28359
 62
7
  6
BYLAYER
 10
50.9020766379
 20
4.2701300569
 11
51.2263665342
 21
4.470433045
  0
LINE
  8
LS-12V-60-W10-28359
 62
7
  6
BYLAYER
 10
51.2098706742
 20
4.6058126361
 11
51.165653786
 21
4.4840102144
  0
LINE
  8
LS-12V-60-W10-28359
 62
7
  6
BYLAYER
 10
51.165653786
 20
4.4840102144
 11
51.0343700538
 21
4.6740897285
  0
LINE
  8
LS-12V-60-W10-28359
 62
7
  6
BYLAYER
 10
51.0343700538
 20
4.6740897285
 11
50.8755100019
 21
4.4510877223
  0
LINE
  8
LS-12V-60-W10-28359
 62
7
  6
BYLAYER
 10
50.8324910078
 20
4.5870528643
 11
50.8755100019
 21
4.4510877223
  0
LINE
  8
LS-12V-60-W10-28359
 62
7
  6
BYLAYER
 10
51.0843472965
 20
4.7709306362
 11
51.2098706742
 21
4.6058126361
  0
LINE
  8
LS-12V-60-W10-28359
 62
7
  6
BYLAYER
 10
41.8410373946
 20
3.3370128915
 11
41.9514266267
 21
3.3356620785
  0
LINE
  8
LS-12V-60-W10-28359
 62
7
  6
BYLAYER
 10
41.9695235478
 20
3.3361388361
 11
42.10976972
 21
2.8728894401
  0
LINE
  8
LS-12V-60-W10-28359
 62
7
  6
BYLAYER
 10
42.10976972
 20
2.8728894401
 11
42.2680929484
 21
3.3370128915
  0
LINE
  8
LS-12V-60-W10-28359
 62
7
  6
BYLAYER
 10
42.2680929484
 20
3.3370128915
 11
42.3612990447
 21
3.3361388361
  0
LINE
  8
LS-12V-60-W10-28359
 62
7
  6
BYLAYER
 10
42.3612990447
 20
3.3361388361
 11
42.5142190211
 21
2.8791667475
  0
LINE
  8
LS-12V-60-W10-28359
 62
7
  6
BYLAYER
 10
42.5142190211
 20
2.8791667475
 11
42.6607822305
 21
3.3370128915
  0
LINE
  8
LS-12V-60-W10-28359
 62
7
  6
BYLAYER
 10
42.6607822305
 20
3.3370128915
 11
42.760305364
 21
3.3361388361
  0
LINE
  8
LS-12V-60-W10-28359
 62
7
  6
BYLAYER
 10
42.760305364
 20
3.3361388361
 11
42.5467577222
 21
2.7172281079
  0
LINE
  8
LS-12V-60-W10-28359
 62
7
  6
BYLAYER
 10
42.5467577222
 20
2.7172281079
 11
42.4463605333
 21
2.7172281079
  0
LINE
  8
LS-12V-60-W10-28359
 62
7
  6
BYLAYER
 10
42.4463605333
 20
2.7172281079
 11
42.3006713793
 21
3.1750742519
  0
LINE
  8
LS-12V-60-W10-28359
 62
7
  6
BYLAYER
 10
42.3006713793
 20
3.1750742519
 11
42.1477514029
 21
2.7172281079
  0
LINE
  8
LS-12V-60-W10-28359
 62
7
  6
BYLAYER
 10
42.1477514029
 20
2.7172281079
 11
42.0400836617
 21
2.7172281079
  0
LINE
  8
LS-12V-60-W10-28359
 62
7
  6
BYLAYER
 10
42.0400836617
 20
2.7172281079
 11
41.8410373946
 21
3.3370128915
  0
LINE
  8
LS-12V-60-W10-28359
 62
7
  6
BYLAYER
 10
42.7819978315
 20
3.3370128915
 11
42.9810440985
 21
2.7172281079
  0
LINE
  8
LS-12V-60-W10-28359
 62
7
  6
BYLAYER
 10
42.9810440985
 20
2.7172281079
 11
43.0887118398
 21
2.7172281079
  0
LINE
  8
LS-12V-60-W10-28359
 62
7
  6
BYLAYER
 10
43.0887118398
 20
2.7172281079
 11
43.2416318162
 21
3.1750742519
  0
LINE
  8
LS-12V-60-W10-28359
 62
7
  6
BYLAYER
 10
43.2416318162
 20
3.1750742519
 11
43.3873209701
 21
2.7172281079
  0
LINE
  8
LS-12V-60-W10-28359
 62
7
  6
BYLAYER
 10
43.3873209701
 20
2.7172281079
 11
43.4877181591
 21
2.7172281079
  0
LINE
  8
LS-12V-60-W10-28359
 62
7
  6
BYLAYER
 10
43.4877181591
 20
2.7172281079
 11
43.7012658009
 21
3.3361388361
  0
LINE
  8
LS-12V-60-W10-28359
 62
7
  6
BYLAYER
 10
43.7012658009
 20
3.3361388361
 11
43.6017426674
 21
3.3370128915
  0
LINE
  8
LS-12V-60-W10-28359
 62
7
  6
BYLAYER
 10
43.6017426674
 20
3.3370128915
 11
43.455179458
 21
2.8791667475
  0
LINE
  8
LS-12V-60-W10-28359
 62
7
  6
BYLAYER
 10
43.455179458
 20
2.8791667475
 11
43.3022594815
 21
3.3361388361
  0
LINE
  8
LS-12V-60-W10-28359
 62
7
  6
BYLAYER
 10
43.3022594815
 20
3.3361388361
 11
43.2087552247
 21
3.3361388361
  0
LINE
  8
LS-12V-60-W10-28359
 62
7
  6
BYLAYER
 10
43.2087552247
 20
3.3361388361
 11
43.0507301569
 21
2.8728894401
  0
LINE
  8
LS-12V-60-W10-28359
 62
7
  6
BYLAYER
 10
43.0507301569
 20
2.8728894401
 11
42.9104839847
 21
3.3361388361
  0
LINE
  8
LS-12V-60-W10-28359
 62
7
  6
BYLAYER
 10
42.9104839847
 20
3.3361388361
 11
42.7819978315
 21
3.3370128915
  0
LINE
  8
LS-12V-60-W10-28359
 62
7
  6
BYLAYER
 10
43.7229979981
 20
3.3370128915
 11
43.8514841513
 21
3.3361388361
  0
LINE
  8
LS-12V-60-W10-28359
 62
7
  6
BYLAYER
 10
43.8514841513
 20
3.3361388361
 11
43.9917303235
 21
2.8728894401
  0
LINE
  8
LS-12V-60-W10-28359
 62
7
  6
BYLAYER
 10
43.9917303235
 20
2.8728894401
 11
44.1500535519
 21
3.3370128915
  0
LINE
  8
LS-12V-60-W10-28359
 62
7
  6
BYLAYER
 10
44.1500535519
 20
3.3370128915
 11
44.2432596482
 21
3.3361388361
  0
LINE
  8
LS-12V-60-W10-28359
 62
7
  6
BYLAYER
 10
44.2432596482
 20
3.3361388361
 11
44.3961796246
 21
2.8791667475
  0
LINE
  8
LS-12V-60-W10-28359
 62
7
  6
BYLAYER
 10
44.3961796246
 20
2.8791667475
 11
44.542742834
 21
3.3370128915
  0
LINE
  8
LS-12V-60-W10-28359
 62
7
  6
BYLAYER
 10
44.542742834
 20
3.3370128915
 11
44.6422659675
 21
3.3361388361
  0
LINE
  8
LS-12V-60-W10-28359
 62
7
  6
BYLAYER
 10
44.6422659675
 20
3.3361388361
 11
44.4287183257
 21
2.7172281079
  0
LINE
  8
LS-12V-60-W10-28359
 62
7
  6
BYLAYER
 10
44.4287183257
 20
2.7172281079
 11
44.3283211367
 21
2.7172281079
  0
LINE
  8
LS-12V-60-W10-28359
 62
7
  6
BYLAYER
 10
44.3283211367
 20
2.7172281079
 11
44.1826319828
 21
3.1750742519
  0
LINE
  8
LS-12V-60-W10-28359
 62
7
  6
BYLAYER
 10
44.1826319828
 20
3.1750742519
 11
44.0297120064
 21
2.7172281079
  0
LINE
  8
LS-12V-60-W10-28359
 62
7
  6
BYLAYER
 10
44.0297120064
 20
2.7172281079
 11
43.9220442651
 21
2.7172281079
  0
LINE
  8
LS-12V-60-W10-28359
 62
7
  6
BYLAYER
 10
43.9220442651
 20
2.7172281079
 11
43.7229979981
 21
3.3370128915
  0
LINE
  8
LS-12V-60-W10-28359
 62
7
  6
BYLAYER
 10
44.7824724099
 20
2.8230682787
 11
44.8231954486
 21
2.8240217937
  0
LINE
  8
LS-12V-60-W10-28359
 62
7
  6
BYLAYER
 10
44.8231954486
 20
2.8240217937
 11
44.8612168613
 21
2.8050309523
  0
LINE
  8
LS-12V-60-W10-28359
 62
7
  6
BYLAYER
 10
44.8612168613
 20
2.8050309523
 11
44.8773573769
 21
2.776521204
  0
LINE
  8
LS-12V-60-W10-28359
 62
7
  6
BYLAYER
 10
44.8773573769
 20
2.776521204
 11
44.872063095
 21
2.7402713883
  0
LINE
  8
LS-12V-60-W10-28359
 62
7
  6
BYLAYER
 10
44.872063095
 20
2.7402713883
 11
44.840835477
 21
2.7131756689
  0
LINE
  8
LS-12V-60-W10-28359
 62
7
  6
BYLAYER
 10
44.840835477
 20
2.7131756689
 11
44.7824724099
 21
2.7099972854
  0
LINE
  8
LS-12V-60-W10-28359
 62
7
  6
BYLAYER
 10
44.7824724099
 20
2.7099972854
 11
44.747192353
 21
2.7217573044
  0
LINE
  8
LS-12V-60-W10-28359
 62
7
  6
BYLAYER
 10
44.747192353
 20
2.7217573044
 11
44.7282015115
 21
2.7579114168
  0
LINE
  8
LS-12V-60-W10-28359
 62
7
  6
BYLAYER
 10
44.7282015115
 20
2.7579114168
 11
44.7389878653
 21
2.7982340815
  0
LINE
  8
LS-12V-60-W10-28359
 62
7
  6
BYLAYER
 10
44.7389878653
 20
2.7982340815
 11
44.7823502247
 21
2.8230684411
  0
LINE
  8
LS-12V-60-W10-28359
 62
7
  6
BYLAYER
 10
45.0775853184
 20
3.3362182956
 11
45.0775853184
 21
2.7260481221
  0
LINE
  8
LS-12V-60-W10-28359
 62
7
  6
BYLAYER
 10
45.0775853184
 20
2.7260481221
 11
45.3698774115
 21
2.7260481221
  0
LINE
  8
LS-12V-60-W10-28359
 62
7
  6
BYLAYER
 10
45.6076204978
 20
3.2489716684
 11
45.5127852323
 21
3.3176546486
  0
LINE
  8
LS-12V-60-W10-28359
 62
7
  6
BYLAYER
 10
45.5127852323
 20
3.3176546486
 11
45.4160045667
 21
3.3369210072
  0
LINE
  8
LS-12V-60-W10-28359
 62
7
  6
BYLAYER
 10
45.4160045667
 20
3.3369210072
 11
45.0775853184
 21
3.3362182956
  0
LINE
  8
LS-12V-60-W10-28359
 62
7
  6
BYLAYER
 10
45.1964568615
 20
3.2930717396
 11
45.1964568615
 21
2.7674465673
  0
LINE
  8
LS-12V-60-W10-28359
 62
7
  6
BYLAYER
 10
45.1964568615
 20
2.7674465673
 11
45.293118068
 21
2.7676974101
  0
LINE
  8
LS-12V-60-W10-28359
 62
7
  6
BYLAYER
 10
45.4817167811
 20
3.2367348919
 11
45.4260156102
 21
3.2737630598
  0
LINE
  8
LS-12V-60-W10-28359
 62
7
  6
BYLAYER
 10
45.4260156102
 20
3.2737630598
 11
45.3118933753
 21
3.2912300568
  0
LINE
  8
LS-12V-60-W10-28359
 62
7
  6
BYLAYER
 10
45.3118933753
 20
3.2912300568
 11
45.1964568615
 21
3.2912300568
  0
LINE
  8
LS-12V-60-W10-28359
 62
7
  6
BYLAYER
 10
48.2885075252
 20
3.3203263781
 11
48.6424999881
 21
3.3203263781
  0
LINE
  8
LS-12V-60-W10-28359
 62
7
  6
BYLAYER
 10
48.6424999881
 20
3.3203263781
 11
48.6424999881
 21
3.2630360154
  0
LINE
  8
LS-12V-60-W10-28359
 62
7
  6
BYLAYER
 10
48.6424999881
 20
3.2630360154
 11
48.3788530763
 21
3.2630360154
  0
LINE
  8
LS-12V-60-W10-28359
 62
7
  6
BYLAYER
 10
48.3788530763
 20
3.2630360154
 11
48.3788530763
 21
3.064069208
  0
LINE
  8
LS-12V-60-W10-28359
 62
7
  6
BYLAYER
 10
48.3788530763
 20
3.064069208
 11
48.6424999881
 21
3.064069208
  0
LINE
  8
LS-12V-60-W10-28359
 62
7
  6
BYLAYER
 10
48.6424999881
 20
3.064069208
 11
48.6424999881
 21
3.0075734412
  0
LINE
  8
LS-12V-60-W10-28359
 62
7
  6
BYLAYER
 10
48.6424999881
 20
3.0075734412
 11
48.3788530763
 21
3.0075734412
  0
LINE
  8
LS-12V-60-W10-28359
 62
7
  6
BYLAYER
 10
48.3788530763
 20
3.0075734412
 11
48.3788530763
 21
2.7713400871
  0
LINE
  8
LS-12V-60-W10-28359
 62
7
  6
BYLAYER
 10
48.3788530763
 20
2.7713400871
 11
48.6424999881
 21
2.7713400871
  0
LINE
  8
LS-12V-60-W10-28359
 62
7
  6
BYLAYER
 10
48.6424999881
 20
2.7713400871
 11
48.6424999881
 21
2.7172281079
  0
LINE
  8
LS-12V-60-W10-28359
 62
7
  6
BYLAYER
 10
48.6424999881
 20
2.7172281079
 11
48.2885075252
 21
2.7172281079
  0
LINE
  8
LS-12V-60-W10-28359
 62
7
  6
BYLAYER
 10
48.2885075252
 20
2.7172281079
 11
48.2885075252
 21
3.3203263781
  0
LINE
  8
LS-12V-60-W10-28359
 62
7
  6
BYLAYER
 10
47.5179639572
 20
3.218220808
 11
47.3905947314
 21
3.2960418055
  0
LINE
  8
LS-12V-60-W10-28359
 62
7
  6
BYLAYER
 10
47.3905947314
 20
3.2960418055
 11
47.3129821677
 21
3.3036398647
  0
LINE
  8
LS-12V-60-W10-28359
 62
7
  6
BYLAYER
 10
47.1113534641
 20
3.1495677243
 11
47.0954627862
 21
3.0880251085
  0
LINE
  8
LS-12V-60-W10-28359
 62
7
  6
BYLAYER
 10
47.1296014955
 20
2.8695768442
 11
47.1826054604
 21
2.8034798728
  0
LINE
  8
LS-12V-60-W10-28359
 62
7
  6
BYLAYER
 10
47.3984012244
 20
2.7541768162
 11
47.4582342939
 21
2.779842263
  0
LINE
  8
LS-12V-60-W10-28359
 62
7
  6
BYLAYER
 10
47.4582342939
 20
2.779842263
 11
47.4582342939
 21
3.0104339863
  0
LINE
  8
LS-12V-60-W10-28359
 62
7
  6
BYLAYER
 10
47.4582342939
 20
3.0104339863
 11
47.5700736635
 21
3.0104339863
  0
LINE
  8
LS-12V-60-W10-28359
 62
7
  6
BYLAYER
 10
47.5700736635
 20
3.0104339863
 11
47.5687625803
 21
2.7520711371
  0
LINE
  8
LS-12V-60-W10-28359
 62
7
  6
BYLAYER
 10
47.5687625803
 20
2.7520711371
 11
47.4494937393
 21
2.7234259558
  0
LINE
  8
LS-12V-60-W10-28359
 62
7
  6
BYLAYER
 10
47.4494937393
 20
2.7234259558
 11
47.3059499942
 21
2.7119837751
  0
LINE
  8
LS-12V-60-W10-28359
 62
7
  6
BYLAYER
 10
47.2973683587
 20
3.3472234485
 11
47.4338600654
 21
3.3408269517
  0
LINE
  8
LS-12V-60-W10-28359
 62
7
  6
BYLAYER
 10
47.4338600654
 20
3.3408269517
 11
47.577105837
 21
3.2930717396
  0
LINE
  8
LS-12V-60-W10-28359
 62
7
  6
BYLAYER
 10
47.577105837
 20
3.2930717396
 11
47.5489374132
 21
3.218220808
  0
LINE
  8
LS-12V-60-W10-28359
 62
7
  6
BYLAYER
 10
47.5489374132
 20
3.218220808
 11
47.5179639572
 21
3.218220808
  0
LINE
  8
LS-12V-60-W10-28359
 62
7
  6
BYLAYER
 10
47.6823103311
 20
3.3424161435
 11
47.6823103311
 21
3.2790868521
  0
LINE
  8
LS-12V-60-W10-28359
 62
7
  6
BYLAYER
 10
47.8813963279
 20
3.2982835793
 11
47.8813963279
 21
2.7172281079
  0
LINE
  8
LS-12V-60-W10-28359
 62
7
  6
BYLAYER
 10
47.8813963279
 20
2.7172281079
 11
47.9962948916
 21
2.7172281079
  0
LINE
  8
LS-12V-60-W10-28359
 62
7
  6
BYLAYER
 10
47.6823103311
 20
3.3424161435
 11
48.1953411587
 21
3.344243714
  0
LINE
  8
LS-12V-60-W10-28359
 62
7
  6
BYLAYER
 10
48.1953411587
 20
3.344243714
 11
48.1942088596
 21
3.2825036144
  0
LINE
  8
LS-12V-60-W10-28359
 62
7
  6
BYLAYER
 10
47.9962948916
 20
2.7172281079
 11
47.9962948916
 21
3.298652911
  0
LINE
  8
LS-12V-60-W10-28359
 62
7
  6
BYLAYER
 10
51.1838559797
 20
3.344243714
 11
51.2480990563
 21
3.344243714
  0
LINE
  8
LS-12V-60-W10-28359
 62
7
  6
BYLAYER
 10
51.2480990563
 20
3.344243714
 11
51.4797237542
 21
2.9009386745
  0
LINE
  8
LS-12V-60-W10-28359
 62
7
  6
BYLAYER
 10
51.4797237542
 20
2.9009386745
 11
51.7176654894
 21
3.344243714
  0
LINE
  8
LS-12V-60-W10-28359
 62
7
  6
BYLAYER
 10
51.7176654894
 20
3.344243714
 11
51.7828223513
 21
3.344243714
  0
LINE
  8
LS-12V-60-W10-28359
 62
7
  6
BYLAYER
 10
51.7828223513
 20
3.344243714
 11
51.8542962504
 21
2.7172281079
  0
LINE
  8
LS-12V-60-W10-28359
 62
7
  6
BYLAYER
 10
51.7248963119
 20
2.7172281079
 11
51.6878284143
 21
3.128034176
  0
LINE
  8
LS-12V-60-W10-28359
 62
7
  6
BYLAYER
 10
51.6878284143
 20
3.128034176
 11
51.4833391655
 21
2.7316897529
  0
LINE
  8
LS-12V-60-W10-28359
 62
7
  6
BYLAYER
 10
51.4833391655
 20
2.7316897529
 11
51.4326439486
 21
2.7316897529
  0
LINE
  8
LS-12V-60-W10-28359
 62
7
  6
BYLAYER
 10
51.4326439486
 20
2.7316897529
 11
51.235425252
 21
3.1198498385
  0
LINE
  8
LS-12V-60-W10-28359
 62
7
  6
BYLAYER
 10
51.235425252
 20
3.1198498385
 11
51.1983176246
 21
2.7172281079
  0
LINE
  8
LS-12V-60-W10-28359
 62
7
  6
BYLAYER
 10
51.0978807058
 20
2.7172281079
 11
51.1838559797
 21
3.344243714
  0
LINE
  8
LS-12V-60-W10-28359
 62
7
  6
BYLAYER
 10
51.0978807058
 20
2.7172281079
 11
51.1983176246
 21
2.7172281079
  0
LINE
  8
LS-12V-60-W10-28359
 62
7
  6
BYLAYER
 10
51.7248963119
 20
2.7172281079
 11
51.8542962504
 21
2.7172281079
  0
LINE
  8
LS-12V-60-W10-28359
 62
7
  6
BYLAYER
 10
49.4618842601
 20
2.8230684411
 11
49.5027294839
 21
2.8240217937
  0
LINE
  8
LS-12V-60-W10-28359
 62
7
  6
BYLAYER
 10
49.5027294839
 20
2.8240217937
 11
49.5319223491
 21
2.8120064291
  0
LINE
  8
LS-12V-60-W10-28359
 62
7
  6
BYLAYER
 10
49.5319223491
 20
2.8120064291
 11
49.5533849711
 21
2.7873114642
  0
LINE
  8
LS-12V-60-W10-28359
 62
7
  6
BYLAYER
 10
49.5533849711
 20
2.7873114642
 11
49.5579141675
 21
2.7652216989
  0
LINE
  8
LS-12V-60-W10-28359
 62
7
  6
BYLAYER
 10
49.5579141675
 20
2.7652216989
 11
49.5456077601
 21
2.7308317498
  0
LINE
  8
LS-12V-60-W10-28359
 62
7
  6
BYLAYER
 10
49.5456077601
 20
2.7308317498
 11
49.5203695124
 21
2.7131756689
  0
LINE
  8
LS-12V-60-W10-28359
 62
7
  6
BYLAYER
 10
49.5203695124
 20
2.7131756689
 11
49.5011036717
 21
2.7099970666
  0
LINE
  8
LS-12V-60-W10-28359
 62
7
  6
BYLAYER
 10
49.5011036717
 20
2.7099970666
 11
49.4620064453
 21
2.7099972854
  0
LINE
  8
LS-12V-60-W10-28359
 62
7
  6
BYLAYER
 10
49.4620064453
 20
2.7099972854
 11
49.4267263884
 21
2.7217573044
  0
LINE
  8
LS-12V-60-W10-28359
 62
7
  6
BYLAYER
 10
49.4267263884
 20
2.7217573044
 11
49.4100776441
 21
2.7472932605
  0
LINE
  8
LS-12V-60-W10-28359
 62
7
  6
BYLAYER
 10
49.4100776441
 20
2.7472932605
 11
49.4136155564
 21
2.7873114642
  0
LINE
  8
LS-12V-60-W10-28359
 62
7
  6
BYLAYER
 10
49.4136155564
 20
2.7873114642
 11
49.4339920532
 21
2.814017687
  0
LINE
  8
LS-12V-60-W10-28359
 62
7
  6
BYLAYER
 10
49.4339920532
 20
2.814017687
 11
49.4618842601
 21
2.8230684411
  0
LINE
  8
LS-12V-60-W10-28359
 62
7
  6
BYLAYER
 10
50.8639842405
 20
3.2019401959
 11
50.8875114475
 21
3.151554214
  0
LINE
  8
LS-12V-60-W10-28359
 62
7
  6
BYLAYER
 10
50.8571444654
 20
2.8566386923
 11
50.7563236684
 21
2.7597389873
  0
LINE
  8
LS-12V-60-W10-28359
 62
7
  6
BYLAYER
 10
50.7563236684
 20
2.7597389873
 11
50.6717389373
 21
2.7380465199
  0
LINE
  8
LS-12V-60-W10-28359
 62
7
  6
BYLAYER
 10
50.6717389373
 20
2.7380465199
 11
50.5413592131
 21
2.7828897732
  0
LINE
  8
LS-12V-60-W10-28359
 62
7
  6
BYLAYER
 10
50.5413592131
 20
2.7828897732
 11
50.4749662271
 21
2.856030089
  0
LINE
  8
LS-12V-60-W10-28359
 62
7
  6
BYLAYER
 10
50.4532250713
 20
2.9049911135
 11
50.4355850428
 21
3.0284713127
  0
LINE
  8
LS-12V-60-W10-28359
 62
7
  6
BYLAYER
 10
50.4355850428
 20
3.0284713127
 11
50.464692078
 21
3.1527457547
  0
LINE
  8
LS-12V-60-W10-28359
 62
7
  6
BYLAYER
 10
50.464692078
 20
3.1527457547
 11
50.5269635686
 21
3.2565203292
  0
LINE
  8
LS-12V-60-W10-28359
 62
7
  6
BYLAYER
 10
50.6662959556
 20
3.3198496206
 11
50.7623509746
 21
3.2965380061
  0
LINE
  8
LS-12V-60-W10-28359
 62
7
  6
BYLAYER
 10
50.6662959556
 20
3.3198496206
 11
50.5900211673
 21
3.3027247127
  0
LINE
  8
LS-12V-60-W10-28359
 62
7
  6
BYLAYER
 10
50.5900211673
 20
3.3027247127
 11
50.5269635686
 21
3.2565203292
  0
LINE
  8
LS-12V-60-W10-28359
 62
7
  6
BYLAYER
 10
50.9295852992
 20
2.7877882217
 11
51.0097395145
 21
2.8939981993
  0
LINE
  8
LS-12V-60-W10-28359
 62
7
  6
BYLAYER
 10
51.0097395145
 20
2.8939981993
 11
51.0340327477
 21
3.0098096317
  0
LINE
  8
LS-12V-60-W10-28359
 62
7
  6
BYLAYER
 10
51.0340327477
 20
3.0098096317
 11
51.0218776102
 21
3.1198498385
  0
LINE
  8
LS-12V-60-W10-28359
 62
7
  6
BYLAYER
 10
51.0218776102
 20
3.1198498385
 11
50.9850798182
 21
3.2111672074
  0
LINE
  8
LS-12V-60-W10-28359
 62
7
  6
BYLAYER
 10
50.891857629
 20
3.3109593748
 11
50.7636375987
 21
3.3511566205
  0
LINE
  8
LS-12V-60-W10-28359
 62
7
  6
BYLAYER
 10
50.7636375987
 20
3.3511566205
 11
50.6411684686
 21
3.3572795045
  0
LINE
  8
LS-12V-60-W10-28359
 62
7
  6
BYLAYER
 10
50.3681244269
 20
3.2190059271
 11
50.3182616302
 21
3.1173294539
  0
LINE
  8
LS-12V-60-W10-28359
 62
7
  6
BYLAYER
 10
50.3182616302
 20
3.1173294539
 11
50.3061337284
 21
3.022100151
  0
LINE
  8
LS-12V-60-W10-28359
 62
7
  6
BYLAYER
 10
50.3061337284
 20
3.022100151
 11
50.3103365852
 21
2.9646267559
  0
LINE
  8
LS-12V-60-W10-28359
 62
7
  6
BYLAYER
 10
50.3103365852
 20
2.9646267559
 11
50.3247389181
 21
2.9022894875
  0
LINE
  8
LS-12V-60-W10-28359
 62
7
  6
BYLAYER
 10
50.3247389181
 20
2.9022894875
 11
50.3812744147
 21
2.8104342042
  0
LINE
  8
LS-12V-60-W10-28359
 62
7
  6
BYLAYER
 10
50.3812744147
 20
2.8104342042
 11
50.4192079251
 21
2.7772550564
  0
LINE
  8
LS-12V-60-W10-28359
 62
7
  6
BYLAYER
 10
50.4192079251
 20
2.7772550564
 11
50.5029701389
 21
2.7282764669
  0
LINE
  8
LS-12V-60-W10-28359
 62
7
  6
BYLAYER
 10
50.5029701389
 20
2.7282764669
 11
50.6063635616
 21
2.7043556547
  0
LINE
  8
LS-12V-60-W10-28359
 62
7
  6
BYLAYER
 10
50.6063635616
 20
2.7043556547
 11
50.6946551257
 21
2.7027605939
  0
LINE
  8
LS-12V-60-W10-28359
 62
7
  6
BYLAYER
 10
50.6946551257
 20
2.7027605939
 11
50.817865119
 21
2.7235848749
  0
LINE
  8
LS-12V-60-W10-28359
 62
7
  6
BYLAYER
 10
50.817865119
 20
2.7235848749
 11
50.8765913194
 21
2.7506992326
  0
LINE
  8
LS-12V-60-W10-28359
 62
7
  6
BYLAYER
 10
50.8765913194
 20
2.7506992326
 11
50.9295852992
 21
2.7877882217
  0
LINE
  8
LS-12V-60-W10-28359
 62
7
  6
BYLAYER
 10
50.8875114475
 20
3.151554214
 11
50.9020310949
 21
3.0908296249
  0
LINE
  8
LS-12V-60-W10-28359
 62
7
  6
BYLAYER
 10
50.9020310949
 20
3.0908296249
 11
50.905151476
 21
3.0284713127
  0
LINE
  8
LS-12V-60-W10-28359
 62
7
  6
BYLAYER
 10
50.905151476
 20
3.0284713127
 11
50.8798435973
 21
2.9053884115
  0
LINE
  8
LS-12V-60-W10-28359
 62
7
  6
BYLAYER
 10
50.8798435973
 20
2.9053884115
 11
50.8571444654
 21
2.8566386923
  0
LINE
  8
LS-12V-60-W10-28359
 62
7
  6
BYLAYER
 10
50.4532250713
 20
2.9049911135
 11
50.4749662271
 21
2.856030089
  0
LINE
  8
LS-12V-60-W10-28359
 62
7
  6
BYLAYER
 10
41.9773816854
 20
4.5931256014
 11
42.2011225802
 21
4.8231432717
  0
LINE
  8
LS-12V-60-W10-28359
 62
7
  6
BYLAYER
 10
42.3879111112
 20
5.9510915148
 11
42.2628209533
 21
5.7420057997
  0
LINE
  8
LS-12V-60-W10-28359
 62
7
  6
BYLAYER
 10
42.2628209533
 20
5.7420057997
 11
42.0822184338
 21
5.5470269601
  0
LINE
  8
LS-12V-60-W10-28359
 62
7
  6
BYLAYER
 10
42.0822184338
 20
5.5470269601
 11
41.8810714558
 21
5.3858185089
  0
LINE
  8
LS-12V-60-W10-28359
 62
7
  6
BYLAYER
 10
42.4771331767
 20
5.4870373063
 11
42.2486443045
 21
5.1266194367
  0
LINE
  8
LS-12V-60-W10-28359
 62
7
  6
BYLAYER
 10
42.2486443045
 20
5.1266194367
 11
42.0403873361
 21
4.9143690461
  0
LINE
  8
LS-12V-60-W10-28359
 62
7
  6
BYLAYER
 10
42.0403873361
 20
4.9143690461
 11
41.8542224241
 21
4.7698973175
  0
LINE
  8
LS-12V-60-W10-28359
 62
7
  6
BYLAYER
 10
45.6076204978
 20
3.2489716684
 11
45.6525151648
 21
3.1570369255
  0
LINE
  8
LS-12V-60-W10-28359
 62
7
  6
BYLAYER
 10
45.6525151648
 20
3.1570369255
 11
45.6674872219
 21
3.0522311745
  0
LINE
  8
LS-12V-60-W10-28359
 62
7
  6
BYLAYER
 10
45.6674872219
 20
3.0522311745
 11
45.6454829913
 21
2.9232668187
  0
LINE
  8
LS-12V-60-W10-28359
 62
7
  6
BYLAYER
 10
45.293118068
 20
2.7676974101
 11
45.3893847403
 21
2.7764255007
  0
LINE
  8
LS-12V-60-W10-28359
 62
7
  6
BYLAYER
 10
45.3893847403
 20
2.7764255007
 11
45.4649110784
 21
2.8176650267
  0
LINE
  8
LS-12V-60-W10-28359
 62
7
  6
BYLAYER
 10
45.4649110784
 20
2.8176650267
 11
45.5182681915
 21
2.9118246381
  0
LINE
  8
LS-12V-60-W10-28359
 62
7
  6
BYLAYER
 10
45.5182681915
 20
2.9118246381
 11
45.5355863726
 21
3.0311014747
  0
LINE
  8
LS-12V-60-W10-28359
 62
7
  6
BYLAYER
 10
45.5355863726
 20
3.0311014747
 11
45.5329573571
 21
3.0779882122
  0
LINE
  8
LS-12V-60-W10-28359
 62
7
  6
BYLAYER
 10
45.5329573571
 20
3.0779882122
 11
45.5138135009
 21
3.1644788367
  0
LINE
  8
LS-12V-60-W10-28359
 62
7
  6
BYLAYER
 10
45.5138135009
 20
3.1644788367
 11
45.4817167811
 21
3.2367348919
  0
LINE
  8
LS-12V-60-W10-28359
 62
7
  6
BYLAYER
 10
47.2973683587
 20
3.3472234485
 11
47.2273843269
 21
3.3379664066
  0
LINE
  8
LS-12V-60-W10-28359
 62
7
  6
BYLAYER
 10
47.2273843269
 20
3.3379664066
 11
47.1391748942
 21
3.3104242455
  0
LINE
  8
LS-12V-60-W10-28359
 62
7
  6
BYLAYER
 10
47.1391748942
 20
3.3104242455
 11
47.0347544216
 21
3.2314905591
  0
LINE
  8
LS-12V-60-W10-28359
 62
7
  6
BYLAYER
 10
47.0347544216
 20
3.2314905591
 11
46.9760757559
 21
3.1050641767
  0
LINE
  8
LS-12V-60-W10-28359
 62
7
  6
BYLAYER
 10
46.9760757559
 20
3.1050641767
 11
46.966101424
 21
3.0174559233
  0
LINE
  8
LS-12V-60-W10-28359
 62
7
  6
BYLAYER
 10
46.966101424
 20
3.0174559233
 11
47.0015934589
 21
2.864853826
  0
LINE
  8
LS-12V-60-W10-28359
 62
7
  6
BYLAYER
 10
47.0015934589
 20
2.864853826
 11
47.0864639517
 21
2.7678202276
  0
LINE
  8
LS-12V-60-W10-28359
 62
7
  6
BYLAYER
 10
47.0864639517
 20
2.7678202276
 11
47.2077708884
 21
2.7191761558
  0
LINE
  8
LS-12V-60-W10-28359
 62
7
  6
BYLAYER
 10
47.2077708884
 20
2.7191761558
 11
47.3059499942
 21
2.7119837751
  0
LINE
  8
LS-12V-60-W10-28359
 62
7
  6
BYLAYER
 10
47.3984012244
 20
2.7541768162
 11
47.3323703071
 21
2.7454362615
  0
LINE
  8
LS-12V-60-W10-28359
 62
7
  6
BYLAYER
 10
47.3323703071
 20
2.7454362615
 11
47.2601009932
 21
2.7587189316
  0
LINE
  8
LS-12V-60-W10-28359
 62
7
  6
BYLAYER
 10
47.2601009932
 20
2.7587189316
 11
47.1826054604
 21
2.8034798728
  0
LINE
  8
LS-12V-60-W10-28359
 62
7
  6
BYLAYER
 10
47.0954627862
 20
3.0880251085
 11
47.0910059846
 21
3.02742448
  0
LINE
  8
LS-12V-60-W10-28359
 62
7
  6
BYLAYER
 10
47.0910059846
 20
3.02742448
 11
47.1024546259
 21
2.937522184
  0
LINE
  8
LS-12V-60-W10-28359
 62
7
  6
BYLAYER
 10
47.1024546259
 20
2.937522184
 11
47.1296014955
 21
2.8695768442
  0
LINE
  8
LS-12V-60-W10-28359
 62
7
  6
BYLAYER
 10
47.3129821677
 20
3.3036398647
 11
47.2130617363
 21
3.2689160249
  0
LINE
  8
LS-12V-60-W10-28359
 62
7
  6
BYLAYER
 10
47.2130617363
 20
3.2689160249
 11
47.1468221742
 21
3.2119650184
  0
LINE
  8
LS-12V-60-W10-28359
 62
7
  6
BYLAYER
 10
47.1468221742
 20
3.2119650184
 11
47.1113534641
 21
3.1495677243
  0
LINE
  8
LS-12V-60-W10-28359
 62
7
  6
BYLAYER
 10
47.6823103311
 20
3.2790868521
 11
47.7185041732
 21
3.2782127967
  0
LINE
  8
LS-12V-60-W10-28359
 62
7
  6
BYLAYER
 10
47.7185041732
 20
3.2782127967
 11
47.8813963279
 21
3.2982835793
  0
LINE
  8
LS-12V-60-W10-28359
 62
7
  6
BYLAYER
 10
47.9962948916
 20
3.298652911
 11
48.1591473165
 21
3.2790868521
  0
LINE
  8
LS-12V-60-W10-28359
 62
7
  6
BYLAYER
 10
48.1591473165
 20
3.2790868521
 11
48.1953411587
 21
3.2782127967
  0
LINE
  8
LS-12V-60-W10-28359
 62
7
  6
BYLAYER
 10
45.377239254
 20
2.7262265879
 11
45.458334104
 21
2.7387105715
  0
LINE
  8
LS-12V-60-W10-28359
 62
7
  6
BYLAYER
 10
45.458334104
 20
2.7387105715
 11
45.5643716124
 21
2.7997889879
  0
LINE
  8
LS-12V-60-W10-28359
 62
7
  6
BYLAYER
 10
45.5643716124
 20
2.7997889879
 11
45.6454829913
 21
2.9232668187
  0
LINE
  8
LS-12V-60-W10-28359
 62
7
  6
BYLAYER
 10
50.3719395209
 20
3.2243294664
 11
50.4471212161
 21
3.3008328516
  0
LINE
  8
LS-12V-60-W10-28359
 62
7
  6
BYLAYER
 10
50.4471212161
 20
3.3008328516
 11
50.5438074839
 21
3.343815192
  0
LINE
  8
LS-12V-60-W10-28359
 62
7
  6
BYLAYER
 10
50.5438074839
 20
3.343815192
 11
50.6411684686
 21
3.3572795045
  0
LINE
  8
LS-12V-60-W10-28359
 62
7
  6
BYLAYER
 10
50.8639842405
 20
3.2019401959
 11
50.8146719384
 21
3.2607399555
  0
LINE
  8
LS-12V-60-W10-28359
 62
7
  6
BYLAYER
 10
50.8146719384
 20
3.2607399555
 11
50.7623509746
 21
3.2965380061
  0
LINE
  8
LS-12V-60-W10-28359
 62
7
  6
BYLAYER
 10
50.891857629
 20
3.3109593748
 11
50.949776812
 21
3.25806509
  0
LINE
  8
LS-12V-60-W10-28359
 62
7
  6
BYLAYER
 10
50.949776812
 20
3.25806509
 11
50.9850798182
 21
3.2111672074
  0
LINE
  8
LS-12V-60-W10-28359
 62
7
  6
BYLAYER
 10
44.4352426371
 20
5.7605620251
 11
44.4352426371
 21
5.607551372
  0
LINE
  8
LS-12V-60-W10-28359
 62
7
  6
BYLAYER
 10
49.5032947674
 20
4.7728022286
 11
48.8148268907
 21
4.7728022286
  0
ARC
  8
LS-12V-60-W10-28359
 62
7
  6
BYLAYER
 10
50.8374971287
 20
5.9207114437
 40
0.0998355553
 50
90.0
 51
180.0
  0
ARC
  8
LS-12V-60-W10-28359
 62
7
  6
BYLAYER
 10
51.7543868688
 20
5.9207114437
 40
0.0998355553
 50
0.0
 51
90.0
  0
ARC
  8
LS-12V-60-W10-28359
 62
7
  6
BYLAYER
 10
51.7543868688
 20
3.957744755
 40
0.0998355553
 50
270.0
 51
360.0
  0
ARC
  8
LS-12V-60-W10-28359
 62
7
  6
BYLAYER
 10
50.8374971287
 20
3.957744755
 40
0.0998355553
 50
180.0
 51
270.0
  0
LINE
  8
LS-12V-60-W10-28359
 62
7
  6
BYLAYER
 10
46.0328111934
 20
5.6399738621
 11
46.2804033706
 21
5.6051312533
  0
ENDBLK
  8
0
  6
BYBLOCK
 62
0
  0
BLOCK
  8
0
  2
_FILLED
 70
64
 10
0.0
 20
0.0
  0
SOLID
  8
0
  6
BYBLOCK
 62
0
 10
0.0
 20
0.0
 11
-1.0
 21
0.2142857143
 12
-1.0
 22
-0.2142857143
 13
-1.0
 23
-0.2142857143
  0
ENDBLK
  8
0
  6
BYBLOCK
 62
0
  0
BLOCK
  8
LS-12V-60-W10-28354
 62
3
  6
BYLAYER
  2
*D0
 70
65
 10
0.0
 20
0.0
  0
TEXT
  8
LS-12V-60-W10-28354
 62
3
  6
BYLAYER
 10
9.2941066432
 20
24.6377186839
  7
STANDARD
 40
0.875
  1
10
 50
90.0
 41
0.85
 72
1
 11
9.2941066432
 21
25.3814686839
  0
LINE
  8
LS-12V-60-W10-28354
 62
3
  6
BYLAYER
 10
11.7628566432
 20
30.3814686839
 11
9.1378566432
 21
30.3814686839
  0
LINE
  8
LS-12V-60-W10-28354
 62
3
  6
BYLAYER
 10
11.7628566432
 20
20.3814686839
 11
9.1378566432
 21
20.3814686839
  0
LINE
  8
LS-12V-60-W10-28354
 62
3
  6
BYLAYER
 10
9.5128566432
 20
30.3814686839
 11
9.5128566432
 21
25.3814686839
  0
LINE
  8
LS-12V-60-W10-28354
 62
3
  6
BYLAYER
 10
9.5128566432
 20
20.3814686839
 11
9.5128566432
 21
25.3814686839
  0
INSERT
  8
LS-12V-60-W10-28354
 62
3
  6
BYLAYER
  2
_FILLED
 10
9.5128566432
 20
30.3814686839
 41
0.875
 42
0.875
 43
0.875
 50
90.0
  0
INSERT
  8
LS-12V-60-W10-28354
 62
3
  6
BYLAYER
  2
_FILLED
 10
9.5128566432
 20
20.3814686839
 41
0.875
 42
0.875
 43
0.875
 50
270.0
  0
ENDBLK
  8
0
  6
BYBLOCK
 62
0
  0
BLOCK
  8
LS-12V-60-W10-28354
 62
3
  6
BYLAYER
  2
*D1
 70
65
 10
0.0
 20
0.0
  0
TEXT
  8
LS-12V-60-W10-28354
 62
3
  6
BYLAYER
 10
36.2691066432
 20
35.1002186839
  7
STANDARD
 40
0.875
  1
50
 41
0.85
 72
1
 11
37.0128566432
 21
35.1002186839
  0
LINE
  8
LS-12V-60-W10-28354
 62
3
  6
BYLAYER
 10
12.0128566432
 20
30.6314686839
 11
12.0128566432
 21
35.2564686839
  0
LINE
  8
LS-12V-60-W10-28354
 62
3
  6
BYLAYER
 10
62.0128566432
 20
30.6314686839
 11
62.0128566432
 21
35.2564686839
  0
LINE
  8
LS-12V-60-W10-28354
 62
3
  6
BYLAYER
 10
12.0128566432
 20
34.8814686839
 11
37.0128566432
 21
34.8814686839
  0
LINE
  8
LS-12V-60-W10-28354
 62
3
  6
BYLAYER
 10
62.0128566432
 20
34.8814686839
 11
37.0128566432
 21
34.8814686839
  0
INSERT
  8
LS-12V-60-W10-28354
 62
3
  6
BYLAYER
  2
_FILLED
 10
12.0128566432
 20
34.8814686839
 41
0.875
 42
0.875
 43
0.875
 50
180.0
  0
INSERT
  8
LS-12V-60-W10-28354
 62
3
  6
BYLAYER
  2
_FILLED
 10
62.0128566432
 20
34.8814686839
 41
0.875
 42
0.875
 43
0.875
  0
ENDBLK
  8
0
  6
BYBLOCK
 62
0
  0
BLOCK
  8
LS-12V-60-W10-28354
 62
3
  6
BYLAYER
  2
*D2
 70
65
 10
0.0
 20
0.0
  0
TEXT
  8
LS-12V-60-W10-28354
 62
3
  6
BYLAYER
 10
9.2941066432
 20
39.9123338456
  7
STANDARD
 40
0.875
  1
1
 50
90.0
 41
0.85
 72
1
 11
9.2941066432
 21
40.2842088456
  0
LINE
  8
LS-12V-60-W10-28354
 62
3
  6
BYLAYER
 10
11.7628566432
 20
39.7842088456
 11
9.1378566432
 21
39.7842088456
  0
LINE
  8
LS-12V-60-W10-28354
 62
3
  6
BYLAYER
 10
18.7092829373
 20
40.7842088456
 11
9.1378566432
 21
40.7842088456
  0
LINE
  8
LS-12V-60-W10-28354
 62
3
  6
BYLAYER
 10
9.5128566432
 20
39.7842088456
 11
9.5128566432
 21
38.5342088456
  0
LINE
  8
LS-12V-60-W10-28354
 62
3
  6
BYLAYER
 10
9.5128566432
 20
38.5342088456
 11
9.5128566432
 21
40.2842088456
  0
LINE
  8
LS-12V-60-W10-28354
 62
3
  6
BYLAYER
 10
9.5128566432
 20
40.7842088456
 11
9.5128566432
 21
42.0342088456
  0
LINE
  8
LS-12V-60-W10-28354
 62
3
  6
BYLAYER
 10
9.5128566432
 20
42.0342088456
 11
9.5128566432
 21
40.2842088456
  0
INSERT
  8
LS-12V-60-W10-28354
 62
3
  6
BYLAYER
  2
_FILLED
 10
9.5128566432
 20
39.7842088456
 41
0.875
 42
0.875
 43
0.875
 50
90.0
  0
INSERT
  8
LS-12V-60-W10-28354
 62
3
  6
BYLAYER
  2
_FILLED
 10
9.5128566432
 20
40.7842088456
 41
0.875
 42
0.875
 43
0.875
 50
270.0
  0
ENDBLK
  8
0
  6
BYBLOCK
 62
0
  0
BLOCK
  8
LS-12V-60-W10-28354
 62
3
  6
BYLAYER
  2
*D3
 70
65
 10
0.0
 20
0.0
  0
TEXT
  8
LS-12V-60-W10-28354
 62
3
  6
BYLAYER
 10
26.8201483098
 20
33.1002186839
  7
STANDARD
 40
0.875
  1
16,67
 41
0.85
 72
1
 11
28.6795233098
 21
33.1002186839
  0
LINE
  8
LS-12V-60-W10-28354
 62
3
  6
BYLAYER
 10
20.3461899765
 20
27.3814686839
 11
20.3461899765
 21
33.2564686839
  0
LINE
  8
LS-12V-60-W10-28354
 62
3
  6
BYLAYER
 10
37.0128566432
 20
27.3814686839
 11
37.0128566432
 21
33.2564686839
  0
LINE
  8
LS-12V-60-W10-28354
 62
3
  6
BYLAYER
 10
20.3461899765
 20
32.8814686839
 11
28.6795233098
 21
32.8814686839
  0
LINE
  8
LS-12V-60-W10-28354
 62
3
  6
BYLAYER
 10
37.0128566432
 20
32.8814686839
 11
28.6795233098
 21
32.8814686839
  0
INSERT
  8
LS-12V-60-W10-28354
 62
3
  6
BYLAYER
  2
_FILLED
 10
20.3461899765
 20
32.8814686839
 41
0.875
 42
0.875
 43
0.875
 50
180.0
  0
INSERT
  8
LS-12V-60-W10-28354
 62
3
  6
BYLAYER
  2
_FILLED
 10
37.0128566432
 20
32.8814686839
 41
0.875
 42
0.875
 43
0.875
  0
ENDBLK
  8
0
  6
BYBLOCK
 62
0
  0
BLOCK
  8
LS-12V-60-W10-28354
 62
3
  6
BYLAYER
  2
*D4
 70
65
 10
0.0
 20
0.0
  0
TEXT
  8
LS-12V-60-W10-28354
 62
3
  6
BYLAYER
 10
56.3586899765
 20
33.1002186839
  7
STANDARD
 40
0.875
  1
8,33
 41
0.85
 72
1
 11
57.8461899765
 21
33.1002186839
  0
LINE
  8
LS-12V-60-W10-28354
 62
3
  6
BYLAYER
 10
62.0128566432
 20
30.6314686839
 11
62.0128566432
 21
33.2564686839
  0
LINE
  8
LS-12V-60-W10-28354
 62
3
  6
BYLAYER
 10
53.6795233098
 20
27.3814686839
 11
53.6795233098
 21
33.2564686839
  0
LINE
  8
LS-12V-60-W10-28354
 62
3
  6
BYLAYER
 10
62.0128566432
 20
32.8814686839
 11
57.8461899765
 21
32.8814686839
  0
LINE
  8
LS-12V-60-W10-28354
 62
3
  6
BYLAYER
 10
53.6795233098
 20
32.8814686839
 11
57.8461899765
 21
32.8814686839
  0
INSERT
  8
LS-12V-60-W10-28354
 62
3
  6
BYLAYER
  2
_FILLED
 10
62.0128566432
 20
32.8814686839
 41
0.875
 42
0.875
 43
0.875
  0
INSERT
  8
LS-12V-60-W10-28354
 62
3
  6
BYLAYER
  2
_FILLED
 10
53.6795233098
 20
32.8814686839
 41
0.875
 42
0.875
 43
0.875
 50
180.0
  0
ENDBLK
  8
0
  6
BYBLOCK
 62
0
  0
ENDSEC
  0
SECTION
  2
ENTITIES
  0
TEXT
  8
LS-12V-60-W10-28359
 62
7
  6
BYLAYER
 10
71.6249999614
 20
43.7499986941
  7
TEXTSTYLE_2
 40
0.6250025
  1
D
 41
0.9047619048
 72
0
  0
TEXT
  8
LS-12V-60-W10-28359
 62
7
  6
BYLAYER
 10
71.6250000514
 20
31.8749986694
  7
TEXTSTYLE_2
 40
0.6250025
  1
C
 50
180.0
 41
0.8333333333
 71
2
 72
2
 11
72.1458354681
 21
31.8749986694
  0
TEXT
  8
LS-12V-60-W10-28359
 62
7
  6
BYLAYER
 10
71.624999913
 20
19.9999986985
  7
TEXTSTYLE_2
 40
0.6250025
  1
B
 41
0.7857142857
 72
0
  0
TEXT
  8
LS-12V-60-W10-28359
 62
7
  6
BYLAYER
 10
2.3095215476
 20
43.74999875
  7
TEXTSTYLE_2
 40
0.6250025
  1
D
 41
0.9047619048
 72
2
 11
2.875
 21
43.74999875
  0
TEXT
  8
LS-12V-60-W10-28359
 62
7
  6
BYLAYER
 10
2.3541644933
 20
31.8749987253
  7
TEXTSTYLE_2
 40
0.6250025
  1
C
 41
0.8333333333
 72
2
 11
2.8749999099
 21
31.8749987253
  0
TEXT
  8
LS-12V-60-W10-28359
 62
7
  6
BYLAYER
 10
2.339283631
 20
8.1249987689
  7
TEXTSTYLE_2
 40
0.6250025
  1
A
 41
0.8571428571
 72
2
 11
2.8750000596
 21
8.1249987689
  0
TEXT
  8
LS-12V-60-W10-28359
 62
7
  6
BYLAYER
 10
2.3839266555
 20
19.9999987544
  7
TEXTSTYLE_2
 40
0.6250025
  1
B
 41
0.7857142857
 72
2
 11
2.8750000484
 21
19.9999987544
  0
TEXT
  8
LS-12V-60-W10-28359
 62
7
  6
BYLAYER
 10
65.7957336286
 20
49.8323196777
  7
TEXTSTYLE_2
 40
0.6250025
  1
1
 41
0.5714285714
 72
0
  0
TEXT
  8
LS-12V-60-W10-28359
 62
7
  6
BYLAYER
 10
54.1298595298
 20
49.8323196777
  7
TEXTSTYLE_2
 40
0.6250025
  1
2
 41
0.7857142857
 72
2
 11
54.6209329227
 21
49.8323196777
  0
TEXT
  8
LS-12V-60-W10-28359
 62
7
  6
BYLAYER
 10
42.7124002953
 20
49.8323196777
  7
TEXTSTYLE_2
 40
0.6250025
  1
3
 41
0.7142857143
 72
0
  0
TEXT
  8
LS-12V-60-W10-28359
 62
7
  6
BYLAYER
 10
31.0465261965
 20
49.8323196777
  7
TEXTSTYLE_2
 40
0.6250025
  1
4
 41
0.7857142857
 72
2
 11
31.5375995894
 21
49.8323196777
  0
TEXT
  8
LS-12V-60-W10-28359
 62
7
  6
BYLAYER
 10
19.629066962
 20
49.8323196777
  7
TEXTSTYLE_2
 40
0.6250025
  1
5
 41
0.7142857143
 72
0
  0
TEXT
  8
LS-12V-60-W10-28359
 62
7
  6
BYLAYER
 10
7.9631928632
 20
49.8323196777
  7
TEXTSTYLE_2
 40
0.6250025
  1
6
 41
0.7857142857
 72
2
 11
8.454266256
 21
49.8323196777
  0
TEXT
  8
LS-12V-60-W10-28359
 62
7
  6
BYLAYER
 10
19.6290670806
 20
2.0823195187
  7
TEXTSTYLE_2
 40
0.6250025
  1
5
 41
0.7142857143
 72
0
  0
TEXT
  8
LS-12V-60-W10-28359
 62
7
  6
BYLAYER
 10
7.9631929819
 20
2.0823195187
  7
TEXTSTYLE_2
 40
0.6250025
  1
6
 41
0.7857142857
 72
2
 11
8.4542663747
 21
2.0823195187
  0
INSERT
  8
LS-12V-60-W10-28359
 62
7
  6
BYLAYER
  2
SYMBOL_283_BL0
 10
46.8476668225
 20
4.3580413197
  0
DIMENSION
  8
LS-12V-60-W10-28354
 62
3
  6
BYLAYER
  2
*D0
 10
9.5128566432
 20
20.3814686839
 11
9.1898613952
 21
24.7165586653
 70
128
 13
11.7628566432
 23
30.3814686839
 14
11.7628566432
 24
20.3814686839
 50
270.0
  0
DIMENSION
  8
LS-12V-60-W10-28354
 62
3
  6
BYLAYER
  2
*D1
 10
62.0128566432
 20
34.8814686839
 11
36.2691066432
 21
35.5377186839
 70
128
 13
12.0128566432
 23
30.6314686839
 14
62.0128566432
 24
30.6314686839
  0
DIMENSION
  8
LS-12V-60-W10-28354
 62
3
  6
BYLAYER
  2
*D2
 10
9.5128566432
 20
40.7842088456
 11
9.0232340192
 21
39.9517538363
 70
128
 13
11.7628566432
 23
39.7842088456
 14
18.7092829373
 24
40.7842088456
 50
90.0
  0
DIMENSION
  8
LS-12V-60-W10-28354
 62
3
  6
BYLAYER
  2
*D3
 10
37.0128566432
 20
32.8814686839
 11
26.8201483098
 21
33.5377186839
 70
128
 13
20.3461899765
 23
27.3814686839
 14
37.0128566432
 24
27.3814686839
  0
DIMENSION
  8
LS-12V-60-W10-28354
 62
3
  6
BYLAYER
  2
*D4
 10
53.6795233098
 20
32.8814686839
 11
56.3586899765
 21
33.5377186839
 70
128
 13
62.0128566432
 23
30.6314686839
 14
53.6795233098
 24
27.3814686839
 50
180.0
  0
LINE
  8
LS-12V-60-W10-28359
 62
3
  6
BYLAYER
 10
25.6999999614
 20
15.5624998866
 11
72.4999999614
 21
15.5624998866
  0
LINE
  8
LS-12V-60-W10-28359
 62
3
  6
BYLAYER
 10
25.6999999614
 20
15.5624998866
 11
25.6999999614
 21
1.7499998866
  0
LINE
  8
LS-12V-60-W10-28359
 62
3
  6
BYLAYER
 10
52.3999999614
 20
13.4374998866
 11
72.4999999614
 21
13.4374998866
  0
LINE
  8
LS-12V-60-W10-28359
 62
3
  6
BYLAYER
 10
25.6999999614
 20
11.3124998866
 11
72.4999999614
 21
11.3124998866
  0
LINE
  8
LS-12V-60-W10-28359
 62
3
  6
BYLAYER
 10
25.6999999614
 20
10.2499998866
 11
39.3499999614
 21
10.2499998866
  0
LINE
  8
LS-12V-60-W10-28359
 62
3
  6
BYLAYER
 10
41.3499999614
 20
10.2499998866
 11
52.3999999614
 21
10.2499998866
  0
LINE
  8
LS-12V-60-W10-28359
 62
3
  6
BYLAYER
 10
25.6999999614
 20
9.1874998866
 11
39.3499999614
 21
9.1874998866
  0
LINE
  8
LS-12V-60-W10-28359
 62
3
  6
BYLAYER
 10
41.3499999614
 20
9.1874998866
 11
52.3999999614
 21
9.1874998866
  0
LINE
  8
LS-12V-60-W10-28359
 62
3
  6
BYLAYER
 10
25.6999999614
 20
8.1249998866
 11
39.3499999614
 21
8.1249998866
  0
LINE
  8
LS-12V-60-W10-28359
 62
3
  6
BYLAYER
 10
41.3499999614
 20
8.1249998866
 11
72.4999999614
 21
8.1249998866
  0
LINE
  8
LS-12V-60-W10-28359
 62
3
  6
BYLAYER
 10
25.6999999614
 20
7.0624998866
 11
39.3499999614
 21
7.0624998866
  0
LINE
  8
LS-12V-60-W10-28359
 62
3
  6
BYLAYER
 10
41.3499999614
 20
7.0624998866
 11
52.3999999614
 21
7.0624998866
  0
LINE
  8
LS-12V-60-W10-28359
 62
3
  6
BYLAYER
 10
25.6999999614
 20
5.9999998866
 11
39.3499999614
 21
5.9999998866
  0
LINE
  8
LS-12V-60-W10-28359
 62
3
  6
BYLAYER
 10
52.3999999614
 20
5.9999998866
 11
72.4999999614
 21
5.9999998866
  0
LINE
  8
LS-12V-60-W10-28359
 62
3
  6
BYLAYER
 10
25.6999999614
 20
4.9374998866
 11
39.3499999614
 21
4.9374998866
  0
LINE
  8
LS-12V-60-W10-28359
 62
3
  6
BYLAYER
 10
25.6999999614
 20
3.8749998866
 11
39.3499999614
 21
3.8749998866
  0
LINE
  8
LS-12V-60-W10-28359
 62
3
  6
BYLAYER
 10
52.3999999614
 20
3.8749998866
 11
69.1499999614
 21
3.8749998866
  0
LINE
  8
LS-12V-60-W10-28359
 62
3
  6
BYLAYER
 10
25.6999999614
 20
2.8124998866
 11
39.3499999614
 21
2.8124998866
  0
LINE
  8
LS-12V-60-W10-28359
 62
3
  6
BYLAYER
 10
25.6999999614
 20
1.7499998866
 11
72.4999999614
 21
1.7499998866
  0
LINE
  8
LS-12V-60-W10-28359
 62
3
  6
BYLAYER
 10
27.6499999614
 20
11.3124998866
 11
27.6499999614
 21
1.7499998866
  0
LINE
  8
LS-12V-60-W10-28359
 62
3
  6
BYLAYER
 10
34.1499999614
 20
11.3124998866
 11
34.1499999614
 21
1.7499998866
  0
LINE
  8
LS-12V-60-W10-28359
 62
3
  6
BYLAYER
 10
37.3999999614
 20
11.3124998866
 11
37.3999999614
 21
1.7499998866
  0
LINE
  8
LS-12V-60-W10-28359
 62
3
  6
BYLAYER
 10
39.3499999614
 20
11.3124998866
 11
39.3499999614
 21
1.7499998866
  0
LINE
  8
LS-12V-60-W10-28359
 62
3
  6
BYLAYER
 10
41.3499999614
 20
15.5624998866
 11
41.3499999614
 21
1.7499998866
  0
LINE
  8
LS-12V-60-W10-28359
 62
3
  6
BYLAYER
 10
44.8499999614
 20
11.3124998866
 11
44.8499999614
 21
7.0624998866
  0
LINE
  8
LS-12V-60-W10-28359
 62
3
  6
BYLAYER
 10
48.6499999614
 20
15.5624998866
 11
48.6499999614
 21
7.0624998866
  0
LINE
  8
LS-12V-60-W10-28359
 62
3
  6
BYLAYER
 10
52.3999999614
 20
15.5624998866
 11
52.3999999614
 21
1.7499998866
  0
LINE
  8
LS-12V-60-W10-28359
 62
3
  6
BYLAYER
 10
57.3999999614
 20
15.5624998866
 11
57.3999999614
 21
13.4374998866
  0
LINE
  8
LS-12V-60-W10-28359
 62
3
  6
BYLAYER
 10
66.1499999614
 20
15.5624998866
 11
66.1499999614
 21
11.3124998866
  0
LINE
  8
LS-12V-60-W10-28359
 62
3
  6
BYLAYER
 10
69.1499999614
 20
8.1249998866
 11
69.1499999614
 21
1.7499998866
  0
LINE
  8
LS-12V-60-W10-28359
 62
3
  6
BYLAYER
 10
72.4999999614
 20
15.5624998866
 11
72.4999999614
 21
1.7499998866
  0
TEXT
  8
LS-12V-60-W10-28359
 62
3
  6
BYLAYER
 10
25.9343749614
 20
15.0874998866
  7
TEXTSTYLE_3
 40
0.3
  1
THE TECHNICAL INFORMATION AND DESIGN DATA DISCLOSED ON THIS
 41
0.786117837
 72
0
  0
TEXT
  8
LS-12V-60-W10-28359
 62
3
  6
BYLAYER
 10
25.9343749614
 20
14.6374998866
  7
TEXTSTYLE_3
 40
0.3
  1
DOCUMENT HEREIN CONSTITUTES TRADE SECRETS AND IS THE PROPERTY
 41
0.7903981265
 72
0
  0
TEXT
  8
LS-12V-60-W10-28359
 62
3
  6
BYLAYER
 10
25.9343749614
 20
14.1874998866
  7
TEXTSTYLE_3
 40
0.3
  1
OF "DENGTEC" AND ARE TO BE MAINTAINED IN STRICT CONFIDENCE BY
 41
0.7825917252
 72
0
  0
TEXT
  8
LS-12V-60-W10-28359
 62
3
  6
BYLAYER
 10
25.9343749614
 20
13.7374998866
  7
TEXTSTYLE_3
 40
0.3
  1
THE RECIPIENT HEREOF AND IS LOANED UPON EXPRESS CONDITIONS THAT
 41
0.7792894936
 72
0
  0
TEXT
  8
LS-12V-60-W10-28359
 62
3
  6
BYLAYER
 10
25.9343749614
 20
13.2874998866
  7
TEXTSTYLE_3
 40
0.3
  1
IT WILL NOT BE USED DIRECTLY OR INDIRECTLY IN ANY MANNER 
 41
0.7848788638
 72
0
  0
TEXT
  8
LS-12V-60-W10-28359
 62
3
  6
BYLAYER
 10
25.9343749614
 20
12.8374998866
  7
TEXTSTYLE_3
 40
0.3
  1
DETRIMENTAL TO OUR INTRESTS AND SHALL BE USED ONLY IN CONNECTION 
 41
0.7805860806
 72
0
  0
TEXT
  8
LS-12V-60-W10-28359
 62
3
  6
BYLAYER
 10
25.9343749614
 20
12.3874998866
  7
TEXTSTYLE_3
 40
0.3
  1
WITH MATERIALS AND/OR TECHNICAL INFORMATION AND/OR DESIGN DATA
 41
0.7976190476
 72
0
  0
TEXT
  8
LS-12V-60-W10-28359
 62
3
  6
BYLAYER
 10
25.9343749614
 20
11.9374998866
  7
TEXTSTYLE_3
 40
0.3
  1
FURNISHED BY "DENGTEC" OR ITS AFFILIATES OR AGENTS. ALL SAID
 41
0.7674603175
 72
0
  0
TEXT
  8
LS-12V-60-W10-28359
 62
3
  6
BYLAYER
 10
25.9343749614
 20
11.4874998866
  7
TEXTSTYLE_3
 40
0.3
  1
MATERIALS ARE SUBJECT TO RETURN UPON DEMAND.
 41
0.7857142857
 72
0
  0
TEXT
  8
LS-12V-60-W10-28359
 62
3
  6
BYLAYER
 10
41.5843749614
 20
14.3124998866
  7
TEXTSTYLE_4
 40
0.5
  1
General Tolerance
 41
0.6932773109
 72
0
  0
TEXT
  8
LS-12V-60-W10-28359
 62
3
  6
BYLAYER
 10
41.5843749614
 20
13.5624998866
  7
TEXTSTYLE_4
 40
0.5
  1
DIN ISO 2768
 41
0.7718253968
 72
0
  0
TEXT
  8
LS-12V-60-W10-28359
 62
3
  6
BYLAYER
 10
41.5843749614
 20
12.8124998866
  7
TEXTSTYLE_4
 40
0.5
  1
Edges of workpieces
 41
0.7117794486
 72
0
  0
TEXT
  8
LS-12V-60-W10-28359
 62
3
  6
BYLAYER
 10
41.5843749614
 20
12.0624998866
  7
TEXTSTYLE_4
 40
0.5
  1
DIN 6784
 41
0.7827380952
 72
0
  0
TEXT
  8
LS-12V-60-W10-28359
 62
3
  6
BYLAYER
 10
49.2660713899
 20
14.1249998866
  7
TEXTSTYLE_5
 40
0.75
  1
Scale
 41
0.6714285714
 72
1
 11
50.5249999614
 21
14.1249998866
  0
TEXT
  8
LS-12V-60-W10-28359
 62
3
  6
BYLAYER
 10
52.6343749614
 20
14.6562498866
  7
TEXTSTYLE_5
 40
0.625
  1
Drawing
 41
0.7448979592
 72
0
  0
TEXT
  8
LS-12V-60-W10-28359
 62
3
  6
BYLAYER
 10
52.6343749614
 20
13.7187498866
  7
TEXTSTYLE_5
 40
0.625
  1
Type 
 41
0.7380952381
 72
0
  0
TEXT
  8
LS-12V-60-W10-28359
 62
3
  6
BYLAYER
 10
57.6343749614
 20
13.9999998866
  7
TEXTSTYLE_5
 40
1.0
  1
ASSEM
 41
0.8
 72
0
  0
TEXT
  8
LS-12V-60-W10-28359
 62
3
  6
BYLAYER
 10
61.6343749614
 20
13.9999998866
  7
TEXTSTYLE_5
 40
1.0
  1
 
 41
0.7857142857
 72
0
  0
TEXT
  8
LS-12V-60-W10-28359
 62
3
  6
BYLAYER
 10
66.3843749614
 20
14.7437498866
  7
TEXTSTYLE_5
 40
0.575
  1
Weight 
 41
0.768707483
 72
0
  0
TEXT
  8
LS-12V-60-W10-28359
 62
3
  6
BYLAYER
 10
68.7745535328
 20
13.6812498866
  7
TEXTSTYLE_5
 40
0.575
  1
0,000
 41
0.7428571429
 72
2
 11
70.9102678185
 21
13.6812498866
  0
TEXT
  8
LS-12V-60-W10-28359
 62
3
  6
BYLAYER
 10
70.9102678185
 20
13.6812498866
  7
TEXTSTYLE_5
 40
0.575
  1
 KG
 41
0.7857142857
 72
2
 11
72.2656249614
 21
13.6812498866
  0
TEXT
  8
LS-12V-60-W10-28359
 62
3
  6
BYLAYER
 10
49.1321428185
 20
11.9999998866
  7
TEXTSTYLE_5
 40
0.75
  1
4,000
 41
0.7428571429
 72
1
 11
50.5249999614
 21
11.9999998866
  0
TEXT
  8
LS-12V-60-W10-28359
 62
3
  6
BYLAYER
 10
52.6343749614
 20
12.6187498866
  7
TEXTSTYLE_5
 40
0.575
  1
Material:
 41
0.6216931217
 72
0
  0
TEXT
  8
LS-12V-60-W10-28359
 62
3
  6
BYLAYER
 10
52.6343749614
 20
11.5562498866
  7
TEXTSTYLE_5
 40
0.575
  1
Color:
 41
0.626984127
 72
0
  0
TEXT
  8
LS-12V-60-W10-28359
 62
3
  6
BYLAYER
 10
26.4491071042
 20
10.4937498866
  7
TEXTSTYLE_5
 40
0.575
  1
8
 41
0.7857142857
 72
1
 11
26.6749999614
 21
10.4937498866
  0
TEXT
  8
LS-12V-60-W10-28359
 62
3
  6
BYLAYER
 10
40.8031249614
 20
3.4360117913
  7
TEXTSTYLE_2
 40
1.25
  1
CAD-A4
 50
90.0
 41
0.8253968254
 72
2
 11
40.8031249614
 21
9.6264879818
  0
TEXT
  8
LS-12V-60-W10-28359
 62
3
  6
BYLAYER
 10
45.791666628
 20
10.4937498866
  7
TEXTSTYLE_5
 40
0.575
  1
DATE
 41
0.8333333333
 72
1
 11
46.7499999614
 21
10.4937498866
  0
TEXT
  8
LS-12V-60-W10-28359
 62
3
  6
BYLAYER
 10
49.6008928185
 20
10.4937498866
  7
TEXTSTYLE_5
 40
0.575
  1
NAME
 41
0.8035714286
 72
1
 11
50.5249999614
 21
10.4937498866
  0
TEXT
  8
LS-12V-60-W10-28359
 62
3
  6
BYLAYER
 10
52.6343749614
 20
10.4937498866
  7
TEXTSTYLE_5
 40
0.575
  1
Part Name:
 41
0.7
 72
0
  0
TEXT
  8
LS-12V-60-W10-28359
 62
3
  6
BYLAYER
 10
26.4491071042
 20
9.4312498866
  7
TEXTSTYLE_5
 40
0.575
  1
7
 41
0.7857142857
 72
1
 11
26.6749999614
 21
9.4312498866
  0
TEXT
  8
LS-12V-60-W10-28359
 62
3
  6
BYLAYER
 10
41.5843749614
 20
9.4562498866
  7
TEXTSTYLE_6
 40
0.525
  1
DESIGNER
 41
0.7648809524
 72
0
  0
TEXT
  8
LS-12V-60-W10-28359
 62
3
  6
BYLAYER
 10
44.8642856757
 20
9.4437498866
  7
TEXTSTYLE_5
 40
0.55
  1
04-Aug-20
 41
0.7619047619
 72
1
 11
46.7499999614
 21
9.4437498866
  0
TEXT
  8
LS-12V-60-W10-28359
 62
3
  6
BYLAYER
 10
48.6220237709
 20
9.4312498866
  7
TEXTSTYLE_5
 40
0.575
  1
David Cao
 41
0.7354497354
 72
1
 11
50.5249999614
 21
9.4312498866
  0
TEXT
  8
LS-12V-60-W10-28359
 62
3
  6
BYLAYER
 10
55.5690475804
 20
8.6874998866
  7
TEXTSTYLE_5
 40
1.0
  1
LS-12V-60-W10-2835
 41
0.7645502646
 72
1
 11
62.4499999614
 21
8.6874998866
  0
TEXT
  8
LS-12V-60-W10-28359
 62
3
  6
BYLAYER
 10
26.4491071042
 20
8.3687498866
  7
TEXTSTYLE_5
 40
0.575
  1
6
 41
0.7857142857
 72
1
 11
26.6749999614
 21
8.3687498866
  0
TEXT
  8
LS-12V-60-W10-28359
 62
3
  6
BYLAYER
 10
41.5843749614
 20
8.3937498866
  7
TEXTSTYLE_6
 40
0.525
  1
CHECKER
 41
0.7789115646
 72
0
  0
TEXT
  8
LS-12V-60-W10-28359
 62
3
  6
BYLAYER
 10
26.4696428185
 20
7.3062498866
  7
TEXTSTYLE_5
 40
0.575
  1
5
 41
0.7142857143
 72
1
 11
26.6749999614
 21
7.3062498866
  0
TEXT
  8
LS-12V-60-W10-28359
 62
3
  6
BYLAYER
 10
41.5843749614
 20
7.3312498866
  7
TEXTSTYLE_6
 40
0.525
  1
APPROVER
 41
0.7916666667
 72
0
  0
TEXT
  8
LS-12V-60-W10-28359
 62
3
  6
BYLAYER
 10
52.6343749614
 20
7.3062498866
  7
TEXTSTYLE_5
 40
0.575
  1
Drawing Number:
 41
0.7238095238
 72
0
  0
TEXT
  8
LS-12V-60-W10-28359
 62
3
  6
BYLAYER
 10
69.3843749614
 20
7.3062498866
  7
TEXTSTYLE_5
 40
0.575
  1
Rev:
 41
0.6428571429
 72
0
  0
TEXT
  8
LS-12V-60-W10-28359
 62
3
  6
BYLAYER
 10
26.4491071042
 20
6.2437498866
  7
TEXTSTYLE_5
 40
0.575
  1
4
 41
0.7857142857
 72
1
 11
26.6749999614
 21
6.2437498866
  0
TEXT
  8
LS-12V-60-W10-28359
 62
3
  6
BYLAYER
 10
54.9892856757
 20
6.1562498866
  7
TEXTSTYLE_5
 40
0.75
  1
ls-12v-60-w8-2835.asm
 41
0.7346938776
 72
1
 11
60.7749999614
 21
6.1562498866
  0
TEXT
  8
LS-12V-60-W10-28359
 62
3
  6
BYLAYER
 10
71.1430059138
 20
6.2437498866
  7
TEXTSTYLE_8
 40
0.575
  1
A
 41
1.0
 72
2
 11
71.8138392471
 21
6.2437498866
  0
TEXT
  8
LS-12V-60-W10-28359
 62
3
  6
BYLAYER
 10
71.8138392471
 20
6.2437498866
  7
TEXTSTYLE_5
 40
0.575
  1
0
 41
0.7857142857
 72
2
 11
72.2656249614
 21
6.2437498866
  0
TEXT
  8
LS-12V-60-W10-28359
 62
3
  6
BYLAYER
 10
26.4696428185
 20
5.1812498866
  7
TEXTSTYLE_5
 40
0.575
  1
3
 41
0.7142857143
 72
1
 11
26.6749999614
 21
5.1812498866
  0
TEXT
  8
LS-12V-60-W10-28359
 62
3
  6
BYLAYER
 10
52.6343749614
 20
5.1812498866
  7
TEXTSTYLE_5
 40
0.575
  1
Part Number / CSG:
 41
0.7275132275
 72
0
  0
TEXT
  8
LS-12V-60-W10-28359
 62
3
  6
BYLAYER
 10
69.3843749614
 20
5.1812498866
  7
TEXTSTYLE_5
 40
0.575
  1
Sheet:
 41
0.6428571429
 72
0
  0
TEXT
  8
LS-12V-60-W10-28359
 62
3
  6
BYLAYER
 10
26.4491071042
 20
4.1187498866
  7
TEXTSTYLE_5
 40
0.575
  1
2
 41
0.7857142857
 72
1
 11
26.6749999614
 21
4.1187498866
  0
TEXT
  8
LS-12V-60-W10-28359
 62
3
  6
BYLAYER
 10
70.6464285328
 20
4.0937498866
  7
TEXTSTYLE_5
 40
0.625
  1
1
 41
0.5714285714
 72
1
 11
70.8249999614
 21
4.0937498866
  0
TEXT
  8
LS-12V-60-W10-28359
 62
3
  6
BYLAYER
 10
26.5107142471
 20
3.0562498866
  7
TEXTSTYLE_5
 40
0.575
  1
1
 41
0.5714285714
 72
1
 11
26.6749999614
 21
3.0562498866
  0
TEXT
  8
LS-12V-60-W10-28359
 62
3
  6
BYLAYER
 10
52.6343749614
 20
3.0562498866
  7
TEXTSTYLE_5
 40
0.575
  1
Project Number:
 41
0.680952381
 72
0
  0
TEXT
  8
LS-12V-60-W10-28359
 62
3
  6
BYLAYER
 10
70.3937499614
 20
3.0562498866
  7
TEXTSTYLE_5
 40
0.575
  1
OF
 41
0.75
 72
1
 11
70.8249999614
 21
3.0562498866
  0
TEXT
  8
LS-12V-60-W10-28359
 62
3
  6
BYLAYER
 10
26.0794642471
 20
1.9937498866
  7
TEXTSTYLE_5
 40
0.575
  1
No.
 41
0.6904761905
 72
1
 11
26.6749999614
 21
1.9937498866
  0
TEXT
  8
LS-12V-60-W10-28359
 62
3
  6
BYLAYER
 10
29.0586309138
 20
1.9937498866
  7
TEXTSTYLE_5
 40
0.575
  1
CONTENTS
 41
0.8005952381
 72
1
 11
30.8999999614
 21
1.9937498866
  0
TEXT
  8
LS-12V-60-W10-28359
 62
3
  6
BYLAYER
 10
34.816666628
 20
1.9937498866
  7
TEXTSTYLE_5
 40
0.575
  1
DATE
 41
0.8333333333
 72
1
 11
35.7749999614
 21
1.9937498866
  0
TEXT
  8
LS-12V-60-W10-28359
 62
3
  6
BYLAYER
 10
37.4508928185
 20
1.9937498866
  7
TEXTSTYLE_5
 40
0.575
  1
NAME
 41
0.8035714286
 72
1
 11
38.3749999614
 21
1.9937498866
  0
TEXT
  8
LS-12V-60-W10-28359
 62
3
  6
BYLAYER
 10
70.6464285328
 20
1.9687498866
  7
TEXTSTYLE_5
 40
0.625
  1
1
 41
0.5714285714
 72
1
 11
70.8249999614
 21
1.9687498866
  0
LINE
  8
LS-12V-60-W10-28359
 62
7
  6
BYLAYER
 10
1.7500000758
 20
1.7499998866
 11
1.7500000758
 21
50.7500000455
  0
LINE
  8
LS-12V-60-W10-28359
 62
7
  6
BYLAYER
 10
3.0000000758
 20
2.9999998866
 11
3.0000000758
 21
49.5000000455
  0
LINE
  8
LS-12V-60-W10-28359
 62
7
  6
BYLAYER
 10
14.0416667277
 20
2.9999998866
 11
14.0416667277
 21
1.7499998866
  0
LINE
  8
LS-12V-60-W10-28359
 62
7
  6
BYLAYER
 10
14.041666609
 20
49.5000000455
 11
14.041666609
 21
50.7500000455
  0
LINE
  8
LS-12V-60-W10-28359
 62
7
  6
BYLAYER
 10
1.7500000758
 20
1.7499998866
 11
72.4999999614
 21
1.7499998866
  0
LINE
  8
LS-12V-60-W10-28359
 62
7
  6
BYLAYER
 10
3.0000000758
 20
2.9999998866
 11
25.6999999614
 21
2.9999998866
  0
LINE
  8
LS-12V-60-W10-28359
 62
3
  6
BYLAYER
 10
69.8741719459
 20
12.7653015527
 11
71.1241719459
 21
13.0778015527
  0
LINE
  8
LS-12V-60-W10-28359
 62
3
  6
BYLAYER
 10
71.3254998263
 20
12.4441027419
 11
69.6626892127
 21
12.4441027419
  0
LINE
  8
LS-12V-60-W10-28359
 62
3
  6
BYLAYER
 10
68.5541488036
 20
12.4441027419
 11
66.8409499895
 21
12.4441027419
  0
LINE
  8
LS-12V-60-W10-28359
 62
7
  6
BYLAYER
 10
25.5833333943
 20
2.9999998866
 11
25.5833333943
 21
1.7499998866
  0
LINE
  8
LS-12V-60-W10-28359
 62
7
  6
BYLAYER
 10
25.5833332757
 20
49.5000000455
 11
25.5833332757
 21
50.7500000455
  0
LINE
  8
LS-12V-60-W10-28359
 62
7
  6
BYLAYER
 10
3.0000000758
 20
14.3750000787
 11
1.7500000758
 21
14.3750000787
  0
LINE
  8
LS-12V-60-W10-28359
 62
3
  6
BYLAYER
 10
69.8741719459
 20
12.1403015527
 11
71.1241719459
 21
11.8278015527
  0
LINE
  8
LS-12V-60-W10-28359
 62
7
  6
BYLAYER
 10
37.1249999423
 20
49.5000000455
 11
37.1249999423
 21
50.7500000455
  0
LINE
  8
LS-12V-60-W10-28359
 62
7
  6
BYLAYER
 10
71.2499999614
 20
26.2499999441
 11
72.4999999614
 21
26.2499999441
  0
LINE
  8
LS-12V-60-W10-28359
 62
7
  6
BYLAYER
 10
3.0000000758
 20
26.2500000787
 11
1.7500000758
 21
26.2500000787
  0
LINE
  8
LS-12V-60-W10-28359
 62
7
  6
BYLAYER
 10
48.6666666263
 20
50.7500000348
 11
48.6666666263
 21
49.5000000348
  0
LINE
  8
LS-12V-60-W10-28359
 62
7
  6
BYLAYER
 10
3.0000000758
 20
38.1250000787
 11
1.7500000758
 21
38.1250000787
  0
LINE
  8
LS-12V-60-W10-28359
 62
7
  6
BYLAYER
 10
71.2499999614
 20
38.1249999441
 11
72.4999999614
 21
38.1249999441
  0
LINE
  8
LS-12V-60-W10-28359
 62
7
  6
BYLAYER
 10
60.2083332757
 20
49.5000000455
 11
60.2083332757
 21
50.7500000455
  0
LINE
  8
LS-12V-60-W10-28359
 62
7
  6
BYLAYER
 10
3.0000000758
 20
49.5000000455
 11
71.2499999614
 21
49.5000000455
  0
LINE
  8
LS-12V-60-W10-28359
 62
7
  6
BYLAYER
 10
1.7500000758
 20
50.7500000455
 11
72.4999999614
 21
50.7500000455
  0
LINE
  8
LS-12V-60-W10-28359
 62
3
  6
BYLAYER
 10
67.6787750792
 20
11.6031556121
 11
67.6748280035
 21
13.245139103
  0
LINE
  8
LS-12V-60-W10-28359
 62
3
  6
BYLAYER
 10
69.8741719459
 20
12.7653015527
 11
69.8741719459
 21
12.1403015527
  0
LINE
  8
LS-12V-60-W10-28359
 62
3
  6
BYLAYER
 10
71.1241719459
 20
13.0778015527
 11
71.1241719459
 21
11.8278015527
  0
LINE
  8
LS-12V-60-W10-28359
 62
7
  6
BYLAYER
 10
71.2499999614
 20
15.5624998866
 11
71.2499999614
 21
49.5000000455
  0
LINE
  8
LS-12V-60-W10-28359
 62
7
  6
BYLAYER
 10
72.4999999614
 20
1.7499998866
 11
72.4999999614
 21
50.7500000455
  0
LINE
  8
LS-12V-60-W10-2835_PLATE2
 62
7
  6
BYLAYER
 10
12.0128566432
 20
30.3814686839
 11
12.0128566432
 21
27.5814686839
  0
LINE
  8
LS-12V-60-W10-2835_PADS2
 62
7
  6
BYLAYER
 10
12.0128566432
 20
27.5814686839
 11
12.0128566432
 21
25.9814686839
  0
LINE
  8
LS-12V-60-W10-2835_PLATE2
 62
7
  6
BYLAYER
 10
12.0128566432
 20
25.9814686839
 11
12.0128566432
 21
24.7814686839
  0
LINE
  8
LS-12V-60-W10-2835_PADS2
 62
7
  6
BYLAYER
 10
12.0128566432
 20
24.7814686839
 11
12.0128566432
 21
23.1814686839
  0
LINE
  8
LS-12V-60-W10-2835_PLATE2
 62
7
  6
BYLAYER
 10
12.0128566432
 20
23.1814686839
 11
12.0128566432
 21
20.3814686839
  0
LINE
  8
LED_CHIP_2835_BASE2
 62
7
  6
BYLAYER
 10
18.9461899765
 20
27.0314686839
 11
18.9461899765
 21
23.7314686839
  0
LINE
  8
LED_CHIP_2835_BASE2
 62
7
  6
BYLAYER
 10
18.9566643451
 20
23.7419430525
 11
18.9566643451
 21
24.1209943153
  0
LINE
  8
LED_CHIP_2835_BASE2
 62
7
  6
BYLAYER
 10
18.9592829373
 20
27.0183757231
 11
18.9592829373
 21
24.1183757231
  0
LINE
  8
LED_CHIP_2835_BASE2
 62
7
  6
BYLAYER
 10
19.0961899765
 20
26.6546829696
 11
19.0961899765
 21
24.1082543982
  0
LINE
  8
LED_CHIP_2835_SLICONE2
 62
7
  6
BYLAYER
 10
19.1101582843
 20
26.6546829696
 11
19.1101582843
 21
24.1082543982
  0
LINE
  8
LED_CHIP_2835_BASE2
 62
7
  6
BYLAYER
 10
19.2961899765
 20
26.8546829696
 11
19.2961899765
 21
26.8407146618
  0
LINE
  8
LED_CHIP_2835_BASE2
 62
7
  6
BYLAYER
 10
19.2961899765
 20
23.9082543982
 11
19.2961899765
 21
23.922222706
  0
LINE
  8
LED_CHIP_2835_BASE2
 62
7
  6
BYLAYER
 10
21.3961899765
 20
26.8546829696
 11
21.3961899765
 21
26.8407146618
  0
LINE
  8
LED_CHIP_2835_BASE2
 62
7
  6
BYLAYER
 10
21.3961899765
 20
23.9082543982
 11
21.3961899765
 21
23.922222706
  0
LINE
  8
0
 62
7
  6
BYLAYER
 10
21.5611899765
 20
24.5037121933
 11
21.5611899765
 21
24.5037481658
  0
LINE
  8
LED_CHIP_2835_SLICONE2
 62
7
  6
BYLAYER
 10
21.5822216687
 20
24.1082543982
 11
21.5822216687
 21
26.6546829696
  0
LINE
  8
LED_CHIP_2835_BASE2
 62
7
  6
BYLAYER
 10
21.5961899765
 20
24.1082543982
 11
21.5961899765
 21
26.6546829696
  0
LINE
  8
LED_CHIP_2835_BASE2
 62
7
  6
BYLAYER
 10
21.7330970157
 20
23.7445616447
 11
21.7330970157
 21
27.0183757231
  0
LINE
  8
LED_CHIP_2835_BASE2
 62
7
  6
BYLAYER
 10
21.7461899765
 20
23.7314686839
 11
21.7461899765
 21
27.0314686839
  0
LINE
  8
LED_CHIP_2835_BASE2
 62
7
  6
BYLAYER
 10
19.3357156079
 20
23.7419430525
 11
18.9566643451
 21
24.1209943153
  0
LINE
  8
LED_CHIP_2835_ELETRODE_22
 62
7
  6
BYLAYER
 10
19.8661899765
 20
27.1314686839
 11
19.7661899765
 21
27.0314686839
  0
LINE
  8
LED_CHIP_2835_BASE2
 62
7
  6
BYLAYER
 10
21.7461899765
 20
27.0314686839
 11
21.7330970157
 21
27.0183757231
  0
LINE
  8
LED_CHIP_2835_ELETRODE_12
 62
7
  6
BYLAYER
 10
19.7661899765
 20
23.7314686839
 11
19.8661899765
 21
23.6314686839
  0
LINE
  8
LED_CHIP_2835_BASE2
 62
7
  6
BYLAYER
 10
21.7461899765
 20
23.7314686839
 11
21.7330970157
 21
23.7445616447
  0
LINE
  8
LED_CHIP_2835_BASE2
 62
7
  6
BYLAYER
 10
18.9461899765
 20
23.7314686839
 11
18.9566643451
 21
23.7419430525
  0
LINE
  8
LED_CHIP_2835_ELETRODE_12
 62
7
  6
BYLAYER
 10
20.8261899765
 20
23.6314686839
 11
20.9261899765
 21
23.7314686839
  0
LINE
  8
LED_CHIP_2835_BASE2
 62
7
  6
BYLAYER
 10
18.9461899765
 20
27.0314686839
 11
18.9592829373
 21
27.0183757231
  0
LINE
  8
LED_CHIP_2835_ELETRODE_22
 62
7
  6
BYLAYER
 10
20.9261899765
 20
27.0314686839
 11
20.8261899765
 21
27.1314686839
  0
LINE
  8
LS-12V-60-W10-2835_PLATE2
 62
7
  6
BYLAYER
 10
12.0128566432
 20
20.3814686839
 11
62.0128566432
 21
20.3814686839
  0
LINE
  8
LED_CHIP_2835_ELETRODE_22
 62
7
  6
BYLAYER
 10
36.5328566432
 20
27.1314686839
 11
36.4328566432
 21
27.0314686839
  0
POLYLINE
  8
RES_1206_032
 62
7
  6
BYLAYER
 66
1
 70
0
  0
VERTEX
  8
RES_1206_032
 62
7
  6
BYLAYER
 10
48.169407893
 20
25.6410748888
  0
VERTEX
  8
RES_1206_032
 62
7
  6
BYLAYER
 10
48.1316094223
 20
25.6351409192
  0
VERTEX
  8
RES_1206_032
 62
7
  6
BYLAYER
 10
48.0979903782
 20
25.6267013823
  0
VERTEX
  8
RES_1206_032
 62
7
  6
BYLAYER
 10
48.068830132
 20
25.6156004083
  0
VERTEX
  8
RES_1206_032
 62
7
  6
BYLAYER
 10
48.0446210507
 20
25.6017895792
  0
SEQEND
  0
LINE
  8
LS-12V-60-W10-2835_PLATE2
 62
7
  6
BYLAYER
 10
62.0128566432
 20
23.1814686839
 11
60.8128566432
 21
23.1814686839
  0
LINE
  8
LS-12V-60-W10-2835_PADS2
 62
7
  6
BYLAYER
 10
12.0128566432
 20
23.1814686839
 11
13.2128566432
 21
23.1814686839
  0
LINE
  8
LS-12V-60-W10-2835_PLATE2
 62
7
  6
BYLAYER
 10
12.0128566432
 20
23.1814686839
 11
13.2128566432
 21
23.1814686839
  0
LINE
  8
LS-12V-60-W10-2835_PADS2
 62
7
  6
BYLAYER
 10
60.8128566432
 20
23.1814686839
 11
62.0128566432
 21
23.1814686839
  0
LINE
  8
LS-12V-60-W10-2835_PADS2
 62
7
  6
BYLAYER
 10
19.6461899765
 20
23.5314686839
 11
21.0461899765
 21
23.5314686839
  0
LINE
  8
LS-12V-60-W10-2835_PLATE2
 62
7
  6
BYLAYER
 10
19.6461899765
 20
23.5314686839
 11
21.0461899765
 21
23.5314686839
  0
LINE
  8
LS-12V-60-W10-2835_PADS2
 62
7
  6
BYLAYER
 10
36.3128566432
 20
23.5314686839
 11
37.7128566432
 21
23.5314686839
  0
LINE
  8
LS-12V-60-W10-2835_PLATE2
 62
7
  6
BYLAYER
 10
36.3128566432
 20
23.5314686839
 11
37.7128566432
 21
23.5314686839
  0
LINE
  8
LS-12V-60-W10-2835_PADS2
 62
7
  6
BYLAYER
 10
52.9795233098
 20
23.5314686839
 11
54.3795233098
 21
23.5314686839
  0
LINE
  8
LS-12V-60-W10-2835_PLATE2
 62
7
  6
BYLAYER
 10
52.9795233098
 20
23.5314686839
 11
54.3795233098
 21
23.5314686839
  0
LINE
  8
LED_CHIP_2835_ELETRODE_12
 62
7
  6
BYLAYER
 10
54.1595233098
 20
23.6314686839
 11
53.1995233098
 21
23.6314686839
  0
LINE
  8
LED_CHIP_2835_ELETRODE_12
 62
7
  6
BYLAYER
 10
37.4928566432
 20
23.6314686839
 11
36.5328566432
 21
23.6314686839
  0
LINE
  8
LED_CHIP_2835_ELETRODE_12
 62
7
  6
BYLAYER
 10
20.8261899765
 20
23.6314686839
 11
19.8661899765
 21
23.6314686839
  0
LINE
  8
LED_CHIP_2835_ELETRODE_12
 62
7
  6
BYLAYER
 10
54.7295233098
 20
23.7314686839
 11
54.2595233098
 21
23.7314686839
  0
LINE
  8
LED_CHIP_2835_ELETRODE_12
 62
7
  6
BYLAYER
 10
53.0995233098
 20
23.7314686839
 11
52.6295233098
 21
23.7314686839
  0
LINE
  8
LED_CHIP_2835_ELETRODE_12
 62
7
  6
BYLAYER
 10
38.0628566432
 20
23.7314686839
 11
37.5928566432
 21
23.7314686839
  0
LINE
  8
LED_CHIP_2835_ELETRODE_12
 62
7
  6
BYLAYER
 10
36.4328566432
 20
23.7314686839
 11
35.9628566432
 21
23.7314686839
  0
LINE
  8
LED_CHIP_2835_ELETRODE_12
 62
7
  6
BYLAYER
 10
21.3961899765
 20
23.7314686839
 11
20.9261899765
 21
23.7314686839
  0
LINE
  8
LED_CHIP_2835_ELETRODE_12
 62
7
  6
BYLAYER
 10
19.7661899765
 20
23.7314686839
 11
19.2961899765
 21
23.7314686839
  0
LINE
  8
LED_CHIP_2835_BASE2
 62
7
  6
BYLAYER
 10
18.9461899765
 20
23.7314686839
 11
21.7461899765
 21
23.7314686839
  0
LINE
  8
LED_CHIP_2835_BASE2
 62
7
  6
BYLAYER
 10
35.6128566432
 20
23.7314686839
 11
38.4128566432
 21
23.7314686839
  0
LINE
  8
LED_CHIP_2835_BASE2
 62
7
  6
BYLAYER
 10
52.2795233098
 20
23.7314686839
 11
55.0795233098
 21
23.7314686839
  0
LINE
  8
LED_CHIP_2835_BASE2
 62
7
  6
BYLAYER
 10
18.9566643451
 20
23.7419430525
 11
19.3357156079
 21
23.7419430525
  0
LINE
  8
LED_CHIP_2835_BASE2
 62
7
  6
BYLAYER
 10
35.6233310118
 20
23.7419430525
 11
36.0023822746
 21
23.7419430525
  0
LINE
  8
LED_CHIP_2835_BASE2
 62
7
  6
BYLAYER
 10
52.2899976785
 20
23.7419430525
 11
52.6690489412
 21
23.7419430525
  0
LINE
  8
LED_CHIP_2835_BASE2
 62
7
  6
BYLAYER
 10
55.0664303491
 20
23.7445616447
 11
52.6664303491
 21
23.7445616447
  0
LINE
  8
LED_CHIP_2835_BASE2
 62
7
  6
BYLAYER
 10
38.3997636824
 20
23.7445616447
 11
35.9997636824
 21
23.7445616447
  0
LINE
  8
LED_CHIP_2835_BASE2
 62
7
  6
BYLAYER
 10
21.7330970157
 20
23.7445616447
 11
19.3330970157
 21
23.7445616447
  0
LINE
  8
RES_1206_012
 62
7
  6
BYLAYER
 10
49.1461899765
 20
23.7812487723
 11
47.5461899765
 21
23.7812487723
  0
LINE
  8
RES_1206_012
 62
7
  6
BYLAYER
 10
43.1461899765
 20
23.7812487723
 11
41.5461899765
 21
23.7812487723
  0
LINE
  8
LED_CHIP_2835_BASE2
 62
7
  6
BYLAYER
 10
19.2961899765
 20
23.9082543982
 11
21.3961899765
 21
23.9082543982
  0
LINE
  8
LED_CHIP_2835_BASE2
 62
7
  6
BYLAYER
 10
35.9628566432
 20
23.9082543982
 11
38.0628566432
 21
23.9082543982
  0
LINE
  8
LED_CHIP_2835_BASE2
 62
7
  6
BYLAYER
 10
52.6295233098
 20
23.9082543982
 11
54.7295233098
 21
23.9082543982
  0
LINE
  8
LED_CHIP_2835_BASE2
 62
7
  6
BYLAYER
 10
35.6233310118
 20
24.1209943153
 11
36.0023822746
 21
23.7419430525
  0
LINE
  8
LED_CHIP_2835_ELETRODE_12
 62
7
  6
BYLAYER
 10
36.4328566432
 20
23.7314686839
 11
36.5328566432
 21
23.6314686839
  0
LINE
  8
LED_CHIP_2835_BASE2
 62
7
  6
BYLAYER
 10
35.6128566432
 20
27.0314686839
 11
35.6128566432
 21
23.7314686839
  0
LINE
  8
LED_CHIP_2835_BASE2
 62
7
  6
BYLAYER
 10
35.6233310118
 20
23.7419430525
 11
35.6233310118
 21
24.1209943153
  0
LINE
  8
LED_CHIP_2835_BASE2
 62
7
  6
BYLAYER
 10
35.625949604
 20
27.0183757231
 11
35.625949604
 21
24.1183757231
  0
LINE
  8
LED_CHIP_2835_BASE2
 62
7
  6
BYLAYER
 10
35.7628566432
 20
26.6546829696
 11
35.7628566432
 21
24.1082543982
  0
LINE
  8
LED_CHIP_2835_SLICONE2
 62
7
  6
BYLAYER
 10
35.776824951
 20
26.6546829696
 11
35.776824951
 21
24.1082543982
  0
LINE
  8
LED_CHIP_2835_BASE2
 62
7
  6
BYLAYER
 10
35.9628566432
 20
26.8546829696
 11
35.9628566432
 21
26.8407146618
  0
LINE
  8
LED_CHIP_2835_BASE2
 62
7
  6
BYLAYER
 10
35.9628566432
 20
23.9082543982
 11
35.9628566432
 21
23.922222706
  0
LINE
  8
LED_CHIP_2835_BASE2
 62
7
  6
BYLAYER
 10
38.4128566432
 20
27.0314686839
 11
38.3997636824
 21
27.0183757231
  0
LINE
  8
LED_CHIP_2835_BASE2
 62
7
  6
BYLAYER
 10
35.6128566432
 20
23.7314686839
 11
35.6233310118
 21
23.7419430525
  0
POLYLINE
  8
RES_1206_032
 62
7
  6
BYLAYER
 66
1
 70
0
  0
VERTEX
  8
RES_1206_032
 62
7
  6
BYLAYER
 10
42.169407893
 20
25.6410748888
  0
VERTEX
  8
RES_1206_032
 62
7
  6
BYLAYER
 10
42.1316094223
 20
25.6351409192
  0
VERTEX
  8
RES_1206_032
 62
7
  6
BYLAYER
 10
42.0979903782
 20
25.6267013823
  0
VERTEX
  8
RES_1206_032
 62
7
  6
BYLAYER
 10
42.068830132
 20
25.6156004083
  0
VERTEX
  8
RES_1206_032
 62
7
  6
BYLAYER
 10
42.0446210507
 20
25.6017895792
  0
SEQEND
  0
POLYLINE
  8
RES_1206_032
 62
7
  6
BYLAYER
 66
1
 70
0
  0
VERTEX
  8
RES_1206_032
 62
7
  6
BYLAYER
 10
48.4865837343
 20
25.6557388712
  0
VERTEX
  8
RES_1206_032
 62
7
  6
BYLAYER
 10
48.4325786352
 20
25.6509610073
  0
VERTEX
  8
RES_1206_032
 62
7
  6
BYLAYER
 10
48.3867537726
 20
25.6377963715
  0
VERTEX
  8
RES_1206_032
 62
7
  6
BYLAYER
 10
48.3474327419
 20
25.6174101939
  0
VERTEX
  8
RES_1206_032
 62
7
  6
BYLAYER
 10
48.3123815813
 20
25.5893399152
  0
SEQEND
  0
POLYLINE
  8
RES_1206_032
 62
7
  6
BYLAYER
 66
1
 70
0
  0
VERTEX
  8
RES_1206_032
 62
7
  6
BYLAYER
 10
42.4865837343
 20
25.6557388712
  0
VERTEX
  8
RES_1206_032
 62
7
  6
BYLAYER
 10
42.4325786352
 20
25.6509610073
  0
VERTEX
  8
RES_1206_032
 62
7
  6
BYLAYER
 10
42.3867537726
 20
25.6377963715
  0
VERTEX
  8
RES_1206_032
 62
7
  6
BYLAYER
 10
42.3474327419
 20
25.6174101939
  0
VERTEX
  8
RES_1206_032
 62
7
  6
BYLAYER
 10
42.3123815813
 20
25.5893399152
  0
SEQEND
  0
POLYLINE
  8
RES_1206_032
 62
7
  6
BYLAYER
 66
1
 70
0
  0
VERTEX
  8
RES_1206_032
 62
7
  6
BYLAYER
 10
48.3937120445
 20
25.1376126219
  0
VERTEX
  8
RES_1206_032
 62
7
  6
BYLAYER
 10
48.4634703668
 20
25.140520585
  0
VERTEX
  8
RES_1206_032
 62
7
  6
BYLAYER
 10
48.5259863503
 20
25.1491821615
  0
VERTEX
  8
RES_1206_032
 62
7
  6
BYLAYER
 10
48.5810548921
 20
25.1634000907
  0
VERTEX
  8
RES_1206_032
 62
7
  6
BYLAYER
 10
48.6282853126
 20
25.1826681596
  0
VERTEX
  8
RES_1206_032
 62
7
  6
BYLAYER
 10
48.6674391383
 20
25.206044366
  0
SEQEND
  0
POLYLINE
  8
RES_1206_032
 62
7
  6
BYLAYER
 66
1
 70
0
  0
VERTEX
  8
RES_1206_032
 62
7
  6
BYLAYER
 10
42.3937120445
 20
25.1376126219
  0
VERTEX
  8
RES_1206_032
 62
7
  6
BYLAYER
 10
42.4634703668
 20
25.140520585
  0
VERTEX
  8
RES_1206_032
 62
7
  6
BYLAYER
 10
42.5259863503
 20
25.1491821615
  0
VERTEX
  8
RES_1206_032
 62
7
  6
BYLAYER
 10
42.5810548921
 20
25.1634000907
  0
VERTEX
  8
RES_1206_032
 62
7
  6
BYLAYER
 10
42.6282853126
 20
25.1826681596
  0
VERTEX
  8
RES_1206_032
 62
7
  6
BYLAYER
 10
42.6674391383
 20
25.206044366
  0
SEQEND
  0
LINE
  8
LED_CHIP_2835_SLICONE2
 62
7
  6
BYLAYER
 10
19.2961899765
 20
23.922222706
 11
21.3961899765
 21
23.922222706
  0
LINE
  8
LED_CHIP_2835_SLICONE2
 62
7
  6
BYLAYER
 10
35.9628566432
 20
23.922222706
 11
38.0628566432
 21
23.922222706
  0
LINE
  8
LED_CHIP_2835_SLICONE2
 62
7
  6
BYLAYER
 10
52.6295233098
 20
23.922222706
 11
54.7295233098
 21
23.922222706
  0
LINE
  8
LED_CHIP_2835_BASE2
 62
7
  6
BYLAYER
 10
54.9295233098
 20
24.1082543982
 11
54.915555002
 21
24.1082543982
  0
LINE
  8
LED_CHIP_2835_BASE2
 62
7
  6
BYLAYER
 10
38.2628566432
 20
24.1082543982
 11
38.2488883354
 21
24.1082543982
  0
LINE
  8
LED_CHIP_2835_BASE2
 62
7
  6
BYLAYER
 10
21.5961899765
 20
24.1082543982
 11
21.5822216687
 21
24.1082543982
  0
LINE
  8
LED_CHIP_2835_BASE2
 62
7
  6
BYLAYER
 10
19.0961899765
 20
24.1082543982
 11
19.1101582843
 21
24.1082543982
  0
LINE
  8
LED_CHIP_2835_BASE2
 62
7
  6
BYLAYER
 10
35.7628566432
 20
24.1082543982
 11
35.776824951
 21
24.1082543982
  0
LINE
  8
LED_CHIP_2835_BASE2
 62
7
  6
BYLAYER
 10
52.4295233098
 20
24.1082543982
 11
52.4434916176
 21
24.1082543982
  0
LINE
  8
RES_1206_012
 62
7
  6
BYLAYER
 10
49.1461899765
 20
24.1814686895
 11
47.5461899765
 21
24.1814686895
  0
LINE
  8
RES_1206_032
 62
7
  6
BYLAYER
 10
49.1461899765
 20
24.1814686839
 11
47.5461899765
 21
24.1814686839
  0
LINE
  8
RES_1206_012
 62
7
  6
BYLAYER
 10
43.1461899765
 20
24.1814686895
 11
41.5461899765
 21
24.1814686895
  0
LINE
  8
RES_1206_032
 62
7
  6
BYLAYER
 10
43.1461899765
 20
24.1814686839
 11
41.5461899765
 21
24.1814686839
  0
LINE
  8
RES_1206_032
 62
7
  6
BYLAYER
 10
42.1150969513
 20
24.5814686824
 11
42.1971064575
 21
24.5814686824
  0
LINE
  8
RES_1206_032
 62
7
  6
BYLAYER
 10
48.1150969513
 20
24.5814686824
 11
48.1971064575
 21
24.5814686824
  0
LINE
  8
RES_1206_032
 62
7
  6
BYLAYER
 10
42.1971064575
 20
24.7650396277
 11
42.7461899765
 21
24.7650396277
  0
LINE
  8
RES_1206_032
 62
7
  6
BYLAYER
 10
48.1971064575
 20
24.7650396277
 11
48.7461899765
 21
24.7650396277
  0
LINE
  8
LS-12V-60-W10-2835_PADS2
 62
7
  6
BYLAYER
 10
62.0128566432
 20
24.7814686839
 11
60.8128566432
 21
24.7814686839
  0
LINE
  8
LS-12V-60-W10-2835_PLATE2
 62
7
  6
BYLAYER
 10
62.0128566432
 20
24.7814686839
 11
60.8128566432
 21
24.7814686839
  0
LINE
  8
LS-12V-60-W10-2835_PADS2
 62
7
  6
BYLAYER
 10
13.2128566432
 20
24.7814686839
 11
12.0128566432
 21
24.7814686839
  0
LINE
  8
LS-12V-60-W10-2835_PLATE2
 62
7
  6
BYLAYER
 10
12.0128566432
 20
24.7814686839
 11
13.2128566432
 21
24.7814686839
  0
LINE
  8
RES_1206_032
 62
7
  6
BYLAYER
 10
48.7461899765
 20
24.8709459234
 11
47.9733454235
 21
24.8709459234
  0
LINE
  8
RES_1206_032
 62
7
  6
BYLAYER
 10
42.7461899765
 20
24.8709459234
 11
41.9733454235
 21
24.8709459234
  0
LINE
  8
LED_CHIP_2835_BASE2
 62
7
  6
BYLAYER
 10
38.4128566432
 20
23.7314686839
 11
38.3997636824
 21
23.7445616447
  0
LINE
  8
LED_CHIP_2835_BASE2
 62
7
  6
BYLAYER
 10
35.6128566432
 20
27.0314686839
 11
35.625949604
 21
27.0183757231
  0
LINE
  8
LED_CHIP_2835_BASE2
 62
7
  6
BYLAYER
 10
38.0628566432
 20
26.8546829696
 11
38.0628566432
 21
26.8407146618
  0
LINE
  8
LED_CHIP_2835_BASE2
 62
7
  6
BYLAYER
 10
38.0628566432
 20
23.9082543982
 11
38.0628566432
 21
23.922222706
  0
LINE
  8
0
 62
7
  6
BYLAYER
 10
38.2278566432
 20
24.5037121933
 11
38.2278566432
 21
24.5037481658
  0
LINE
  8
LED_CHIP_2835_SLICONE2
 62
7
  6
BYLAYER
 10
38.2488883354
 20
24.1082543982
 11
38.2488883354
 21
26.6546829696
  0
LINE
  8
LED_CHIP_2835_BASE2
 62
7
  6
BYLAYER
 10
38.2628566432
 20
24.1082543982
 11
38.2628566432
 21
26.6546829696
  0
LINE
  8
LED_CHIP_2835_BASE2
 62
7
  6
BYLAYER
 10
38.3997636824
 20
23.7445616447
 11
38.3997636824
 21
27.0183757231
  0
LINE
  8
LED_CHIP_2835_BASE2
 62
7
  6
BYLAYER
 10
38.4128566432
 20
23.7314686839
 11
38.4128566432
 21
27.0314686839
  0
LINE
  8
LED_CHIP_2835_ELETRODE_12
 62
7
  6
BYLAYER
 10
37.4928566432
 20
23.6314686839
 11
37.5928566432
 21
23.7314686839
  0
LINE
  8
RES_1206_032
 62
7
  6
BYLAYER
 10
42.1150969513
 20
25.8121543337
 11
42.1971064575
 21
25.8121543337
  0
LINE
  8
RES_1206_032
 62
7
  6
BYLAYER
 10
48.1150969513
 20
25.8121543337
 11
48.1971064575
 21
25.8121543337
  0
LINE
  8
LS-12V-60-W10-2835_PLATE2
 62
7
  6
BYLAYER
 10
62.0128566432
 20
25.9814686839
 11
60.8128566432
 21
25.9814686839
  0
LINE
  8
LS-12V-60-W10-2835_PADS2
 62
7
  6
BYLAYER
 10
12.0128566432
 20
25.9814686839
 11
13.2128566432
 21
25.9814686839
  0
LINE
  8
LS-12V-60-W10-2835_PLATE2
 62
7
  6
BYLAYER
 10
12.0128566432
 20
25.9814686839
 11
13.2128566432
 21
25.9814686839
  0
LINE
  8
LS-12V-60-W10-2835_PADS2
 62
7
  6
BYLAYER
 10
60.8128566432
 20
25.9814686839
 11
62.0128566432
 21
25.9814686839
  0
LINE
  8
RES_1206_032
 62
7
  6
BYLAYER
 10
42.1971064575
 20
25.9957252909
 11
42.7461899765
 21
25.9957252909
  0
LINE
  8
RES_1206_032
 62
7
  6
BYLAYER
 10
48.1971064575
 20
25.9957252909
 11
48.7461899765
 21
25.9957252909
  0
LINE
  8
RES_1206_032
 62
7
  6
BYLAYER
 10
48.7461899765
 20
26.1016315867
 11
47.9733454235
 21
26.1016315867
  0
LINE
  8
RES_1206_032
 62
7
  6
BYLAYER
 10
42.7461899765
 20
26.1016315867
 11
41.9733454235
 21
26.1016315867
  0
LINE
  8
RES_1206_012
 62
7
  6
BYLAYER
 10
41.5461899765
 20
26.5812487667
 11
43.1461899765
 21
26.5812487667
  0
LINE
  8
RES_1206_012
 62
7
  6
BYLAYER
 10
47.5461899765
 20
26.5812487667
 11
49.1461899765
 21
26.5812487667
  0
LINE
  8
RES_1206_032
 62
7
  6
BYLAYER
 10
41.5461899765
 20
26.5814686839
 11
43.1461899765
 21
26.5814686839
  0
LINE
  8
RES_1206_032
 62
7
  6
BYLAYER
 10
47.5461899765
 20
26.5814686839
 11
49.1461899765
 21
26.5814686839
  0
LINE
  8
LED_CHIP_2835_BASE2
 62
7
  6
BYLAYER
 10
54.9295233098
 20
26.6546829696
 11
54.915555002
 21
26.6546829696
  0
LINE
  8
LED_CHIP_2835_BASE2
 62
7
  6
BYLAYER
 10
38.2628566432
 20
26.6546829696
 11
38.2488883354
 21
26.6546829696
  0
LINE
  8
LED_CHIP_2835_BASE2
 62
7
  6
BYLAYER
 10
21.5961899765
 20
26.6546829696
 11
21.5822216687
 21
26.6546829696
  0
LINE
  8
LED_CHIP_2835_BASE2
 62
7
  6
BYLAYER
 10
19.0961899765
 20
26.6546829696
 11
19.1101582843
 21
26.6546829696
  0
LINE
  8
LED_CHIP_2835_BASE2
 62
7
  6
BYLAYER
 10
35.7628566432
 20
26.6546829696
 11
35.776824951
 21
26.6546829696
  0
LINE
  8
LED_CHIP_2835_BASE2
 62
7
  6
BYLAYER
 10
52.4295233098
 20
26.6546829696
 11
52.4434916176
 21
26.6546829696
  0
LINE
  8
LED_CHIP_2835_SLICONE2
 62
7
  6
BYLAYER
 10
54.7295233098
 20
26.8407146618
 11
52.6295233098
 21
26.8407146618
  0
LINE
  8
LED_CHIP_2835_SLICONE2
 62
7
  6
BYLAYER
 10
38.0628566432
 20
26.8407146618
 11
35.9628566432
 21
26.8407146618
  0
LINE
  8
LED_CHIP_2835_SLICONE2
 62
7
  6
BYLAYER
 10
21.3961899765
 20
26.8407146618
 11
19.2961899765
 21
26.8407146618
  0
LINE
  8
LED_CHIP_2835_BASE2
 62
7
  6
BYLAYER
 10
54.7295233098
 20
26.8546829696
 11
52.6295233098
 21
26.8546829696
  0
LINE
  8
LED_CHIP_2835_BASE2
 62
7
  6
BYLAYER
 10
38.0628566432
 20
26.8546829696
 11
35.9628566432
 21
26.8546829696
  0
LINE
  8
LED_CHIP_2835_BASE2
 62
7
  6
BYLAYER
 10
21.3961899765
 20
26.8546829696
 11
19.2961899765
 21
26.8546829696
  0
LINE
  8
RES_1206_012
 62
7
  6
BYLAYER
 10
41.5461899765
 20
26.9814686839
 11
43.1461899765
 21
26.9814686839
  0
LINE
  8
RES_1206_012
 62
7
  6
BYLAYER
 10
47.5461899765
 20
26.9814686839
 11
49.1461899765
 21
26.9814686839
  0
LINE
  8
LED_CHIP_2835_BASE2
 62
7
  6
BYLAYER
 10
18.9592829373
 20
27.0183757231
 11
21.7330970157
 21
27.0183757231
  0
LINE
  8
LED_CHIP_2835_BASE2
 62
7
  6
BYLAYER
 10
35.625949604
 20
27.0183757231
 11
38.3997636824
 21
27.0183757231
  0
LINE
  8
LED_CHIP_2835_BASE2
 62
7
  6
BYLAYER
 10
52.2926162706
 20
27.0183757231
 11
55.0664303491
 21
27.0183757231
  0
LINE
  8
LED_CHIP_2835_ELETRODE_22
 62
7
  6
BYLAYER
 10
19.2961899765
 20
27.0314686839
 11
19.7661899765
 21
27.0314686839
  0
LINE
  8
LED_CHIP_2835_ELETRODE_22
 62
7
  6
BYLAYER
 10
20.9261899765
 20
27.0314686839
 11
21.3961899765
 21
27.0314686839
  0
LINE
  8
LED_CHIP_2835_BASE2
 62
7
  6
BYLAYER
 10
18.9461899765
 20
27.0314686839
 11
21.7461899765
 21
27.0314686839
  0
LINE
  8
LED_CHIP_2835_ELETRODE_22
 62
7
  6
BYLAYER
 10
35.9628566432
 20
27.0314686839
 11
36.4328566432
 21
27.0314686839
  0
LINE
  8
LED_CHIP_2835_ELETRODE_22
 62
7
  6
BYLAYER
 10
37.5928566432
 20
27.0314686839
 11
38.0628566432
 21
27.0314686839
  0
LINE
  8
LED_CHIP_2835_BASE2
 62
7
  6
BYLAYER
 10
35.6128566432
 20
27.0314686839
 11
38.4128566432
 21
27.0314686839
  0
LINE
  8
LED_CHIP_2835_ELETRODE_22
 62
7
  6
BYLAYER
 10
52.6295233098
 20
27.0314686839
 11
53.0995233098
 21
27.0314686839
  0
LINE
  8
LED_CHIP_2835_ELETRODE_22
 62
7
  6
BYLAYER
 10
54.2595233098
 20
27.0314686839
 11
54.7295233098
 21
27.0314686839
  0
LINE
  8
LED_CHIP_2835_BASE2
 62
7
  6
BYLAYER
 10
52.2795233098
 20
27.0314686839
 11
55.0795233098
 21
27.0314686839
  0
LINE
  8
LED_CHIP_2835_ELETRODE_22
 62
7
  6
BYLAYER
 10
19.8661899765
 20
27.1314686839
 11
20.8261899765
 21
27.1314686839
  0
LINE
  8
LED_CHIP_2835_ELETRODE_22
 62
7
  6
BYLAYER
 10
36.5328566432
 20
27.1314686839
 11
37.4928566432
 21
27.1314686839
  0
LINE
  8
LED_CHIP_2835_ELETRODE_22
 62
7
  6
BYLAYER
 10
53.1995233098
 20
27.1314686839
 11
54.1595233098
 21
27.1314686839
  0
LINE
  8
LS-12V-60-W10-2835_PADS2
 62
7
  6
BYLAYER
 10
54.3795233098
 20
27.2314686839
 11
52.9795233098
 21
27.2314686839
  0
LINE
  8
LS-12V-60-W10-2835_PLATE2
 62
7
  6
BYLAYER
 10
54.3795233098
 20
27.2314686839
 11
52.9795233098
 21
27.2314686839
  0
LINE
  8
LS-12V-60-W10-2835_PADS2
 62
7
  6
BYLAYER
 10
37.7128566432
 20
27.2314686839
 11
36.3128566432
 21
27.2314686839
  0
LINE
  8
LS-12V-60-W10-2835_PLATE2
 62
7
  6
BYLAYER
 10
37.7128566432
 20
27.2314686839
 11
36.3128566432
 21
27.2314686839
  0
LINE
  8
LS-12V-60-W10-2835_PADS2
 62
7
  6
BYLAYER
 10
21.0461899765
 20
27.2314686839
 11
19.6461899765
 21
27.2314686839
  0
LINE
  8
LS-12V-60-W10-2835_PLATE2
 62
7
  6
BYLAYER
 10
21.0461899765
 20
27.2314686839
 11
19.6461899765
 21
27.2314686839
  0
POLYLINE
  8
RES_1206_032
 62
7
  6
BYLAYER
 66
1
 70
0
  0
VERTEX
  8
RES_1206_032
 62
7
  6
BYLAYER
 10
42.4990752466
 20
25.5498325754
  0
VERTEX
  8
RES_1206_032
 62
7
  6
BYLAYER
 10
42.5362204571
 20
25.5468229644
  0
VERTEX
  8
RES_1206_032
 62
7
  6
BYLAYER
 10
42.5679923732
 20
25.5383741932
  0
VERTEX
  8
RES_1206_032
 62
7
  6
BYLAYER
 10
42.5949812882
 20
25.525321987
  0
VERTEX
  8
RES_1206_032
 62
7
  6
BYLAYER
 10
42.6186811464
 20
25.5076054059
  0
SEQEND
  0
POLYLINE
  8
RES_1206_032
 62
7
  6
BYLAYER
 66
1
 70
0
  0
VERTEX
  8
RES_1206_032
 62
7
  6
BYLAYER
 10
48.4990752466
 20
25.5498325754
  0
VERTEX
  8
RES_1206_032
 62
7
  6
BYLAYER
 10
48.5362204571
 20
25.5468229644
  0
VERTEX
  8
RES_1206_032
 62
7
  6
BYLAYER
 10
48.5679923732
 20
25.5383741932
  0
VERTEX
  8
RES_1206_032
 62
7
  6
BYLAYER
 10
48.5949812882
 20
25.525321987
  0
VERTEX
  8
RES_1206_032
 62
7
  6
BYLAYER
 10
48.6186811464
 20
25.5076054059
  0
SEQEND
  0
POLYLINE
  8
RES_1206_032
 62
7
  6
BYLAYER
 66
1
 70
0
  0
VERTEX
  8
RES_1206_032
 62
7
  6
BYLAYER
 10
42.5001614578
 20
25.2435189177
  0
VERTEX
  8
RES_1206_032
 62
7
  6
BYLAYER
 10
42.464931182
 20
25.2465379993
  0
VERTEX
  8
RES_1206_032
 62
7
  6
BYLAYER
 10
42.4348397369
 20
25.2549402742
  0
VERTEX
  8
RES_1206_032
 62
7
  6
BYLAYER
 10
42.4090247513
 20
25.267986655
  0
VERTEX
  8
RES_1206_032
 62
7
  6
BYLAYER
 10
42.3861085065
 20
25.285881452
  0
SEQEND
  0
POLYLINE
  8
RES_1206_032
 62
7
  6
BYLAYER
 66
1
 70
0
  0
VERTEX
  8
RES_1206_032
 62
7
  6
BYLAYER
 10
48.5001614578
 20
25.2435189177
  0
VERTEX
  8
RES_1206_032
 62
7
  6
BYLAYER
 10
48.464931182
 20
25.2465379993
  0
VERTEX
  8
RES_1206_032
 62
7
  6
BYLAYER
 10
48.4348397369
 20
25.2549402742
  0
VERTEX
  8
RES_1206_032
 62
7
  6
BYLAYER
 10
48.4090247513
 20
25.267986655
  0
VERTEX
  8
RES_1206_032
 62
7
  6
BYLAYER
 10
48.3861085065
 20
25.285881452
  0
SEQEND
  0
POLYLINE
  8
RES_1206_032
 62
7
  6
BYLAYER
 66
1
 70
0
  0
VERTEX
  8
RES_1206_032
 62
7
  6
BYLAYER
 10
42.3323406704
 20
25.2277687479
  0
VERTEX
  8
RES_1206_032
 62
7
  6
BYLAYER
 10
42.288768278
 20
25.2338341594
  0
VERTEX
  8
RES_1206_032
 62
7
  6
BYLAYER
 10
42.2488395101
 20
25.2405545926
  0
VERTEX
  8
RES_1206_032
 62
7
  6
BYLAYER
 10
42.2123893066
 20
25.24816092
  0
VERTEX
  8
RES_1206_032
 62
7
  6
BYLAYER
 10
42.1795037965
 20
25.2570673401
  0
VERTEX
  8
RES_1206_032
 62
7
  6
BYLAYER
 10
42.1509943997
 20
25.2680656349
  0
SEQEND
  0
POLYLINE
  8
RES_1206_032
 62
7
  6
BYLAYER
 66
1
 70
0
  0
VERTEX
  8
RES_1206_032
 62
7
  6
BYLAYER
 10
48.3323406704
 20
25.2277687479
  0
VERTEX
  8
RES_1206_032
 62
7
  6
BYLAYER
 10
48.288768278
 20
25.2338341594
  0
VERTEX
  8
RES_1206_032
 62
7
  6
BYLAYER
 10
48.2488395101
 20
25.2405545926
  0
VERTEX
  8
RES_1206_032
 62
7
  6
BYLAYER
 10
48.2123893066
 20
25.24816092
  0
VERTEX
  8
RES_1206_032
 62
7
  6
BYLAYER
 10
48.1795037965
 20
25.2570673401
  0
VERTEX
  8
RES_1206_032
 62
7
  6
BYLAYER
 10
48.1509943997
 20
25.2680656349
  0
SEQEND
  0
POLYLINE
  8
RES_1206_032
 62
7
  6
BYLAYER
 66
1
 70
0
  0
VERTEX
  8
RES_1206_032
 62
7
  6
BYLAYER
 10
41.9733454235
 20
24.7883933235
  0
VERTEX
  8
RES_1206_032
 62
7
  6
BYLAYER
 10
42.0086289844
 20
24.7769473923
  0
VERTEX
  8
RES_1206_032
 62
7
  6
BYLAYER
 10
42.038556864
 20
24.7630155587
  0
VERTEX
  8
RES_1206_032
 62
7
  6
BYLAYER
 10
42.0626392064
 20
24.7465942471
  0
VERTEX
  8
RES_1206_032
 62
7
  6
BYLAYER
 10
42.0803379753
 20
24.7281082002
  0
SEQEND
  0
LINE
  8
LED_CHIP_2835_ELETRODE_22
 62
7
  6
BYLAYER
 10
37.5928566432
 20
27.0314686839
 11
37.4928566432
 21
27.1314686839
  0
POLYLINE
  8
RES_1206_032
 62
7
  6
BYLAYER
 66
1
 70
0
  0
VERTEX
  8
RES_1206_032
 62
7
  6
BYLAYER
 10
42.0446210507
 20
25.6017895792
  0
VERTEX
  8
RES_1206_032
 62
7
  6
BYLAYER
 10
42.0175183829
 20
25.5792015692
  0
VERTEX
  8
RES_1206_032
 62
7
  6
BYLAYER
 10
41.9958456473
 20
25.553734834
  0
VERTEX
  8
RES_1206_032
 62
7
  6
BYLAYER
 10
41.9787765317
 20
25.5248495602
  0
SEQEND
  0
POLYLINE
  8
RES_1206_032
 62
7
  6
BYLAYER
 66
1
 70
0
  0
VERTEX
  8
RES_1206_032
 62
7
  6
BYLAYER
 10
42.3856918962
 20
25.5078773986
  0
VERTEX
  8
RES_1206_032
 62
7
  6
BYLAYER
 10
42.4090955224
 20
25.5258985591
  0
VERTEX
  8
RES_1206_032
 62
7
  6
BYLAYER
 10
42.4351875894
 20
25.5388266745
  0
VERTEX
  8
RES_1206_032
 62
7
  6
BYLAYER
 10
42.4647708304
 20
25.5469277058
  0
VERTEX
  8
RES_1206_032
 62
7
  6
BYLAYER
 10
42.4990752466
 20
25.5498325754
  0
SEQEND
  0
POLYLINE
  8
RES_1206_032
 62
7
  6
BYLAYER
 66
1
 70
0
  0
VERTEX
  8
RES_1206_032
 62
7
  6
BYLAYER
 10
42.618016196
 20
25.2853383339
  0
VERTEX
  8
RES_1206_032
 62
7
  6
BYLAYER
 10
42.5935979553
 20
25.2672723223
  0
VERTEX
  8
RES_1206_032
 62
7
  6
BYLAYER
 10
42.566571671
 20
25.2544035689
  0
VERTEX
  8
RES_1206_032
 62
7
  6
BYLAYER
 10
42.5358546086
 20
25.2463718031
  0
VERTEX
  8
RES_1206_032
 62
7
  6
BYLAYER
 10
42.5001614578
 20
25.2435189177
  0
SEQEND
  0
LINE
  8
LS-12V-60-W10-2835_PADS2
 62
7
  6
BYLAYER
 10
62.0128566432
 20
27.5814686839
 11
60.8128566432
 21
27.5814686839
  0
LINE
  8
LS-12V-60-W10-2835_PLATE2
 62
7
  6
BYLAYER
 10
62.0128566432
 20
27.5814686839
 11
60.8128566432
 21
27.5814686839
  0
LINE
  8
LS-12V-60-W10-2835_PADS2
 62
7
  6
BYLAYER
 10
13.2128566432
 20
27.5814686839
 11
12.0128566432
 21
27.5814686839
  0
LINE
  8
LS-12V-60-W10-2835_PLATE2
 62
7
  6
BYLAYER
 10
12.0128566432
 20
27.5814686839
 11
13.2128566432
 21
27.5814686839
  0
POLYLINE
  8
RES_1206_032
 62
7
  6
BYLAYER
 66
1
 70
0
  0
VERTEX
  8
RES_1206_032
 62
7
  6
BYLAYER
 10
41.9733454235
 20
26.0190789629
  0
VERTEX
  8
RES_1206_032
 62
7
  6
BYLAYER
 10
42.0086289954
 20
26.0076330645
  0
VERTEX
  8
RES_1206_032
 62
7
  6
BYLAYER
 10
42.0385568746
 20
25.9937012418
  0
VERTEX
  8
RES_1206_032
 62
7
  6
BYLAYER
 10
42.0626392094
 20
25.9772799304
  0
VERTEX
  8
RES_1206_032
 62
7
  6
BYLAYER
 10
42.0803379696
 20
25.958793883
  0
SEQEND
  0
POLYLINE
  8
RES_1206_032
 62
7
  6
BYLAYER
 66
1
 70
0
  0
VERTEX
  8
RES_1206_032
 62
7
  6
BYLAYER
 10
47.9733454235
 20
24.7883933235
  0
VERTEX
  8
RES_1206_032
 62
7
  6
BYLAYER
 10
48.0086289844
 20
24.7769473923
  0
VERTEX
  8
RES_1206_032
 62
7
  6
BYLAYER
 10
48.038556864
 20
24.7630155587
  0
VERTEX
  8
RES_1206_032
 62
7
  6
BYLAYER
 10
48.0626392064
 20
24.7465942471
  0
VERTEX
  8
RES_1206_032
 62
7
  6
BYLAYER
 10
48.0803379753
 20
24.7281082002
  0
SEQEND
  0
POLYLINE
  8
RES_1206_032
 62
7
  6
BYLAYER
 66
1
 70
0
  0
VERTEX
  8
RES_1206_032
 62
7
  6
BYLAYER
 10
42.0671784082
 20
25.2101999123
  0
VERTEX
  8
RES_1206_032
 62
7
  6
BYLAYER
 10
42.114138841
 20
25.184684027
  0
VERTEX
  8
RES_1206_032
 62
7
  6
BYLAYER
 10
42.1703244836
 20
25.1643219534
  0
VERTEX
  8
RES_1206_032
 62
7
  6
BYLAYER
 10
42.235841163
 20
25.1495266485
  0
VERTEX
  8
RES_1206_032
 62
7
  6
BYLAYER
 10
42.3103600918
 20
25.1405948447
  0
VERTEX
  8
RES_1206_032
 62
7
  6
BYLAYER
 10
42.3937120445
 20
25.1376126219
  0
SEQEND
  0
POLYLINE
  8
RES_1206_032
 62
7
  6
BYLAYER
 66
1
 70
0
  0
VERTEX
  8
RES_1206_032
 62
7
  6
BYLAYER
 10
42.1509943997
 20
25.2680656349
  0
VERTEX
  8
RES_1206_032
 62
7
  6
BYLAYER
 10
42.1210462971
 20
25.2855678416
  0
VERTEX
  8
RES_1206_032
 62
7
  6
BYLAYER
 10
42.0973412568
 20
25.3053581789
  0
VERTEX
  8
RES_1206_032
 62
7
  6
BYLAYER
 10
42.0791246205
 20
25.3270686524
  0
SEQEND
  0
POLYLINE
  8
RES_1206_032
 62
7
  6
BYLAYER
 66
1
 70
0
  0
VERTEX
  8
RES_1206_032
 62
7
  6
BYLAYER
 10
42.6848186256
 20
25.5878502291
  0
VERTEX
  8
RES_1206_032
 62
7
  6
BYLAYER
 10
42.6442821572
 20
25.6168217858
  0
VERTEX
  8
RES_1206_032
 62
7
  6
BYLAYER
 10
42.5991391002
 20
25.6377033423
  0
VERTEX
  8
RES_1206_032
 62
7
  6
BYLAYER
 10
42.5474160956
 20
25.6509434899
  0
VERTEX
  8
RES_1206_032
 62
7
  6
BYLAYER
 10
42.4865837343
 20
25.6557388712
  0
SEQEND
  0
POLYLINE
  8
RES_1206_032
 62
7
  6
BYLAYER
 66
1
 70
0
  0
VERTEX
  8
RES_1206_032
 62
7
  6
BYLAYER
 10
41.9559659489
 20
25.4156845499
  0
VERTEX
  8
RES_1206_032
 62
7
  6
BYLAYER
 10
41.9608866629
 20
25.3627021775
  0
VERTEX
  8
RES_1206_032
 62
7
  6
BYLAYER
 10
41.9747638799
 20
25.3169576123
  0
VERTEX
  8
RES_1206_032
 62
7
  6
BYLAYER
 10
41.9964991529
 20
25.2775326262
  0
VERTEX
  8
RES_1206_032
 62
7
  6
BYLAYER
 10
42.026708084
 20
25.2422696807
  0
VERTEX
  8
RES_1206_032
 62
7
  6
BYLAYER
 10
42.0671784082
 20
25.2101999123
  0
SEQEND
  0
POLYLINE
  8
RES_1206_032
 62
7
  6
BYLAYER
 66
1
 70
0
  0
VERTEX
  8
RES_1206_032
 62
7
  6
BYLAYER
 10
42.2432707794
 20
25.4145983149
  0
VERTEX
  8
RES_1206_032
 62
7
  6
BYLAYER
 10
42.2470315871
 20
25.3700870272
  0
VERTEX
  8
RES_1206_032
 62
7
  6
BYLAYER
 10
42.2578669445
 20
25.3298969285
  0
VERTEX
  8
RES_1206_032
 62
7
  6
BYLAYER
 10
42.2752317825
 20
25.293604385
  0
VERTEX
  8
RES_1206_032
 62
7
  6
BYLAYER
 10
42.2995967237
 20
25.2598475905
  0
VERTEX
  8
RES_1206_032
 62
7
  6
BYLAYER
 10
42.3323406704
 20
25.2277687479
  0
SEQEND
  0
LINE
  8
RES_1206_032
 62
7
  6
BYLAYER
 10
41.5461899765
 20
26.5814686839
 11
41.5461899765
 21
24.1814686839
  0
LINE
  8
RES_1206_012
 62
7
  6
BYLAYER
 10
41.5461899765
 20
24.1814686895
 11
41.5461899765
 21
23.7812487723
  0
LINE
  8
RES_1206_012
 62
7
  6
BYLAYER
 10
41.5461899765
 20
26.5812487667
 11
41.5461899765
 21
26.9814686839
  0
LINE
  8
RES_1206_032
 62
7
  6
BYLAYER
 10
41.9733454235
 20
26.1016315867
 11
41.9733454235
 21
26.0190789629
  0
LINE
  8
RES_1206_032
 62
7
  6
BYLAYER
 10
41.9733454235
 20
24.8709459234
 11
41.9733454235
 21
24.7883933235
  0
LINE
  8
RES_1206_032
 62
7
  6
BYLAYER
 10
42.169407893
 20
25.535168593
 11
42.169407893
 21
25.6410748888
  0
LINE
  8
RES_1206_032
 62
7
  6
BYLAYER
 10
42.1971064575
 20
24.5814686824
 11
42.1971064575
 21
24.7650396277
  0
LINE
  8
RES_1206_032
 62
7
  6
BYLAYER
 10
42.1971064575
 20
25.8121543337
 11
42.1971064575
 21
25.9957252909
  0
POLYLINE
  8
RES_1206_032
 62
7
  6
BYLAYER
 66
1
 70
0
  0
VERTEX
  8
RES_1206_032
 62
7
  6
BYLAYER
 10
42.0537256249
 20
25.4042792727
  0
VERTEX
  8
RES_1206_032
 62
7
  6
BYLAYER
 10
42.0565566127
 20
25.4347776916
  0
VERTEX
  8
RES_1206_032
 62
7
  6
BYLAYER
 10
42.0643278667
 20
25.4599196818
  0
VERTEX
  8
RES_1206_032
 62
7
  6
BYLAYER
 10
42.0762288779
 20
25.4806937465
  0
VERTEX
  8
RES_1206_032
 62
7
  6
BYLAYER
 10
42.0923292458
 20
25.4983638199
  0
VERTEX
  8
RES_1206_032
 62
7
  6
BYLAYER
 10
42.1126584983
 20
25.5131570501
  0
VERTEX
  8
RES_1206_032
 62
7
  6
BYLAYER
 10
42.1381985165
 20
25.5255219537
  0
VERTEX
  8
RES_1206_032
 62
7
  6
BYLAYER
 10
42.169407893
 20
25.535168593
  0
SEQEND
  0
POLYLINE
  8
RES_1206_032
 62
7
  6
BYLAYER
 66
1
 70
0
  0
VERTEX
  8
RES_1206_032
 62
7
  6
BYLAYER
 10
42.3410304554
 20
25.4004775454
  0
VERTEX
  8
RES_1206_032
 62
7
  6
BYLAYER
 10
42.3441790177
 20
25.4335464109
  0
VERTEX
  8
RES_1206_032
 62
7
  6
BYLAYER
 10
42.3529123095
 20
25.4617432324
  0
VERTEX
  8
RES_1206_032
 62
7
  6
BYLAYER
 10
42.3665720162
 20
25.4860578555
  0
VERTEX
  8
RES_1206_032
 62
7
  6
BYLAYER
 10
42.3856918962
 20
25.5078773986
  0
SEQEND
  0
POLYLINE
  8
RES_1206_032
 62
7
  6
BYLAYER
 66
1
 70
0
  0
VERTEX
  8
RES_1206_032
 62
7
  6
BYLAYER
 10
41.9787765317
 20
25.5248495602
  0
VERTEX
  8
RES_1206_032
 62
7
  6
BYLAYER
 10
41.9665450963
 20
25.4932131851
  0
VERTEX
  8
RES_1206_032
 62
7
  6
BYLAYER
 10
41.9587348819
 20
25.4570475744
  0
VERTEX
  8
RES_1206_032
 62
7
  6
BYLAYER
 10
41.9559659489
 20
25.4156845499
  0
SEQEND
  0
POLYLINE
  8
RES_1206_032
 62
7
  6
BYLAYER
 66
1
 70
0
  0
VERTEX
  8
RES_1206_032
 62
7
  6
BYLAYER
 10
42.3123815813
 20
25.5893399152
  0
VERTEX
  8
RES_1206_032
 62
7
  6
BYLAYER
 10
42.2877455524
 20
25.5612191826
  0
VERTEX
  8
RES_1206_032
 62
7
  6
BYLAYER
 10
42.2687373382
 20
25.5303509837
  0
VERTEX
  8
RES_1206_032
 62
7
  6
BYLAYER
 10
42.2550121014
 20
25.4964467069
  0
VERTEX
  8
RES_1206_032
 62
7
  6
BYLAYER
 10
42.2463462836
 20
25.4582044215
  0
VERTEX
  8
RES_1206_032
 62
7
  6
BYLAYER
 10
42.2432707794
 20
25.4145983149
  0
SEQEND
  0
POLYLINE
  8
RES_1206_032
 62
7
  6
BYLAYER
 66
1
 70
0
  0
VERTEX
  8
RES_1206_032
 62
7
  6
BYLAYER
 10
42.6674391383
 20
25.206044366
  0
VERTEX
  8
RES_1206_032
 62
7
  6
BYLAYER
 10
42.7024172164
 20
25.2362163648
  0
VERTEX
  8
RES_1206_032
 62
7
  6
BYLAYER
 10
42.7287289304
 20
25.2701413162
  0
VERTEX
  8
RES_1206_032
 62
7
  6
BYLAYER
 10
42.747263973
 20
25.3078500632
  0
VERTEX
  8
RES_1206_032
 62
7
  6
BYLAYER
 10
42.7588910787
 20
25.3512867602
  0
VERTEX
  8
RES_1206_032
 62
7
  6
BYLAYER
 10
42.7630263649
 20
25.4021068026
  0
SEQEND
  0
LINE
  8
LS-12V-60-W10-2835_PLATE2
 62
7
  6
BYLAYER
 10
62.0128566432
 20
30.3814686839
 11
12.0128566432
 21
30.3814686839
  0
POLYLINE
  8
RES_1206_032
 62
7
  6
BYLAYER
 66
1
 70
0
  0
VERTEX
  8
RES_1206_032
 62
7
  6
BYLAYER
 10
47.9733454235
 20
26.0190789629
  0
VERTEX
  8
RES_1206_032
 62
7
  6
BYLAYER
 10
48.0086289954
 20
26.0076330645
  0
VERTEX
  8
RES_1206_032
 62
7
  6
BYLAYER
 10
48.0385568746
 20
25.9937012418
  0
VERTEX
  8
RES_1206_032
 62
7
  6
BYLAYER
 10
48.0626392094
 20
25.9772799304
  0
VERTEX
  8
RES_1206_032
 62
7
  6
BYLAYER
 10
48.0803379696
 20
25.958793883
  0
SEQEND
  0
POLYLINE
  8
RES_1206_032
 62
7
  6
BYLAYER
 66
1
 70
0
  0
VERTEX
  8
RES_1206_032
 62
7
  6
BYLAYER
 10
48.0671784082
 20
25.2101999123
  0
VERTEX
  8
RES_1206_032
 62
7
  6
BYLAYER
 10
48.114138841
 20
25.184684027
  0
VERTEX
  8
RES_1206_032
 62
7
  6
BYLAYER
 10
48.1703244836
 20
25.1643219534
  0
VERTEX
  8
RES_1206_032
 62
7
  6
BYLAYER
 10
48.235841163
 20
25.1495266485
  0
VERTEX
  8
RES_1206_032
 62
7
  6
BYLAYER
 10
48.3103600918
 20
25.1405948447
  0
VERTEX
  8
RES_1206_032
 62
7
  6
BYLAYER
 10
48.3937120445
 20
25.1376126219
  0
SEQEND
  0
POLYLINE
  8
RES_1206_032
 62
7
  6
BYLAYER
 66
1
 70
0
  0
VERTEX
  8
RES_1206_032
 62
7
  6
BYLAYER
 10
42.6186811464
 20
25.5076054059
  0
VERTEX
  8
RES_1206_032
 62
7
  6
BYLAYER
 10
42.6393025965
 20
25.4846643789
  0
VERTEX
  8
RES_1206_032
 62
7
  6
BYLAYER
 10
42.6535126748
 20
25.4594832694
  0
VERTEX
  8
RES_1206_032
 62
7
  6
BYLAYER
 10
42.6621824731
 20
25.431087212
  0
VERTEX
  8
RES_1206_032
 62
7
  6
BYLAYER
 10
42.6652666934
 20
25.3977619578
  0
SEQEND
  0
POLYLINE
  8
RES_1206_032
 62
7
  6
BYLAYER
 66
1
 70
0
  0
VERTEX
  8
RES_1206_032
 62
7
  6
BYLAYER
 10
42.3861085065
 20
25.285881452
  0
VERTEX
  8
RES_1206_032
 62
7
  6
BYLAYER
 10
42.3666920762
 20
25.3085680395
  0
VERTEX
  8
RES_1206_032
 62
7
  6
BYLAYER
 10
42.3528403975
 20
25.3344629291
  0
VERTEX
  8
RES_1206_032
 62
7
  6
BYLAYER
 10
42.3441324313
 20
25.3647079646
  0
VERTEX
  8
RES_1206_032
 62
7
  6
BYLAYER
 10
42.3410304554
 20
25.4004775454
  0
SEQEND
  0
POLYLINE
  8
RES_1206_032
 62
7
  6
BYLAYER
 66
1
 70
0
  0
VERTEX
  8
RES_1206_032
 62
7
  6
BYLAYER
 10
42.0803379753
 20
24.7281082002
  0
VERTEX
  8
RES_1206_032
 62
7
  6
BYLAYER
 10
42.0921113758
 20
24.7074859069
  0
VERTEX
  8
RES_1206_032
 62
7
  6
BYLAYER
 10
42.101050325
 20
24.681948128
  0
VERTEX
  8
RES_1206_032
 62
7
  6
BYLAYER
 10
42.1076228512
 20
24.6522732335
  0
VERTEX
  8
RES_1206_032
 62
7
  6
BYLAYER
 10
42.1122185898
 20
24.6187645855
  0
VERTEX
  8
RES_1206_032
 62
7
  6
BYLAYER
 10
42.1150969513
 20
24.5814686824
  0
SEQEND
  0
POLYLINE
  8
RES_1206_032
 62
7
  6
BYLAYER
 66
1
 70
0
  0
VERTEX
  8
RES_1206_032
 62
7
  6
BYLAYER
 10
42.0803379696
 20
25.958793883
  0
VERTEX
  8
RES_1206_032
 62
7
  6
BYLAYER
 10
42.0921113735
 20
25.938171581
  0
VERTEX
  8
RES_1206_032
 62
7
  6
BYLAYER
 10
42.1010503257
 20
25.9126337951
  0
VERTEX
  8
RES_1206_032
 62
7
  6
BYLAYER
 10
42.1076228529
 20
25.882958894
  0
VERTEX
  8
RES_1206_032
 62
7
  6
BYLAYER
 10
42.1122185909
 20
25.8494502406
  0
VERTEX
  8
RES_1206_032
 62
7
  6
BYLAYER
 10
42.1150969513
 20
25.8121543337
  0
SEQEND
  0
POLYLINE
  8
RES_1206_032
 62
7
  6
BYLAYER
 66
1
 70
0
  0
VERTEX
  8
RES_1206_032
 62
7
  6
BYLAYER
 10
42.0791246205
 20
25.3270686524
  0
VERTEX
  8
RES_1206_032
 62
7
  6
BYLAYER
 10
42.0645665608
 20
25.3529519912
  0
VERTEX
  8
RES_1206_032
 62
7
  6
BYLAYER
 10
42.0563719356
 20
25.3785821949
  0
VERTEX
  8
RES_1206_032
 62
7
  6
BYLAYER
 10
42.0537256249
 20
25.4042792727
  0
SEQEND
  0
POLYLINE
  8
RES_1206_032
 62
7
  6
BYLAYER
 66
1
 70
0
  0
VERTEX
  8
RES_1206_032
 62
7
  6
BYLAYER
 10
42.7630263649
 20
25.4021068026
  0
VERTEX
  8
RES_1206_032
 62
7
  6
BYLAYER
 10
42.7593539034
 20
25.4509303471
  0
VERTEX
  8
RES_1206_032
 62
7
  6
BYLAYER
 10
42.7490279074
 20
25.4930182197
  0
VERTEX
  8
RES_1206_032
 62
7
  6
BYLAYER
 10
42.7331066866
 20
25.5289105877
  0
VERTEX
  8
RES_1206_032
 62
7
  6
BYLAYER
 10
42.7119129458
 20
25.5600898175
  0
VERTEX
  8
RES_1206_032
 62
7
  6
BYLAYER
 10
42.6848186256
 20
25.5878502291
  0
SEQEND
  0
LINE
  8
RES_1206_032
 62
7
  6
BYLAYER
 10
42.7461899765
 20
24.7650396277
 11
42.7461899765
 21
24.8709459234
  0
LINE
  8
RES_1206_032
 62
7
  6
BYLAYER
 10
42.7461899765
 20
25.9957252909
 11
42.7461899765
 21
26.1016315867
  0
LINE
  8
RES_1206_032
 62
7
  6
BYLAYER
 10
43.1461899765
 20
26.5814686839
 11
43.1461899765
 21
24.1814686839
  0
LINE
  8
RES_1206_012
 62
7
  6
BYLAYER
 10
43.1461899765
 20
24.1814686895
 11
43.1461899765
 21
23.7812487723
  0
LINE
  8
RES_1206_012
 62
7
  6
BYLAYER
 10
43.1461899765
 20
26.5812487667
 11
43.1461899765
 21
26.9814686839
  0
POLYLINE
  8
RES_1206_032
 62
7
  6
BYLAYER
 66
1
 70
0
  0
VERTEX
  8
RES_1206_032
 62
7
  6
BYLAYER
 10
42.6652666934
 20
25.3977619578
  0
VERTEX
  8
RES_1206_032
 62
7
  6
BYLAYER
 10
42.661909179
 20
25.3623782372
  0
VERTEX
  8
RES_1206_032
 62
7
  6
BYLAYER
 10
42.6526105866
 20
25.3326616965
  0
VERTEX
  8
RES_1206_032
 62
7
  6
BYLAYER
 10
42.6381510733
 20
25.3075088907
  0
VERTEX
  8
RES_1206_032
 62
7
  6
BYLAYER
 10
42.618016196
 20
25.2853383339
  0
SEQEND
  0
POLYLINE
  8
RES_1206_032
 62
7
  6
BYLAYER
 66
1
 70
0
  0
VERTEX
  8
RES_1206_032
 62
7
  6
BYLAYER
 10
48.0446210507
 20
25.6017895792
  0
VERTEX
  8
RES_1206_032
 62
7
  6
BYLAYER
 10
48.0175183829
 20
25.5792015692
  0
VERTEX
  8
RES_1206_032
 62
7
  6
BYLAYER
 10
47.9958456473
 20
25.553734834
  0
VERTEX
  8
RES_1206_032
 62
7
  6
BYLAYER
 10
47.9787765317
 20
25.5248495602
  0
SEQEND
  0
POLYLINE
  8
RES_1206_032
 62
7
  6
BYLAYER
 66
1
 70
0
  0
VERTEX
  8
RES_1206_032
 62
7
  6
BYLAYER
 10
48.3856918962
 20
25.5078773986
  0
VERTEX
  8
RES_1206_032
 62
7
  6
BYLAYER
 10
48.4090955224
 20
25.5258985591
  0
VERTEX
  8
RES_1206_032
 62
7
  6
BYLAYER
 10
48.4351875894
 20
25.5388266745
  0
VERTEX
  8
RES_1206_032
 62
7
  6
BYLAYER
 10
48.4647708304
 20
25.5469277058
  0
VERTEX
  8
RES_1206_032
 62
7
  6
BYLAYER
 10
48.4990752466
 20
25.5498325754
  0
SEQEND
  0
POLYLINE
  8
RES_1206_032
 62
7
  6
BYLAYER
 66
1
 70
0
  0
VERTEX
  8
RES_1206_032
 62
7
  6
BYLAYER
 10
48.618016196
 20
25.2853383339
  0
VERTEX
  8
RES_1206_032
 62
7
  6
BYLAYER
 10
48.5935979553
 20
25.2672723223
  0
VERTEX
  8
RES_1206_032
 62
7
  6
BYLAYER
 10
48.566571671
 20
25.2544035689
  0
VERTEX
  8
RES_1206_032
 62
7
  6
BYLAYER
 10
48.5358546086
 20
25.2463718031
  0
VERTEX
  8
RES_1206_032
 62
7
  6
BYLAYER
 10
48.5001614578
 20
25.2435189177
  0
SEQEND
  0
POLYLINE
  8
RES_1206_032
 62
7
  6
BYLAYER
 66
1
 70
0
  0
VERTEX
  8
RES_1206_032
 62
7
  6
BYLAYER
 10
48.1509943997
 20
25.2680656349
  0
VERTEX
  8
RES_1206_032
 62
7
  6
BYLAYER
 10
48.1210462971
 20
25.2855678416
  0
VERTEX
  8
RES_1206_032
 62
7
  6
BYLAYER
 10
48.0973412568
 20
25.3053581789
  0
VERTEX
  8
RES_1206_032
 62
7
  6
BYLAYER
 10
48.0791246205
 20
25.3270686524
  0
SEQEND
  0
POLYLINE
  8
RES_1206_032
 62
7
  6
BYLAYER
 66
1
 70
0
  0
VERTEX
  8
RES_1206_032
 62
7
  6
BYLAYER
 10
48.6848186256
 20
25.5878502291
  0
VERTEX
  8
RES_1206_032
 62
7
  6
BYLAYER
 10
48.6442821572
 20
25.6168217858
  0
VERTEX
  8
RES_1206_032
 62
7
  6
BYLAYER
 10
48.5991391002
 20
25.6377033423
  0
VERTEX
  8
RES_1206_032
 62
7
  6
BYLAYER
 10
48.5474160956
 20
25.6509434899
  0
VERTEX
  8
RES_1206_032
 62
7
  6
BYLAYER
 10
48.4865837343
 20
25.6557388712
  0
SEQEND
  0
POLYLINE
  8
RES_1206_032
 62
7
  6
BYLAYER
 66
1
 70
0
  0
VERTEX
  8
RES_1206_032
 62
7
  6
BYLAYER
 10
48.3123815813
 20
25.5893399152
  0
VERTEX
  8
RES_1206_032
 62
7
  6
BYLAYER
 10
48.2877455524
 20
25.5612191826
  0
VERTEX
  8
RES_1206_032
 62
7
  6
BYLAYER
 10
48.2687373382
 20
25.5303509837
  0
VERTEX
  8
RES_1206_032
 62
7
  6
BYLAYER
 10
48.2550121014
 20
25.4964467069
  0
VERTEX
  8
RES_1206_032
 62
7
  6
BYLAYER
 10
48.2463462836
 20
25.4582044215
  0
VERTEX
  8
RES_1206_032
 62
7
  6
BYLAYER
 10
48.2432707794
 20
25.4145983149
  0
SEQEND
  0
POLYLINE
  8
RES_1206_032
 62
7
  6
BYLAYER
 66
1
 70
0
  0
VERTEX
  8
RES_1206_032
 62
7
  6
BYLAYER
 10
48.6674391383
 20
25.206044366
  0
VERTEX
  8
RES_1206_032
 62
7
  6
BYLAYER
 10
48.7024172164
 20
25.2362163648
  0
VERTEX
  8
RES_1206_032
 62
7
  6
BYLAYER
 10
48.7287289304
 20
25.2701413162
  0
VERTEX
  8
RES_1206_032
 62
7
  6
BYLAYER
 10
48.747263973
 20
25.3078500632
  0
VERTEX
  8
RES_1206_032
 62
7
  6
BYLAYER
 10
48.7588910787
 20
25.3512867602
  0
VERTEX
  8
RES_1206_032
 62
7
  6
BYLAYER
 10
48.7630263649
 20
25.4021068026
  0
SEQEND
  0
POLYLINE
  8
RES_1206_032
 62
7
  6
BYLAYER
 66
1
 70
0
  0
VERTEX
  8
RES_1206_032
 62
7
  6
BYLAYER
 10
48.6186811464
 20
25.5076054059
  0
VERTEX
  8
RES_1206_032
 62
7
  6
BYLAYER
 10
48.6393025965
 20
25.4846643789
  0
VERTEX
  8
RES_1206_032
 62
7
  6
BYLAYER
 10
48.6535126748
 20
25.4594832694
  0
VERTEX
  8
RES_1206_032
 62
7
  6
BYLAYER
 10
48.6621824731
 20
25.431087212
  0
VERTEX
  8
RES_1206_032
 62
7
  6
BYLAYER
 10
48.6652666934
 20
25.3977619578
  0
SEQEND
  0
POLYLINE
  8
RES_1206_032
 62
7
  6
BYLAYER
 66
1
 70
0
  0
VERTEX
  8
RES_1206_032
 62
7
  6
BYLAYER
 10
48.3861085065
 20
25.285881452
  0
VERTEX
  8
RES_1206_032
 62
7
  6
BYLAYER
 10
48.3666920762
 20
25.3085680395
  0
VERTEX
  8
RES_1206_032
 62
7
  6
BYLAYER
 10
48.3528403975
 20
25.3344629291
  0
VERTEX
  8
RES_1206_032
 62
7
  6
BYLAYER
 10
48.3441324313
 20
25.3647079646
  0
VERTEX
  8
RES_1206_032
 62
7
  6
BYLAYER
 10
48.3410304554
 20
25.4004775454
  0
SEQEND
  0
POLYLINE
  8
RES_1206_032
 62
7
  6
BYLAYER
 66
1
 70
0
  0
VERTEX
  8
RES_1206_032
 62
7
  6
BYLAYER
 10
47.9787765317
 20
25.5248495602
  0
VERTEX
  8
RES_1206_032
 62
7
  6
BYLAYER
 10
47.9665450963
 20
25.4932131851
  0
VERTEX
  8
RES_1206_032
 62
7
  6
BYLAYER
 10
47.9587348819
 20
25.4570475744
  0
VERTEX
  8
RES_1206_032
 62
7
  6
BYLAYER
 10
47.9559659489
 20
25.4156845499
  0
SEQEND
  0
LINE
  8
LED_CHIP_2835_ELETRODE_22
 62
7
  6
BYLAYER
 10
53.1995233098
 20
27.1314686839
 11
53.0995233098
 21
27.0314686839
  0
LINE
  8
LED_CHIP_2835_BASE2
 62
7
  6
BYLAYER
 10
52.2899976785
 20
24.1209943153
 11
52.6690489412
 21
23.7419430525
  0
LINE
  8
LED_CHIP_2835_ELETRODE_12
 62
7
  6
BYLAYER
 10
53.0995233098
 20
23.7314686839
 11
53.1995233098
 21
23.6314686839
  0
POLYLINE
  8
RES_1206_032
 62
7
  6
BYLAYER
 66
1
 70
0
  0
VERTEX
  8
RES_1206_032
 62
7
  6
BYLAYER
 10
48.0803379753
 20
24.7281082002
  0
VERTEX
  8
RES_1206_032
 62
7
  6
BYLAYER
 10
48.0921113758
 20
24.7074859069
  0
VERTEX
  8
RES_1206_032
 62
7
  6
BYLAYER
 10
48.101050325
 20
24.681948128
  0
VERTEX
  8
RES_1206_032
 62
7
  6
BYLAYER
 10
48.1076228512
 20
24.6522732335
  0
VERTEX
  8
RES_1206_032
 62
7
  6
BYLAYER
 10
48.1122185898
 20
24.6187645855
  0
VERTEX
  8
RES_1206_032
 62
7
  6
BYLAYER
 10
48.1150969513
 20
24.5814686824
  0
SEQEND
  0
POLYLINE
  8
RES_1206_032
 62
7
  6
BYLAYER
 66
1
 70
0
  0
VERTEX
  8
RES_1206_032
 62
7
  6
BYLAYER
 10
48.0803379696
 20
25.958793883
  0
VERTEX
  8
RES_1206_032
 62
7
  6
BYLAYER
 10
48.0921113735
 20
25.938171581
  0
VERTEX
  8
RES_1206_032
 62
7
  6
BYLAYER
 10
48.1010503257
 20
25.9126337951
  0
VERTEX
  8
RES_1206_032
 62
7
  6
BYLAYER
 10
48.1076228529
 20
25.882958894
  0
VERTEX
  8
RES_1206_032
 62
7
  6
BYLAYER
 10
48.1122185909
 20
25.8494502406
  0
VERTEX
  8
RES_1206_032
 62
7
  6
BYLAYER
 10
48.1150969513
 20
25.8121543337
  0
SEQEND
  0
POLYLINE
  8
RES_1206_032
 62
7
  6
BYLAYER
 66
1
 70
0
  0
VERTEX
  8
RES_1206_032
 62
7
  6
BYLAYER
 10
48.0791246205
 20
25.3270686524
  0
VERTEX
  8
RES_1206_032
 62
7
  6
BYLAYER
 10
48.0645665608
 20
25.3529519912
  0
VERTEX
  8
RES_1206_032
 62
7
  6
BYLAYER
 10
48.0563719356
 20
25.3785821949
  0
VERTEX
  8
RES_1206_032
 62
7
  6
BYLAYER
 10
48.0537256249
 20
25.4042792727
  0
SEQEND
  0
POLYLINE
  8
RES_1206_032
 62
7
  6
BYLAYER
 66
1
 70
0
  0
VERTEX
  8
RES_1206_032
 62
7
  6
BYLAYER
 10
47.9559659489
 20
25.4156845499
  0
VERTEX
  8
RES_1206_032
 62
7
  6
BYLAYER
 10
47.9608866629
 20
25.3627021775
  0
VERTEX
  8
RES_1206_032
 62
7
  6
BYLAYER
 10
47.9747638799
 20
25.3169576123
  0
VERTEX
  8
RES_1206_032
 62
7
  6
BYLAYER
 10
47.9964991529
 20
25.2775326262
  0
VERTEX
  8
RES_1206_032
 62
7
  6
BYLAYER
 10
48.026708084
 20
25.2422696807
  0
VERTEX
  8
RES_1206_032
 62
7
  6
BYLAYER
 10
48.0671784082
 20
25.2101999123
  0
SEQEND
  0
POLYLINE
  8
RES_1206_032
 62
7
  6
BYLAYER
 66
1
 70
0
  0
VERTEX
  8
RES_1206_032
 62
7
  6
BYLAYER
 10
48.2432707794
 20
25.4145983149
  0
VERTEX
  8
RES_1206_032
 62
7
  6
BYLAYER
 10
48.2470315871
 20
25.3700870272
  0
VERTEX
  8
RES_1206_032
 62
7
  6
BYLAYER
 10
48.2578669445
 20
25.3298969285
  0
VERTEX
  8
RES_1206_032
 62
7
  6
BYLAYER
 10
48.2752317825
 20
25.293604385
  0
VERTEX
  8
RES_1206_032
 62
7
  6
BYLAYER
 10
48.2995967237
 20
25.2598475905
  0
VERTEX
  8
RES_1206_032
 62
7
  6
BYLAYER
 10
48.3323406704
 20
25.2277687479
  0
SEQEND
  0
POLYLINE
  8
RES_1206_032
 62
7
  6
BYLAYER
 66
1
 70
0
  0
VERTEX
  8
RES_1206_032
 62
7
  6
BYLAYER
 10
48.7630263649
 20
25.4021068026
  0
VERTEX
  8
RES_1206_032
 62
7
  6
BYLAYER
 10
48.7593539034
 20
25.4509303471
  0
VERTEX
  8
RES_1206_032
 62
7
  6
BYLAYER
 10
48.7490279074
 20
25.4930182197
  0
VERTEX
  8
RES_1206_032
 62
7
  6
BYLAYER
 10
48.7331066866
 20
25.5289105877
  0
VERTEX
  8
RES_1206_032
 62
7
  6
BYLAYER
 10
48.7119129458
 20
25.5600898175
  0
VERTEX
  8
RES_1206_032
 62
7
  6
BYLAYER
 10
48.6848186256
 20
25.5878502291
  0
SEQEND
  0
LINE
  8
RES_1206_032
 62
7
  6
BYLAYER
 10
47.5461899765
 20
26.5814686839
 11
47.5461899765
 21
24.1814686839
  0
LINE
  8
RES_1206_012
 62
7
  6
BYLAYER
 10
47.5461899765
 20
24.1814686895
 11
47.5461899765
 21
23.7812487723
  0
LINE
  8
RES_1206_012
 62
7
  6
BYLAYER
 10
47.5461899765
 20
26.5812487667
 11
47.5461899765
 21
26.9814686839
  0
LINE
  8
RES_1206_032
 62
7
  6
BYLAYER
 10
47.9733454235
 20
26.1016315867
 11
47.9733454235
 21
26.0190789629
  0
LINE
  8
RES_1206_032
 62
7
  6
BYLAYER
 10
47.9733454235
 20
24.8709459234
 11
47.9733454235
 21
24.7883933235
  0
LINE
  8
RES_1206_032
 62
7
  6
BYLAYER
 10
48.169407893
 20
25.535168593
 11
48.169407893
 21
25.6410748888
  0
LINE
  8
RES_1206_032
 62
7
  6
BYLAYER
 10
48.1971064575
 20
24.5814686824
 11
48.1971064575
 21
24.7650396277
  0
LINE
  8
RES_1206_032
 62
7
  6
BYLAYER
 10
48.1971064575
 20
25.8121543337
 11
48.1971064575
 21
25.9957252909
  0
LINE
  8
RES_1206_032
 62
7
  6
BYLAYER
 10
48.7461899765
 20
24.7650396277
 11
48.7461899765
 21
24.8709459234
  0
LINE
  8
RES_1206_032
 62
7
  6
BYLAYER
 10
48.7461899765
 20
25.9957252909
 11
48.7461899765
 21
26.1016315867
  0
POLYLINE
  8
RES_1206_032
 62
7
  6
BYLAYER
 66
1
 70
0
  0
VERTEX
  8
RES_1206_032
 62
7
  6
BYLAYER
 10
48.0537256249
 20
25.4042792727
  0
VERTEX
  8
RES_1206_032
 62
7
  6
BYLAYER
 10
48.0565566127
 20
25.4347776916
  0
VERTEX
  8
RES_1206_032
 62
7
  6
BYLAYER
 10
48.0643278667
 20
25.4599196818
  0
VERTEX
  8
RES_1206_032
 62
7
  6
BYLAYER
 10
48.0762288779
 20
25.4806937465
  0
VERTEX
  8
RES_1206_032
 62
7
  6
BYLAYER
 10
48.0923292458
 20
25.4983638199
  0
VERTEX
  8
RES_1206_032
 62
7
  6
BYLAYER
 10
48.1126584983
 20
25.5131570501
  0
VERTEX
  8
RES_1206_032
 62
7
  6
BYLAYER
 10
48.1381985165
 20
25.5255219537
  0
VERTEX
  8
RES_1206_032
 62
7
  6
BYLAYER
 10
48.169407893
 20
25.535168593
  0
SEQEND
  0
POLYLINE
  8
RES_1206_032
 62
7
  6
BYLAYER
 66
1
 70
0
  0
VERTEX
  8
RES_1206_032
 62
7
  6
BYLAYER
 10
48.6652666934
 20
25.3977619578
  0
VERTEX
  8
RES_1206_032
 62
7
  6
BYLAYER
 10
48.661909179
 20
25.3623782372
  0
VERTEX
  8
RES_1206_032
 62
7
  6
BYLAYER
 10
48.6526105866
 20
25.3326616965
  0
VERTEX
  8
RES_1206_032
 62
7
  6
BYLAYER
 10
48.6381510733
 20
25.3075088907
  0
VERTEX
  8
RES_1206_032
 62
7
  6
BYLAYER
 10
48.618016196
 20
25.2853383339
  0
SEQEND
  0
POLYLINE
  8
RES_1206_032
 62
7
  6
BYLAYER
 66
1
 70
0
  0
VERTEX
  8
RES_1206_032
 62
7
  6
BYLAYER
 10
48.3410304554
 20
25.4004775454
  0
VERTEX
  8
RES_1206_032
 62
7
  6
BYLAYER
 10
48.3441790177
 20
25.4335464109
  0
VERTEX
  8
RES_1206_032
 62
7
  6
BYLAYER
 10
48.3529123095
 20
25.4617432324
  0
VERTEX
  8
RES_1206_032
 62
7
  6
BYLAYER
 10
48.3665720162
 20
25.4860578555
  0
VERTEX
  8
RES_1206_032
 62
7
  6
BYLAYER
 10
48.3856918962
 20
25.5078773986
  0
SEQEND
  0
LINE
  8
LED_CHIP_2835_BASE2
 62
7
  6
BYLAYER
 10
55.0795233098
 20
27.0314686839
 11
55.0664303491
 21
27.0183757231
  0
LINE
  8
LED_CHIP_2835_BASE2
 62
7
  6
BYLAYER
 10
52.2795233098
 20
23.7314686839
 11
52.2899976785
 21
23.7419430525
  0
LINE
  8
LED_CHIP_2835_BASE2
 62
7
  6
BYLAYER
 10
55.0795233098
 20
23.7314686839
 11
55.0664303491
 21
23.7445616447
  0
LINE
  8
LED_CHIP_2835_BASE2
 62
7
  6
BYLAYER
 10
52.2795233098
 20
27.0314686839
 11
52.2926162706
 21
27.0183757231
  0
LINE
  8
RES_1206_032
 62
7
  6
BYLAYER
 10
49.1461899765
 20
26.5814686839
 11
49.1461899765
 21
24.1814686839
  0
LINE
  8
RES_1206_012
 62
7
  6
BYLAYER
 10
49.1461899765
 20
24.1814686895
 11
49.1461899765
 21
23.7812487723
  0
LINE
  8
RES_1206_012
 62
7
  6
BYLAYER
 10
49.1461899765
 20
26.5812487667
 11
49.1461899765
 21
26.9814686839
  0
LINE
  8
LED_CHIP_2835_ELETRODE_12
 62
7
  6
BYLAYER
 10
54.1595233098
 20
23.6314686839
 11
54.2595233098
 21
23.7314686839
  0
LINE
  8
LED_CHIP_2835_ELETRODE_22
 62
7
  6
BYLAYER
 10
54.2595233098
 20
27.0314686839
 11
54.1595233098
 21
27.1314686839
  0
LINE
  8
LED_CHIP_2835_BASE2
 62
7
  6
BYLAYER
 10
52.2795233098
 20
27.0314686839
 11
52.2795233098
 21
23.7314686839
  0
LINE
  8
LED_CHIP_2835_BASE2
 62
7
  6
BYLAYER
 10
52.2899976785
 20
23.7419430525
 11
52.2899976785
 21
24.1209943153
  0
LINE
  8
LED_CHIP_2835_BASE2
 62
7
  6
BYLAYER
 10
52.2926162706
 20
27.0183757231
 11
52.2926162706
 21
24.1183757231
  0
LINE
  8
LED_CHIP_2835_BASE2
 62
7
  6
BYLAYER
 10
52.4295233098
 20
26.6546829696
 11
52.4295233098
 21
24.1082543982
  0
LINE
  8
LED_CHIP_2835_SLICONE2
 62
7
  6
BYLAYER
 10
52.4434916176
 20
26.6546829696
 11
52.4434916176
 21
24.1082543982
  0
LINE
  8
LED_CHIP_2835_BASE2
 62
7
  6
BYLAYER
 10
52.6295233098
 20
26.8546829696
 11
52.6295233098
 21
26.8407146618
  0
LINE
  8
LED_CHIP_2835_BASE2
 62
7
  6
BYLAYER
 10
52.6295233098
 20
23.9082543982
 11
52.6295233098
 21
23.922222706
  0
LINE
  8
LED_CHIP_2835_BASE2
 62
7
  6
BYLAYER
 10
54.7295233098
 20
26.8546829696
 11
54.7295233098
 21
26.8407146618
  0
LINE
  8
LED_CHIP_2835_BASE2
 62
7
  6
BYLAYER
 10
54.7295233098
 20
23.9082543982
 11
54.7295233098
 21
23.922222706
  0
LINE
  8
0
 62
7
  6
BYLAYER
 10
54.8945233098
 20
24.5037121933
 11
54.8945233098
 21
24.5037481658
  0
LINE
  8
LED_CHIP_2835_SLICONE2
 62
7
  6
BYLAYER
 10
54.915555002
 20
24.1082543982
 11
54.915555002
 21
26.6546829696
  0
LINE
  8
LED_CHIP_2835_BASE2
 62
7
  6
BYLAYER
 10
54.9295233098
 20
24.1082543982
 11
54.9295233098
 21
26.6546829696
  0
LINE
  8
LED_CHIP_2835_BASE2
 62
7
  6
BYLAYER
 10
55.0664303491
 20
23.7445616447
 11
55.0664303491
 21
27.0183757231
  0
LINE
  8
LED_CHIP_2835_BASE2
 62
7
  6
BYLAYER
 10
55.0795233098
 20
23.7314686839
 11
55.0795233098
 21
27.0314686839
  0
LINE
  8
LS-12V-60-W10-2835_PLATE2
 62
7
  6
BYLAYER
 10
62.0128566432
 20
20.3814686839
 11
62.0128566432
 21
23.1814686839
  0
LINE
  8
LS-12V-60-W10-2835_PADS2
 62
7
  6
BYLAYER
 10
62.0128566432
 20
23.1814686839
 11
62.0128566432
 21
24.7814686839
  0
LINE
  8
LS-12V-60-W10-2835_PLATE2
 62
7
  6
BYLAYER
 10
62.0128566432
 20
24.7814686839
 11
62.0128566432
 21
25.9814686839
  0
LINE
  8
LS-12V-60-W10-2835_PADS2
 62
7
  6
BYLAYER
 10
62.0128566432
 20
25.9814686839
 11
62.0128566432
 21
27.5814686839
  0
LINE
  8
LS-12V-60-W10-2835_PLATE2
 62
7
  6
BYLAYER
 10
62.0128566432
 20
27.5814686839
 11
62.0128566432
 21
30.3814686839
  0
LINE
  8
LS-12V-60-W10-2835_PLATE2
 62
7
  6
BYLAYER
 10
12.0128566432
 20
40.0842088456
 11
12.0128566432
 21
39.7842088456
  0
LINE
  8
LED_CHIP_2835_BASE2
 62
7
  6
BYLAYER
 10
18.9461899765
 20
40.2842088456
 11
18.9514271608
 21
40.0842088456
  0
LINE
  8
LED_CHIP_2835_BASE2
 62
7
  6
BYLAYER
 10
19.3330970157
 20
40.7842088456
 11
19.3357156079
 21
40.6842088456
  0
LINE
  8
LED_CHIP_2835_ELETRODE_12
 62
7
  6
BYLAYER
 10
19.2961899765
 20
40.2842088456
 11
19.2961899765
 21
40.0842088456
  0
LINE
  8
LED_CHIP_2835_ELETRODE_12
 62
7
  6
BYLAYER
 10
19.7661899765
 20
40.2842088456
 11
19.7661899765
 21
40.0842088456
  0
LINE
  8
LED_CHIP_2835_ELETRODE_12
 62
7
  6
BYLAYER
 10
19.8661899765
 20
40.0842088456
 11
19.8661899765
 21
40.2842088456
  0
LINE
  8
LED_CHIP_2835_BASE2
 62
7
  6
BYLAYER
 10
18.9461899765
 20
40.2842088456
 11
18.9592829373
 21
40.7842088456
  0
LINE
  8
LED_CHIP_2835_BASE2
 62
7
  6
BYLAYER
 10
21.7461899765
 20
40.2842088456
 11
21.7330970157
 21
40.7842088456
  0
LINE
  8
LED_CHIP_2835_ELETRODE_12
 62
7
  6
BYLAYER
 10
20.8261899765
 20
40.2842088456
 11
20.8261899765
 21
40.0842088456
  0
LINE
  8
LED_CHIP_2835_ELETRODE_12
 62
7
  6
BYLAYER
 10
20.9261899765
 20
40.2842088456
 11
20.9261899765
 21
40.0842088456
  0
LINE
  8
LED_CHIP_2835_ELETRODE_12
 62
7
  6
BYLAYER
 10
21.3961899765
 20
40.2842088456
 11
21.3961899765
 21
40.0842088456
  0
LINE
  8
0
 62
7
  6
BYLAYER
 10
21.5611899765
 20
41.6904902626
 11
21.5611899765
 21
41.6901838707
  0
LINE
  8
LED_CHIP_2835_BASE2
 62
7
  6
BYLAYER
 10
21.7409527922
 20
40.0842088456
 11
21.7461899765
 21
40.2842088456
  0
LINE
  8
LED_CHIP_2835_BASE2
 62
7
  6
BYLAYER
 10
35.6128566432
 20
40.2842088456
 11
35.6180938275
 21
40.0842088456
  0
LINE
  8
LED_CHIP_2835_BASE2
 62
7
  6
BYLAYER
 10
35.9997636824
 20
40.7842088456
 11
36.0023822746
 21
40.6842088456
  0
LINE
  8
LED_CHIP_2835_ELETRODE_12
 62
7
  6
BYLAYER
 10
35.9628566432
 20
40.2842088456
 11
35.9628566432
 21
40.0842088456
  0
LINE
  8
LED_CHIP_2835_ELETRODE_12
 62
7
  6
BYLAYER
 10
36.4328566432
 20
40.2842088456
 11
36.4328566432
 21
40.0842088456
  0
LINE
  8
LED_CHIP_2835_ELETRODE_12
 62
7
  6
BYLAYER
 10
36.5328566432
 20
40.0842088456
 11
36.5328566432
 21
40.2842088456
  0
LINE
  8
LED_CHIP_2835_BASE2
 62
7
  6
BYLAYER
 10
35.6128566432
 20
40.2842088456
 11
35.625949604
 21
40.7842088456
  0
LINE
  8
LS-12V-60-W10-2835_PLATE2
 62
7
  6
BYLAYER
 10
12.0128566432
 20
39.7842088456
 11
62.0128566432
 21
39.7842088456
  0
LINE
  8
LS-12V-60-W10-2835_PLATE2
 62
7
  6
BYLAYER
 10
12.0128566432
 20
40.0842088456
 11
62.0128566432
 21
40.0842088456
  0
LINE
  8
LED_CHIP_2835_BASE2
 62
7
  6
BYLAYER
 10
18.9461899765
 20
40.2842088456
 11
19.7661899765
 21
40.2842088456
  0
LINE
  8
LED_CHIP_2835_ELETRODE_12
 62
7
  6
BYLAYER
 10
19.2961899765
 20
40.2842088456
 11
21.3961899765
 21
40.2842088456
  0
LINE
  8
LED_CHIP_2835_BASE2
 62
7
  6
BYLAYER
 10
20.9261899765
 20
40.2842088456
 11
21.7461899765
 21
40.2842088456
  0
LINE
  8
LED_CHIP_2835_BASE2
 62
7
  6
BYLAYER
 10
35.6128566432
 20
40.2842088456
 11
36.4328566432
 21
40.2842088456
  0
LINE
  8
LED_CHIP_2835_ELETRODE_12
 62
7
  6
BYLAYER
 10
35.9628566432
 20
40.2842088456
 11
38.0628566432
 21
40.2842088456
  0
LINE
  8
LED_CHIP_2835_BASE2
 62
7
  6
BYLAYER
 10
37.5928566432
 20
40.2842088456
 11
38.4128566432
 21
40.2842088456
  0
LINE
  8
LED_CHIP_2835_BASE2
 62
7
  6
BYLAYER
 10
52.2795233098
 20
40.2842088456
 11
53.0995233098
 21
40.2842088456
  0
LINE
  8
LED_CHIP_2835_ELETRODE_12
 62
7
  6
BYLAYER
 10
52.6295233098
 20
40.2842088456
 11
54.7295233098
 21
40.2842088456
  0
LINE
  8
LED_CHIP_2835_BASE2
 62
7
  6
BYLAYER
 10
54.2595233098
 20
40.2842088456
 11
55.0795233098
 21
40.2842088456
  0
LINE
  8
RES_1206_012
 62
7
  6
BYLAYER
 10
49.1461899765
 20
40.6342088456
 11
47.5461899765
 21
40.6342088456
  0
LINE
  8
RES_1206_012
 62
7
  6
BYLAYER
 10
43.1461899765
 20
40.6342088456
 11
41.5461899765
 21
40.6342088456
  0
LINE
  8
LED_CHIP_2835_BASE2
 62
7
  6
BYLAYER
 10
18.9566643451
 20
40.6842088456
 11
19.3357156079
 21
40.6842088456
  0
LINE
  8
LED_CHIP_2835_BASE2
 62
7
  6
BYLAYER
 10
35.6233310118
 20
40.6842088456
 11
36.0023822746
 21
40.6842088456
  0
LINE
  8
LED_CHIP_2835_BASE2
 62
7
  6
BYLAYER
 10
52.2899976785
 20
40.6842088456
 11
52.6690489412
 21
40.6842088456
  0
LINE
  8
LED_CHIP_2835_BASE2
 62
7
  6
BYLAYER
 10
18.9592829373
 20
40.7842088456
 11
21.7330970157
 21
40.7842088456
  0
LINE
  8
LED_CHIP_2835_BASE2
 62
7
  6
BYLAYER
 10
35.625949604
 20
40.7842088456
 11
38.3997636824
 21
40.7842088456
  0
LINE
  8
LED_CHIP_2835_BASE2
 62
7
  6
BYLAYER
 10
52.2926162706
 20
40.7842088456
 11
55.0664303491
 21
40.7842088456
  0
LINE
  8
LED_CHIP_2835_BASE2
 62
7
  6
BYLAYER
 10
38.4128566432
 20
40.2842088456
 11
38.3997636824
 21
40.7842088456
  0
LINE
  8
LED_CHIP_2835_ELETRODE_12
 62
7
  6
BYLAYER
 10
37.4928566432
 20
40.2842088456
 11
37.4928566432
 21
40.0842088456
  0
LINE
  8
LED_CHIP_2835_ELETRODE_12
 62
7
  6
BYLAYER
 10
37.5928566432
 20
40.2842088456
 11
37.5928566432
 21
40.0842088456
  0
LINE
  8
LED_CHIP_2835_ELETRODE_12
 62
7
  6
BYLAYER
 10
38.0628566432
 20
40.2842088456
 11
38.0628566432
 21
40.0842088456
  0
LINE
  8
0
 62
7
  6
BYLAYER
 10
38.2278566432
 20
41.6904902626
 11
38.2278566432
 21
41.6901838707
  0
LINE
  8
LED_CHIP_2835_BASE2
 62
7
  6
BYLAYER
 10
38.4076194589
 20
40.0842088456
 11
38.4128566432
 21
40.2842088456
  0
LINE
  8
RES_1206_012
 62
7
  6
BYLAYER
 10
41.5461899765
 20
40.6342088456
 11
41.5461899765
 21
40.0842088456
  0
LINE
  8
RES_1206_012
 62
7
  6
BYLAYER
 10
43.1461899765
 20
40.6342088456
 11
43.1461899765
 21
40.0842088456
  0
LINE
  8
RES_1206_012
 62
7
  6
BYLAYER
 10
47.5461899765
 20
40.6342088456
 11
47.5461899765
 21
40.0842088456
  0
LINE
  8
RES_1206_012
 62
7
  6
BYLAYER
 10
49.1461899765
 20
40.6342088456
 11
49.1461899765
 21
40.0842088456
  0
LINE
  8
LED_CHIP_2835_BASE2
 62
7
  6
BYLAYER
 10
52.2795233098
 20
40.2842088456
 11
52.2847604942
 21
40.0842088456
  0
LINE
  8
LED_CHIP_2835_BASE2
 62
7
  6
BYLAYER
 10
52.6664303491
 20
40.7842088456
 11
52.6690489412
 21
40.6842088456
  0
LINE
  8
LED_CHIP_2835_ELETRODE_12
 62
7
  6
BYLAYER
 10
52.6295233098
 20
40.2842088456
 11
52.6295233098
 21
40.0842088456
  0
LINE
  8
LED_CHIP_2835_ELETRODE_12
 62
7
  6
BYLAYER
 10
53.0995233098
 20
40.2842088456
 11
53.0995233098
 21
40.0842088456
  0
LINE
  8
LED_CHIP_2835_ELETRODE_12
 62
7
  6
BYLAYER
 10
53.1995233098
 20
40.0842088456
 11
53.1995233098
 21
40.2842088456
  0
LINE
  8
LED_CHIP_2835_BASE2
 62
7
  6
BYLAYER
 10
52.2795233098
 20
40.2842088456
 11
52.2926162706
 21
40.7842088456
  0
LINE
  8
LED_CHIP_2835_BASE2
 62
7
  6
BYLAYER
 10
55.0795233098
 20
40.2842088456
 11
55.0664303491
 21
40.7842088456
  0
LINE
  8
LED_CHIP_2835_ELETRODE_12
 62
7
  6
BYLAYER
 10
54.1595233098
 20
40.2842088456
 11
54.1595233098
 21
40.0842088456
  0
LINE
  8
LED_CHIP_2835_ELETRODE_12
 62
7
  6
BYLAYER
 10
54.2595233098
 20
40.2842088456
 11
54.2595233098
 21
40.0842088456
  0
LINE
  8
LED_CHIP_2835_ELETRODE_12
 62
7
  6
BYLAYER
 10
54.7295233098
 20
40.2842088456
 11
54.7295233098
 21
40.0842088456
  0
LINE
  8
0
 62
7
  6
BYLAYER
 10
54.8945233098
 20
41.6904902626
 11
54.8945233098
 21
41.6901838707
  0
LINE
  8
LED_CHIP_2835_BASE2
 62
7
  6
BYLAYER
 10
55.0742861255
 20
40.0842088456
 11
55.0795233098
 21
40.2842088456
  0
LINE
  8
LS-12V-60-W10-2835_PLATE2
 62
7
  6
BYLAYER
 10
62.0128566432
 20
40.0842088456
 11
62.0128566432
 21
39.7842088456
  0
CIRCLE
  8
LS-12V-60-W10-28359
 62
3
  6
BYLAYER
 10
67.6734076416
 20
12.4441027419
 40
0.625
  0
CIRCLE
  8
LS-12V-60-W10-28359
 62
3
  6
BYLAYER
 10
67.6734076416
 20
12.4441027419
 40
0.3125
  0
ARC
  8
LS-12V-60-W10-2835_PADS2
 62
7
  6
BYLAYER
 10
19.6461899765
 20
23.8314686839
 40
0.3
 50
200.5889751424
 51
270.0
  0
ARC
  8
LS-12V-60-W10-2835_PADS2
 62
7
  6
BYLAYER
 10
21.0461899765
 20
23.8314686839
 40
0.3
 50
270.0
 51
339.4110248576
  0
ARC
  8
LS-12V-60-W10-2835_PLATE2
 62
7
  6
BYLAYER
 10
19.6461899765
 20
23.8314686839
 40
0.3
 50
200.5773351807
 51
270.0
  0
ARC
  8
LS-12V-60-W10-2835_PLATE2
 62
7
  6
BYLAYER
 10
21.0461899765
 20
23.8314686839
 40
0.3
 50
270.0
 51
342.0
  0
ARC
  8
LS-12V-60-W10-2835_PADS2
 62
7
  6
BYLAYER
 10
13.2128566432
 20
23.9814686839
 40
0.8
 50
270.0
 51
90.0
  0
ARC
  8
LS-12V-60-W10-2835_PLATE2
 62
7
  6
BYLAYER
 10
13.2128566432
 20
23.9814686839
 40
0.8
 50
270.0
 51
90.0
  0
ARC
  8
LED_CHIP_2835_BASE2
 62
7
  6
BYLAYER
 10
19.2961899765
 20
24.1082543982
 40
0.2
 50
180.0
 51
270.0
  0
ARC
  8
LED_CHIP_2835_BASE2
 62
7
  6
BYLAYER
 10
21.3961899765
 20
24.1082543982
 40
0.2
 50
270.0
 51
360.0
  0
ARC
  8
LED_CHIP_2835_SLICONE2
 62
7
  6
BYLAYER
 10
21.3961899765
 20
24.1082543982
 40
0.1860316922
 50
270.0
 51
360.0
  0
ARC
  8
LED_CHIP_2835_SLICONE2
 62
7
  6
BYLAYER
 10
19.2961899765
 20
24.1082543982
 40
0.1860316922
 50
180.0
 51
270.0
  0
ARC
  8
LS-12V-60-W10-2835_PADS2
 62
7
  6
BYLAYER
 10
36.3128566432
 20
23.8314686839
 40
0.3
 50
200.5889751424
 51
270.0
  0
ARC
  8
LS-12V-60-W10-2835_PLATE2
 62
7
  6
BYLAYER
 10
36.3128566432
 20
23.8314686839
 40
0.3
 50
200.5773351807
 51
270.0
  0
ARC
  8
LED_CHIP_2835_BASE2
 62
7
  6
BYLAYER
 10
35.9628566432
 20
24.1082543982
 40
0.2
 50
180.0
 51
270.0
  0
ARC
  8
LED_CHIP_2835_SLICONE2
 62
7
  6
BYLAYER
 10
35.9628566432
 20
24.1082543982
 40
0.1860316922
 50
180.0
 51
270.0
  0
ARC
  8
LS-12V-60-W10-2835_PADS2
 62
7
  6
BYLAYER
 10
13.2128566432
 20
26.7814686839
 40
0.8
 50
270.0
 51
90.0
  0
ARC
  8
LS-12V-60-W10-2835_PLATE2
 62
7
  6
BYLAYER
 10
13.2128566432
 20
26.7814686839
 40
0.8
 50
270.0
 51
90.0
  0
ARC
  8
LED_CHIP_2835_BASE2
 62
7
  6
BYLAYER
 10
19.2961899765
 20
26.6546829696
 40
0.2
 50
90.0
 51
180.0
  0
ARC
  8
LED_CHIP_2835_BASE2
 62
7
  6
BYLAYER
 10
21.3961899765
 20
26.6546829696
 40
0.2
 50
0.0
 51
90.0
  0
ARC
  8
LED_CHIP_2835_SLICONE2
 62
7
  6
BYLAYER
 10
19.2961899765
 20
26.6546829696
 40
0.1860316922
 50
90.0
 51
180.0
  0
ARC
  8
LED_CHIP_2835_SLICONE2
 62
7
  6
BYLAYER
 10
21.3961899765
 20
26.6546829696
 40
0.1860316922
 50
0.0
 51
90.0
  0
ARC
  8
LS-12V-60-W10-2835_PADS2
 62
7
  6
BYLAYER
 10
19.6461899765
 20
26.9314686839
 40
0.3
 50
90.0
 51
159.4110248576
  0
ARC
  8
LS-12V-60-W10-2835_PADS2
 62
7
  6
BYLAYER
 10
21.0461899765
 20
26.9314686839
 40
0.3
 50
20.5889751424
 51
90.0
  0
ARC
  8
LS-12V-60-W10-2835_PLATE2
 62
7
  6
BYLAYER
 10
21.0461899765
 20
26.9314686839
 40
0.3
 50
20.5773351807
 51
90.0
  0
ARC
  8
LS-12V-60-W10-2835_PLATE2
 62
7
  6
BYLAYER
 10
19.6461899765
 20
26.9314686839
 40
0.3
 50
90.0
 51
162.0
  0
ARC
  8
LED_CHIP_2835_BASE2
 62
7
  6
BYLAYER
 10
35.9628566432
 20
26.6546829696
 40
0.2
 50
90.0
 51
180.0
  0
ARC
  8
LED_CHIP_2835_SLICONE2
 62
7
  6
BYLAYER
 10
35.9628566432
 20
26.6546829696
 40
0.1860316922
 50
90.0
 51
180.0
  0
ARC
  8
LS-12V-60-W10-2835_PADS2
 62
7
  6
BYLAYER
 10
36.3128566432
 20
26.9314686839
 40
0.3
 50
90.0
 51
159.4110248576
  0
ARC
  8
LS-12V-60-W10-2835_PLATE2
 62
7
  6
BYLAYER
 10
36.3128566432
 20
26.9314686839
 40
0.3
 50
90.0
 51
162.0
  0
ARC
  8
LS-12V-60-W10-2835_PADS2
 62
7
  6
BYLAYER
 10
37.7128566432
 20
23.8314686839
 40
0.3
 50
270.0
 51
339.4110248576
  0
ARC
  8
LS-12V-60-W10-2835_PLATE2
 62
7
  6
BYLAYER
 10
37.7128566432
 20
23.8314686839
 40
0.3
 50
270.0
 51
342.0
  0
ARC
  8
LS-12V-60-W10-2835_PADS2
 62
7
  6
BYLAYER
 10
48.3461899765
 20
23.9814686839
 40
0.75
 50
195.5895415087
 51
344.4104584913
  0
ARC
  8
LS-12V-60-W10-2835_PADS2
 62
7
  6
BYLAYER
 10
42.3461899765
 20
23.9814686839
 40
0.75
 50
195.5895415087
 51
344.4104584913
  0
ARC
  8
LS-12V-60-W10-2835_PLATE2
 62
7
  6
BYLAYER
 10
48.3461899765
 20
23.9814686839
 40
0.75
 50
195.5171917597
 51
344.4828082403
  0
ARC
  8
LS-12V-60-W10-2835_PLATE2
 62
7
  6
BYLAYER
 10
42.3461899765
 20
23.9814686839
 40
0.75
 50
195.5171917597
 51
344.4828082403
  0
ARC
  8
LED_CHIP_2835_BASE2
 62
7
  6
BYLAYER
 10
38.0628566432
 20
24.1082543982
 40
0.2
 50
270.0
 51
360.0
  0
ARC
  8
LED_CHIP_2835_SLICONE2
 62
7
  6
BYLAYER
 10
38.0628566432
 20
24.1082543982
 40
0.1860316922
 50
270.0
 51
360.0
  0
ARC
  8
LS-12V-60-W10-2835_PADS2
 62
7
  6
BYLAYER
 10
52.9795233098
 20
23.8314686839
 40
0.3
 50
200.5889751424
 51
270.0
  0
ARC
  8
LS-12V-60-W10-2835_PADS2
 62
7
  6
BYLAYER
 10
54.3795233098
 20
23.8314686839
 40
0.3
 50
270.0
 51
339.4110248576
  0
ARC
  8
LS-12V-60-W10-2835_PLATE2
 62
7
  6
BYLAYER
 10
54.3795233098
 20
23.8314686839
 40
0.3
 50
270.0
 51
342.0
  0
ARC
  8
LS-12V-60-W10-2835_PLATE2
 62
7
  6
BYLAYER
 10
52.9795233098
 20
23.8314686839
 40
0.3
 50
200.5773351807
 51
270.0
  0
ARC
  8
LS-12V-60-W10-2835_PADS2
 62
7
  6
BYLAYER
 10
60.8128566432
 20
23.9814686839
 40
0.8
 50
90.0
 51
270.0
  0
ARC
  8
LS-12V-60-W10-2835_PLATE2
 62
7
  6
BYLAYER
 10
60.8128566432
 20
23.9814686839
 40
0.8
 50
90.0
 51
270.0
  0
ARC
  8
LED_CHIP_2835_BASE2
 62
7
  6
BYLAYER
 10
52.6295233098
 20
24.1082543982
 40
0.2
 50
180.0
 51
270.0
  0
ARC
  8
LED_CHIP_2835_BASE2
 62
7
  6
BYLAYER
 10
54.7295233098
 20
24.1082543982
 40
0.2
 50
270.0
 51
360.0
  0
ARC
  8
LED_CHIP_2835_SLICONE2
 62
7
  6
BYLAYER
 10
54.7295233098
 20
24.1082543982
 40
0.1860316922
 50
270.0
 51
360.0
  0
ARC
  8
LED_CHIP_2835_SLICONE2
 62
7
  6
BYLAYER
 10
52.6295233098
 20
24.1082543982
 40
0.1860316922
 50
180.0
 51
270.0
  0
ARC
  8
LS-12V-60-W10-2835_PADS2
 62
7
  6
BYLAYER
 10
42.3461899765
 20
26.7814686839
 40
0.75
 50
15.5727254237
 51
164.4272745763
  0
ARC
  8
LS-12V-60-W10-2835_PADS2
 62
7
  6
BYLAYER
 10
48.3461899765
 20
26.7814686839
 40
0.75
 50
15.5727254237
 51
164.4272745763
  0
ARC
  8
LS-12V-60-W10-2835_PLATE2
 62
7
  6
BYLAYER
 10
42.3461899765
 20
26.7814686839
 40
0.75
 50
15.5003897636
 51
164.4996102364
  0
ARC
  8
LS-12V-60-W10-2835_PLATE2
 62
7
  6
BYLAYER
 10
48.3461899765
 20
26.7814686839
 40
0.75
 50
15.5003897636
 51
164.4996102364
  0
ARC
  8
LED_CHIP_2835_BASE2
 62
7
  6
BYLAYER
 10
38.0628566432
 20
26.6546829696
 40
0.2
 50
0.0
 51
90.0
  0
ARC
  8
LED_CHIP_2835_SLICONE2
 62
7
  6
BYLAYER
 10
38.0628566432
 20
26.6546829696
 40
0.1860316922
 50
0.0
 51
90.0
  0
ARC
  8
LS-12V-60-W10-2835_PADS2
 62
7
  6
BYLAYER
 10
37.7128566432
 20
26.9314686839
 40
0.3
 50
20.5889751424
 51
90.0
  0
ARC
  8
LS-12V-60-W10-2835_PLATE2
 62
7
  6
BYLAYER
 10
37.7128566432
 20
26.9314686839
 40
0.3
 50
20.5773351807
 51
90.0
  0
ARC
  8
LS-12V-60-W10-2835_PADS2
 62
7
  6
BYLAYER
 10
60.8128566432
 20
26.7814686839
 40
0.8
 50
90.0
 51
270.0
  0
ARC
  8
LS-12V-60-W10-2835_PLATE2
 62
7
  6
BYLAYER
 10
60.8128566432
 20
26.7814686839
 40
0.8
 50
90.0
 51
270.0
  0
ARC
  8
LED_CHIP_2835_BASE2
 62
7
  6
BYLAYER
 10
52.6295233098
 20
26.6546829696
 40
0.2
 50
90.0
 51
180.0
  0
ARC
  8
LED_CHIP_2835_BASE2
 62
7
  6
BYLAYER
 10
54.7295233098
 20
26.6546829696
 40
0.2
 50
0.0
 51
90.0
  0
ARC
  8
LED_CHIP_2835_SLICONE2
 62
7
  6
BYLAYER
 10
52.6295233098
 20
26.6546829696
 40
0.1860316922
 50
90.0
 51
180.0
  0
ARC
  8
LED_CHIP_2835_SLICONE2
 62
7
  6
BYLAYER
 10
54.7295233098
 20
26.6546829696
 40
0.1860316922
 50
0.0
 51
90.0
  0
ARC
  8
LS-12V-60-W10-2835_PADS2
 62
7
  6
BYLAYER
 10
52.9795233098
 20
26.9314686839
 40
0.3
 50
90.0
 51
159.4110248576
  0
ARC
  8
LS-12V-60-W10-2835_PADS2
 62
7
  6
BYLAYER
 10
54.3795233098
 20
26.9314686839
 40
0.3
 50
20.5889751424
 51
90.0
  0
ARC
  8
LS-12V-60-W10-2835_PLATE2
 62
7
  6
BYLAYER
 10
52.9795233098
 20
26.9314686839
 40
0.3
 50
90.0
 51
162.0
  0
ARC
  8
LS-12V-60-W10-2835_PLATE2
 62
7
  6
BYLAYER
 10
54.3795233098
 20
26.9314686839
 40
0.3
 50
20.5773351807
 51
90.0
  0
ENDSEC
  0
EOF
