999
DXF file: E:\PTCStandard\library\LED\LedStrip_V1\LS-12V-72-W6S-2835\ls-12v-72-w6s-2835.dxf
999
Pro/ENGINEER 2011310 by Parametric Technology Corporation
  0
SECTION
  2
HEADER
  9
$EXTMAX
 10
148.5
 20
105.0
 30
0.0
  9
$EXTMIN
 10
0.0
 20
0.0
 30
0.0
  9
$LIMMIN
 10
0.0
 20
0.0
  9
$LIMMAX
 10
148.5
 20
105.0
  9
$VIEWCTR
 10
74.25
 20
52.5
  9
$VIEWSIZE
 40
105.0
  9
$CLAYER
  8
0
  9
$LTSCALE
 40
8.1675
  9
$CELTYPE
  6
BYLAYER
  9
$DIMSCALE
 40
1.0
  9
$DIMASZ
 40
1.75
  9
$DIMEXO
 40
0.928125
  9
$DIMDLI
 40
5.643
  9
$DIMEXE
 40
2.673
  9
$DIMCEN
 40
1.3365
  9
$DIMLFAC
 40
1.0
  9
$DIMBLK
  1
_FILLED
  9
$DIMTXT
 40
3.5
  9
$PDMODE
 70
3
  9
$PDSIZE
 40
8.0
  9
$TILEMODE
 70
1
  0
ENDSEC
  0
SECTION
  2
TABLES
  0
TABLE
  2
LTYPE
 70
6
  0
LTYPE
  2
BYBLOCK
 70
0
  3

 72
65
 73
0
 40
0.0
  0
LTYPE
  2
BYLAYER
 70
0
  3

 72
65
 73
0
 40
0.0
  0
LTYPE
  2
CONTINUOUS
 70
64
  3
Solid line
 72
65
 73
0
 40
0.0
  0
LTYPE
  2
CENTER
 70
64
  3
____ _ ____ _ ____ _ ____ _ ____ _ ____ _ ____
 72
65
 73
4
 40
0.6
 49
0.375
 49
-0.075
 49
0.075
 49
-0.075
  0
LTYPE
  2
HIDDEN
 70
64
  3
- - - - - - - - - - - - - - - - - - - -
 72
65
 73
2
 40
0.2
 49
0.1
 49
-0.1
  0
LTYPE
  2
PHANTOM
 70
64
  3
_____ _ _ _____ _ _ _____ _ _ _____
 72
65
 73
6
 40
0.8
 49
0.45
 49
-0.05
 49
0.1
 49
-0.05
 49
0.1
 49
-0.05
  0
LTYPE
  2
DOT
 70
64
  3
. . . . . . . . . . . . . . . . . . . .
 72
65
 73
2
 40
0.2
 49
0.1
 49
-0.1
  0
LTYPE
  2
DASHED
 70
64
  3
- - - - - - - - - - - - - - - - - - - -
 72
65
 73
2
 40
0.2
 49
0.1
 49
-0.1
  0
ENDTAB
  0
TABLE
  2
LAYER
 70
36
  0
LAYER
  2
0
 70
0
 62
7
  6
CONTINUOUS
  0
LAYER
  2
DEFAULT_1
 70
0
 62
7
  6
CENTER
  0
LAYER
  2
DEFAULT_2
 70
0
 62
8
  6
HIDDEN
  0
LAYER
  2
DEFAULT_3
 70
0
 62
7
  6
PHANTOM
  0
LAYER
  2
01_ALL_DTM_PLN
 70
0
 62
7
  6
CONTINUOUS
  0
LAYER
  2
01__ASM_ALL_DTM_PLN
 70
0
 62
7
  6
CONTINUOUS
  0
LAYER
  2
01__ASM_DEF_DTM_PLN
 70
0
 62
7
  6
CONTINUOUS
  0
LAYER
  2
01___PRT_ALL_DTM_PLN
 70
0
 62
7
  6
CONTINUOUS
  0
LAYER
  2
01___PRT_DEF_DTM_PLN
 70
0
 62
7
  6
CONTINUOUS
  0
LAYER
  2
02_ALL_AXES
 70
0
 62
7
  6
CONTINUOUS
  0
LAYER
  2
02__ASM_ALL_AXES
 70
0
 62
7
  6
CONTINUOUS
  0
LAYER
  2
02___PRT_ALL_AXES
 70
0
 62
7
  6
CONTINUOUS
  0
LAYER
  2
03_ALL_CURVES
 70
0
 62
7
  6
CONTINUOUS
  0
LAYER
  2
03__ASM_ALL_CURVES
 70
0
 62
7
  6
CONTINUOUS
  0
LAYER
  2
03___PRT_ALL_CURVES
 70
0
 62
7
  6
CONTINUOUS
  0
LAYER
  2
04_ALL_DTM_PNT
 70
0
 62
7
  6
CONTINUOUS
  0
LAYER
  2
04__ASM_ALL_DTM_PNT
 70
0
 62
7
  6
CONTINUOUS
  0
LAYER
  2
04___PRT_ALL_DTM_PNT
 70
0
 62
7
  6
CONTINUOUS
  0
LAYER
  2
05_ALL_DTM_CSYS
 70
0
 62
7
  6
CONTINUOUS
  0
LAYER
  2
05__ASM_ALL_DTM_CSYS
 70
0
 62
7
  6
CONTINUOUS
  0
LAYER
  2
05__ASM_DEF_DTM_CSYS
 70
0
 62
7
  6
CONTINUOUS
  0
LAYER
  2
05___PRT_ALL_DTM_CSYS
 70
0
 62
7
  6
CONTINUOUS
  0
LAYER
  2
05___PRT_DEF_DTM_CSYS
 70
0
 62
7
  6
CONTINUOUS
  0
LAYER
  2
06_ALL_SURFS
 70
0
 62
7
  6
CONTINUOUS
  0
LAYER
  2
06__ASM_ALL_SURFS
 70
0
 62
7
  6
CONTINUOUS
  0
LAYER
  2
06___PRT_ALL_SURFS
 70
0
 62
7
  6
CONTINUOUS
  0
LAYER
  2
07__ASM_ALL_SKELETONS
 70
0
 62
7
  6
CONTINUOUS
  0
LAYER
  2
INTF_YELLOW
 70
0
 62
7
  6
CONTINUOUS
  0
LAYER
  2
LAYER_01
 70
0
 62
7
  6
CONTINUOUS
  0
LAYER
  2
LAYER_02
 70
0
 62
7
  6
CONTINUOUS
  0
LAYER
  2
LAYER_02_208
 70
0
 62
7
  6
CONTINUOUS
  0
LAYER
  2
LAYER_04
 70
0
 62
7
  6
CONTINUOUS
  0
LAYER
  2
LAYER_04_210
 70
0
 62
7
  6
CONTINUOUS
  0
LAYER
  2
LS-12V-72-W6S-28359
 70
0
 62
7
  6
CONTINUOUS
  0
LAYER
  2
LS-12V-72-W6S-28354
 70
0
 62
7
  6
CONTINUOUS
  0
LAYER
  2
LS-12V-72-W6S-2835_PLATE2
 70
0
 62
7
  6
CONTINUOUS
  0
LAYER
  2
LS-12V-72-W6S-2835_PADS2
 70
0
 62
7
  6
CONTINUOUS
  0
LAYER
  2
LED_CHIP_2835_BASE2
 70
0
 62
7
  6
CONTINUOUS
  0
LAYER
  2
LED_CHIP_2835_SLICONE2
 70
0
 62
7
  6
CONTINUOUS
  0
LAYER
  2
LED_CHIP_2835_ELETRODE_22
 70
0
 62
7
  6
CONTINUOUS
  0
LAYER
  2
LED_CHIP_2835_ELETRODE_12
 70
0
 62
7
  6
CONTINUOUS
  0
LAYER
  2
RES_1206_032
 70
0
 62
7
  6
CONTINUOUS
  0
LAYER
  2
RES_1206_012
 70
0
 62
7
  6
CONTINUOUS
  0
ENDTAB
  0
TABLE
  2
STYLE
 70
1
  0
STYLE
  2
STANDARD
 70
0
 40
0.0
 41
0.85
 50
0.0
 71
0
 42
0.2
  3
SIMHEI.SHX
  4

  0
STYLE
  2
TEXTSTYLE_1
 70
0
 40
0.0
 41
0.8
 50
0.0
 71
0
 42
0.2
  3
gdt
  4

  0
STYLE
  2
TEXTSTYLE_2
 70
0
 40
0.0
 41
1.0
 50
0.0
 71
0
 42
0.2
  3
TXT.TTF
  4

  0
STYLE
  2
TEXTSTYLE_3
 70
0
 40
0.0
 41
1.0
 50
0.0
 71
0
 42
0.2
  3
TXT.TTF
  4

  0
STYLE
  2
TEXTSTYLE_4
 70
0
 40
0.0
 41
1.0
 50
0.0
 71
0
 42
0.2
  3
TXT.TTF
  4

  0
STYLE
  2
TEXTSTYLE_5
 70
0
 40
0.0
 41
1.0
 50
0.0
 71
0
 42
0.2
  3
TXT.TTF
  4

  0
STYLE
  2
TEXTSTYLE_6
 70
0
 40
0.0
 41
0.75
 50
0.0
 71
0
 42
0.2
  3
SIMHEI.SHX
  4

  0
STYLE
  2
TEXTSTYLE_7
 70
0
 40
0.0
 41
0.55
 50
0.0
 71
0
 42
0.2
  3
gdt
  4

  0
ENDTAB
  0
ENDSEC
  0
SECTION
  2
BLOCKS
  0
BLOCK
  8
LS-12V-72-W6S-28359
 62
7
  6
BYLAYER
  2
SYMBOL_179_BL0
 70
64
 10
93.757833805
 20
8.8995111363
  0
LINE
  8
LS-12V-72-W6S-28359
 62
7
  6
BYLAYER
 10
86.0640497746
 20
10.8101734636
 11
86.0640497746
 21
10.2753031708
  0
LINE
  8
LS-12V-72-W6S-28359
 62
7
  6
BYLAYER
 10
86.5663207492
 20
10.2753031708
 11
86.5663207492
 21
10.8101734636
  0
LINE
  8
LS-12V-72-W6S-28359
 62
7
  6
BYLAYER
 10
86.9264655965
 20
10.8101734636
 11
86.9264655965
 21
10.2753031708
  0
LINE
  8
LS-12V-72-W6S-28359
 62
7
  6
BYLAYER
 10
87.4218372446
 20
10.2753031708
 11
87.4218372446
 21
10.8101734636
  0
LINE
  8
LS-12V-72-W6S-28359
 62
7
  6
BYLAYER
 10
87.793710947
 20
10.8101734636
 11
87.793710947
 21
10.2753031708
  0
LINE
  8
LS-12V-72-W6S-28359
 62
7
  6
BYLAYER
 10
88.295291989
 20
10.2753031708
 11
88.295291989
 21
10.8101734636
  0
LINE
  8
LS-12V-72-W6S-28359
 62
7
  6
BYLAYER
 10
91.6492147278
 20
6.8417212815
 11
92.3571996537
 21
6.8417212815
  0
LINE
  8
LS-12V-72-W6S-28359
 62
7
  6
BYLAYER
 10
92.3571996537
 20
6.8417212815
 11
92.3571996537
 21
6.7271405561
  0
LINE
  8
LS-12V-72-W6S-28359
 62
7
  6
BYLAYER
 10
92.3571996537
 20
6.7271405561
 11
91.8299058301
 21
6.7271405561
  0
LINE
  8
LS-12V-72-W6S-28359
 62
7
  6
BYLAYER
 10
91.8299058301
 20
6.7271405561
 11
91.8299058301
 21
6.3292069412
  0
LINE
  8
LS-12V-72-W6S-28359
 62
7
  6
BYLAYER
 10
91.8299058301
 20
6.3292069412
 11
92.3571996537
 21
6.3292069412
  0
LINE
  8
LS-12V-72-W6S-28359
 62
7
  6
BYLAYER
 10
92.3571996537
 20
6.3292069412
 11
92.3571996537
 21
6.2162154076
  0
LINE
  8
LS-12V-72-W6S-28359
 62
7
  6
BYLAYER
 10
92.3571996537
 20
6.2162154076
 11
91.8299058301
 21
6.2162154076
  0
LINE
  8
LS-12V-72-W6S-28359
 62
7
  6
BYLAYER
 10
91.8299058301
 20
6.2162154076
 11
91.8299058301
 21
5.7437486995
  0
LINE
  8
LS-12V-72-W6S-28359
 62
7
  6
BYLAYER
 10
91.8299058301
 20
5.7437486995
 11
92.3571996537
 21
5.7437486995
  0
LINE
  8
LS-12V-72-W6S-28359
 62
7
  6
BYLAYER
 10
92.3571996537
 20
5.7437486995
 11
92.3571996537
 21
5.6355247411
  0
LINE
  8
LS-12V-72-W6S-28359
 62
7
  6
BYLAYER
 10
92.3571996537
 20
5.6355247411
 11
91.6492147278
 21
5.6355247411
  0
LINE
  8
LS-12V-72-W6S-28359
 62
7
  6
BYLAYER
 10
91.6492147278
 20
5.6355247411
 11
91.6492147278
 21
6.8417212815
  0
LINE
  8
LS-12V-72-W6S-28359
 62
7
  6
BYLAYER
 10
97.5370907124
 20
6.2313127293
 11
97.5370907124
 21
6.2276575882
  0
ARC
  8
LS-12V-72-W6S-28359
 62
7
  6
BYLAYER
 10
98.2683314001
 20
6.2162296283
 40
0.7313299813
 50
179.1046442283
 51
200.8922339549
  0
ARC
  8
LS-12V-72-W6S-28359
 62
7
  6
BYLAYER
 10
98.1522965468
 20
6.1949859784
 40
0.6157249835
 50
202.8963230435
 51
250.0700820149
  0
ARC
  8
LS-12V-72-W6S-28359
 62
7
  6
BYLAYER
 10
98.1823520864
 20
6.2861906133
 40
0.7117180837
 50
250.2981849841
 51
270.5013647429
  0
LINE
  8
LS-12V-72-W6S-28359
 62
7
  6
BYLAYER
 10
98.1885798715
 20
5.5744997778
 11
98.2609675558
 21
5.5744997778
  0
LINE
  8
LS-12V-72-W6S-28359
 62
7
  6
BYLAYER
 10
98.2609675558
 20
5.5744997778
 11
98.3107092577
 21
5.5762478887
  0
LINE
  8
LS-12V-72-W6S-28359
 62
7
  6
BYLAYER
 10
98.3107092577
 20
5.5762478887
 11
98.3604509596
 21
5.5816511407
  0
LINE
  8
LS-12V-72-W6S-28359
 62
7
  6
BYLAYER
 10
98.3604509596
 20
5.5816511407
 11
98.4111461765
 21
5.5907095337
  0
LINE
  8
LS-12V-72-W6S-28359
 62
7
  6
BYLAYER
 10
98.4111461765
 20
5.5907095337
 11
98.4635895043
 21
5.6016749568
  0
LINE
  8
LS-12V-72-W6S-28359
 62
7
  6
BYLAYER
 10
98.4635895043
 20
5.6016749568
 11
98.4753495233
 21
5.6051711786
  0
LINE
  8
LS-12V-72-W6S-28359
 62
7
  6
BYLAYER
 10
98.4753495233
 20
5.6051711786
 11
98.4889371128
 21
5.6088263197
  0
LINE
  8
LS-12V-72-W6S-28359
 62
7
  6
BYLAYER
 10
98.4889371128
 20
5.6088263197
 11
98.5649799381
 21
5.6340944686
  0
LINE
  8
LS-12V-72-W6S-28359
 62
7
  6
BYLAYER
 10
98.5649799381
 20
5.6340944686
 11
98.590248087
 21
5.6450598916
  0
LINE
  8
LS-12V-72-W6S-28359
 62
7
  6
BYLAYER
 10
98.590248087
 20
5.6450598916
 11
98.6155956955
 21
5.6577734257
  0
LINE
  8
LS-12V-72-W6S-28359
 62
7
  6
BYLAYER
 10
98.6155956955
 20
5.6577734257
 11
98.6391157334
 21
5.6722350706
  0
LINE
  8
LS-12V-72-W6S-28359
 62
7
  6
BYLAYER
 10
98.6391157334
 20
5.6722350706
 11
98.6644633419
 21
5.6884448265
  0
LINE
  8
LS-12V-72-W6S-28359
 62
7
  6
BYLAYER
 10
98.6644633419
 20
5.6884448265
 11
98.6789249868
 21
5.8006417642
  0
LINE
  8
LS-12V-72-W6S-28359
 62
7
  6
BYLAYER
 10
98.6789249868
 20
5.8006417642
 11
98.6065373025
 21
5.7988936533
  0
ARC
  8
LS-12V-72-W6S-28359
 62
7
  6
BYLAYER
 10
98.2622753158
 20
6.2079154259
 40
0.5346168029
 50
300.1226166813
 51
310.0863647934
  0
ARC
  8
LS-12V-72-W6S-28359
 62
7
  6
BYLAYER
 10
98.2287701169
 20
6.2602675977
 40
0.5967197911
 50
290.9261388757
 51
300.3825747552
  0
ARC
  8
LS-12V-72-W6S-28359
 62
7
  6
BYLAYER
 10
98.2306925608
 20
6.2259090909
 40
0.564038182
 50
282.3564329875
 51
291.9903650689
  0
ARC
  8
LS-12V-72-W6S-28359
 62
7
  6
BYLAYER
 10
98.2092492309
 20
6.3162182261
 40
0.6568460458
 50
274.3560974414
 51
282.4978406016
  0
ARC
  8
LS-12V-72-W6S-28359
 62
7
  6
BYLAYER
 10
98.2904683236
 20
6.1549432712
 40
0.494666667
 50
247.3413638217
 51
266.3689009432
  0
ARC
  8
LS-12V-72-W6S-28359
 62
7
  6
BYLAYER
 10
98.3177117566
 20
6.2111881013
 40
0.5570764052
 50
229.1447438403
 51
246.9841673426
  0
ARC
  8
LS-12V-72-W6S-28359
 62
7
  6
BYLAYER
 10
98.2075741717
 20
6.0828840713
 40
0.3879857516
 50
197.9155448152
 51
229.0523049251
  0
ARC
  8
LS-12V-72-W6S-28359
 62
7
  6
BYLAYER
 10
98.6675835418
 20
6.2324465414
 40
0.8716977164
 50
180.1894261358
 51
197.9684336648
  0
LINE
  8
LS-12V-72-W6S-28359
 62
7
  6
BYLAYER
 10
97.7958905894
 20
6.2295646183
 11
97.7958905894
 21
6.2511776262
  0
ARC
  8
LS-12V-72-W6S-28359
 62
7
  6
BYLAYER
 10
98.4346219273
 20
6.2619840308
 40
0.6388227457
 50
160.1190365148
 51
180.9692687312
  0
ARC
  8
LS-12V-72-W6S-28359
 62
7
  6
BYLAYER
 10
98.2877253433
 20
6.3093098693
 40
0.484617705
 50
135.1351303734
 51
159.4747438859
  0
ARC
  8
LS-12V-72-W6S-28359
 62
7
  6
BYLAYER
 10
98.2898088445
 20
6.3124027943
 40
0.4839264247
 50
95.5684905603
 51
135.5687020976
  0
LINE
  8
LS-12V-72-W6S-28359
 62
7
  6
BYLAYER
 10
98.2428507699
 20
6.7940455289
 11
98.2519091628
 21
6.7940455289
  0
LINE
  8
LS-12V-72-W6S-28359
 62
7
  6
BYLAYER
 10
98.2519091628
 20
6.7940455289
 11
98.2717740598
 21
6.791343903
  0
LINE
  8
LS-12V-72-W6S-28359
 62
7
  6
BYLAYER
 10
98.2717740598
 20
6.791343903
 11
98.2935459868
 21
6.788642277
  0
LINE
  8
LS-12V-72-W6S-28359
 62
7
  6
BYLAYER
 10
98.2935459868
 20
6.788642277
 11
98.3668077266
 21
6.7697308951
  0
ARC
  8
LS-12V-72-W6S-28359
 62
7
  6
BYLAYER
 10
98.2085187664
 20
6.2768241859
 40
0.5176991586
 50
63.4314101522
 51
72.196424709
  0
ARC
  8
LS-12V-72-W6S-28359
 62
7
  6
BYLAYER
 10
98.2055768045
 20
6.2716220283
 40
0.5236679027
 50
54.371244206
 51
63.3980911646
  0
LINE
  8
LS-12V-72-W6S-28359
 62
7
  6
BYLAYER
 10
98.5106295802
 20
6.6972637512
 11
98.5776140126
 21
6.6438669083
  0
LINE
  8
LS-12V-72-W6S-28359
 62
7
  6
BYLAYER
 10
98.5776140126
 20
6.6438669083
 11
98.6644633419
 21
6.6438669083
  0
LINE
  8
LS-12V-72-W6S-28359
 62
7
  6
BYLAYER
 10
98.6644633419
 20
6.6438669083
 11
98.7079277363
 21
6.783239025
  0
ARC
  8
LS-12V-72-W6S-28359
 62
7
  6
BYLAYER
 10
98.485957119
 20
6.4267788172
 40
0.4199224151
 50
58.0891485033
 51
67.5454670452
  0
ARC
  8
LS-12V-72-W6S-28359
 62
7
  6
BYLAYER
 10
98.4047296592
 20
6.1987311119
 40
0.6618144663
 50
68.5873384549
 51
81.3423857767
  0
LINE
  8
LS-12V-72-W6S-28359
 62
7
  6
BYLAYER
 10
98.5043522728
 20
6.853004543
 11
98.4292629625
 21
6.8611094209
  0
LINE
  8
LS-12V-72-W6S-28359
 62
7
  6
BYLAYER
 10
98.4292629625
 20
6.8611094209
 11
98.3513925666
 21
6.8665126729
  0
ARC
  8
LS-12V-72-W6S-28359
 62
7
  6
BYLAYER
 10
98.3423271007
 20
7.0537628005
 40
0.1874694454
 50
261.6918862418
 51
272.7717347723
  0
ARC
  8
LS-12V-72-W6S-28359
 62
7
  6
BYLAYER
 10
98.3061470563
 20
7.0406966719
 40
0.1726753862
 50
260.9563938617
 51
273.01803113
  0
LINE
  8
LS-12V-72-W6S-28359
 62
7
  6
BYLAYER
 10
98.2790048822
 20
6.8701678139
 11
98.2066171979
 21
6.8682607838
  0
ARC
  8
LS-12V-72-W6S-28359
 62
7
  6
BYLAYER
 10
98.1953962259
 20
6.1082030128
 40
0.7601405959
 50
89.1541858308
 51
110.4524797124
  0
ARC
  8
LS-12V-72-W6S-28359
 62
7
  6
BYLAYER
 10
98.1386949805
 20
6.2803328299
 40
0.5790908606
 50
111.1471074556
 51
136.8410387207
  0
ARC
  8
LS-12V-72-W6S-28359
 62
7
  6
BYLAYER
 10
98.2135923133
 20
6.2082646946
 40
0.6830230801
 50
136.728707552
 51
157.5391803557
  0
ARC
  8
LS-12V-72-W6S-28359
 62
7
  6
BYLAYER
 10
98.1619036907
 20
6.2356227207
 40
0.6248278434
 50
158.0467340334
 51
180.395222912
  0
LINE
  8
LS-12V-72-W6S-28359
 62
7
  6
BYLAYER
 10
99.3919158667
 20
6.2313127293
 11
99.3919158667
 21
6.2276575882
  0
ARC
  8
LS-12V-72-W6S-28359
 62
7
  6
BYLAYER
 10
100.1231565544
 20
6.2162296283
 40
0.7313299813
 50
179.1046442283
 51
200.8922339548
  0
ARC
  8
LS-12V-72-W6S-28359
 62
7
  6
BYLAYER
 10
100.0071217011
 20
6.1949859784
 40
0.6157249835
 50
202.8963230435
 51
250.0700820149
  0
ARC
  8
LS-12V-72-W6S-28359
 62
7
  6
BYLAYER
 10
100.0371772407
 20
6.2861906133
 40
0.7117180837
 50
250.2981849841
 51
270.5013647429
  0
LINE
  8
LS-12V-72-W6S-28359
 62
7
  6
BYLAYER
 10
100.0434050258
 20
5.5744997778
 11
100.1157927101
 21
5.5744997778
  0
LINE
  8
LS-12V-72-W6S-28359
 62
7
  6
BYLAYER
 10
100.1157927101
 20
5.5744997778
 11
100.165534412
 21
5.5762478887
  0
LINE
  8
LS-12V-72-W6S-28359
 62
7
  6
BYLAYER
 10
100.165534412
 20
5.5762478887
 11
100.2152761139
 21
5.5816511407
  0
LINE
  8
LS-12V-72-W6S-28359
 62
7
  6
BYLAYER
 10
100.2152761139
 20
5.5816511407
 11
100.2659713308
 21
5.5907095337
  0
LINE
  8
LS-12V-72-W6S-28359
 62
7
  6
BYLAYER
 10
100.2659713308
 20
5.5907095337
 11
100.3184146586
 21
5.6016749568
  0
LINE
  8
LS-12V-72-W6S-28359
 62
7
  6
BYLAYER
 10
100.3184146586
 20
5.6016749568
 11
100.3301746776
 21
5.6051711786
  0
LINE
  8
LS-12V-72-W6S-28359
 62
7
  6
BYLAYER
 10
100.3301746776
 20
5.6051711786
 11
100.3437622671
 21
5.6088263197
  0
LINE
  8
LS-12V-72-W6S-28359
 62
7
  6
BYLAYER
 10
100.3437622671
 20
5.6088263197
 11
100.4198050925
 21
5.6340944686
  0
LINE
  8
LS-12V-72-W6S-28359
 62
7
  6
BYLAYER
 10
100.4198050925
 20
5.6340944686
 11
100.4450732413
 21
5.6450598916
  0
LINE
  8
LS-12V-72-W6S-28359
 62
7
  6
BYLAYER
 10
100.4450732413
 20
5.6450598916
 11
100.4704208498
 21
5.6577734257
  0
LINE
  8
LS-12V-72-W6S-28359
 62
7
  6
BYLAYER
 10
100.4704208498
 20
5.6577734257
 11
100.4939408877
 21
5.6722350706
  0
LINE
  8
LS-12V-72-W6S-28359
 62
7
  6
BYLAYER
 10
100.4939408877
 20
5.6722350706
 11
100.5192884962
 21
5.6884448265
  0
LINE
  8
LS-12V-72-W6S-28359
 62
7
  6
BYLAYER
 10
100.5192884962
 20
5.6884448265
 11
100.5337501411
 21
5.8006417642
  0
LINE
  8
LS-12V-72-W6S-28359
 62
7
  6
BYLAYER
 10
100.5337501411
 20
5.8006417642
 11
100.4613624568
 21
5.7988936533
  0
ARC
  8
LS-12V-72-W6S-28359
 62
7
  6
BYLAYER
 10
100.1171004701
 20
6.2079154259
 40
0.5346168029
 50
300.1226166814
 51
310.0863647934
  0
ARC
  8
LS-12V-72-W6S-28359
 62
7
  6
BYLAYER
 10
100.0835952712
 20
6.2602675977
 40
0.5967197911
 50
290.9261388756
 51
300.3825747552
  0
ARC
  8
LS-12V-72-W6S-28359
 62
7
  6
BYLAYER
 10
100.0855177151
 20
6.2259090909
 40
0.5640381819
 50
282.3564329875
 51
291.990365069
  0
ARC
  8
LS-12V-72-W6S-28359
 62
7
  6
BYLAYER
 10
100.0640743852
 20
6.316218226
 40
0.6568460458
 50
274.3560974413
 51
282.4978406017
  0
ARC
  8
LS-12V-72-W6S-28359
 62
7
  6
BYLAYER
 10
100.1452934779
 20
6.1549432712
 40
0.494666667
 50
247.3413638216
 51
266.3689009432
  0
ARC
  8
LS-12V-72-W6S-28359
 62
7
  6
BYLAYER
 10
100.1725369109
 20
6.2111881013
 40
0.5570764052
 50
229.1447438403
 51
246.9841673426
  0
ARC
  8
LS-12V-72-W6S-28359
 62
7
  6
BYLAYER
 10
100.062399326
 20
6.0828840713
 40
0.3879857516
 50
197.9155448152
 51
229.0523049251
  0
ARC
  8
LS-12V-72-W6S-28359
 62
7
  6
BYLAYER
 10
100.5224086961
 20
6.2324465414
 40
0.8716977164
 50
180.1894261358
 51
197.9684336648
  0
LINE
  8
LS-12V-72-W6S-28359
 62
7
  6
BYLAYER
 10
99.6507157437
 20
6.2295646183
 11
99.6507157437
 21
6.2511776262
  0
ARC
  8
LS-12V-72-W6S-28359
 62
7
  6
BYLAYER
 10
100.2894470816
 20
6.2619840308
 40
0.6388227457
 50
160.1190365147
 51
180.9692687312
  0
ARC
  8
LS-12V-72-W6S-28359
 62
7
  6
BYLAYER
 10
100.1425504976
 20
6.3093098693
 40
0.484617705
 50
135.1351303734
 51
159.4747438859
  0
ARC
  8
LS-12V-72-W6S-28359
 62
7
  6
BYLAYER
 10
100.1446339988
 20
6.3124027943
 40
0.4839264247
 50
95.5684905603
 51
135.5687020976
  0
LINE
  8
LS-12V-72-W6S-28359
 62
7
  6
BYLAYER
 10
100.0976759242
 20
6.7940455289
 11
100.1067343171
 21
6.7940455289
  0
LINE
  8
LS-12V-72-W6S-28359
 62
7
  6
BYLAYER
 10
100.1067343171
 20
6.7940455289
 11
100.1265992141
 21
6.791343903
  0
LINE
  8
LS-12V-72-W6S-28359
 62
7
  6
BYLAYER
 10
100.1265992141
 20
6.791343903
 11
100.1483711411
 21
6.788642277
  0
LINE
  8
LS-12V-72-W6S-28359
 62
7
  6
BYLAYER
 10
100.1483711411
 20
6.788642277
 11
100.2216328809
 21
6.7697308951
  0
ARC
  8
LS-12V-72-W6S-28359
 62
7
  6
BYLAYER
 10
100.0629241968
 20
6.2757983148
 40
0.5188042409
 50
54.3289773468
 51
72.1869316133
  0
LINE
  8
LS-12V-72-W6S-28359
 62
7
  6
BYLAYER
 10
100.3654547345
 20
6.6972637512
 11
100.4324391669
 21
6.6438669083
  0
LINE
  8
LS-12V-72-W6S-28359
 62
7
  6
BYLAYER
 10
100.4324391669
 20
6.6438669083
 11
100.5192884962
 21
6.6438669083
  0
LINE
  8
LS-12V-72-W6S-28359
 62
7
  6
BYLAYER
 10
100.5192884962
 20
6.6438669083
 11
100.5627528906
 21
6.783239025
  0
ARC
  8
LS-12V-72-W6S-28359
 62
7
  6
BYLAYER
 10
100.3407822733
 20
6.4267788172
 40
0.4199224151
 50
58.0891485032
 51
67.5454670453
  0
ARC
  8
LS-12V-72-W6S-28359
 62
7
  6
BYLAYER
 10
100.2595548135
 20
6.1987311119
 40
0.6618144663
 50
68.5873384549
 51
81.3423857767
  0
LINE
  8
LS-12V-72-W6S-28359
 62
7
  6
BYLAYER
 10
100.3591774271
 20
6.853004543
 11
100.2840881168
 21
6.8611094209
  0
LINE
  8
LS-12V-72-W6S-28359
 62
7
  6
BYLAYER
 10
100.2840881168
 20
6.8611094209
 11
100.2062177209
 21
6.8665126729
  0
ARC
  8
LS-12V-72-W6S-28359
 62
7
  6
BYLAYER
 10
100.197152255
 20
7.0537628005
 40
0.1874694454
 50
261.6918862419
 51
272.7717347724
  0
ARC
  8
LS-12V-72-W6S-28359
 62
7
  6
BYLAYER
 10
100.1609722106
 20
7.0406966719
 40
0.1726753862
 50
260.9563938617
 51
273.01803113
  0
LINE
  8
LS-12V-72-W6S-28359
 62
7
  6
BYLAYER
 10
100.1338300365
 20
6.8701678139
 11
100.0614423522
 21
6.8682607838
  0
ARC
  8
LS-12V-72-W6S-28359
 62
7
  6
BYLAYER
 10
100.0502213802
 20
6.1082030128
 40
0.7601405958
 50
89.1541858308
 51
110.4524797125
  0
ARC
  8
LS-12V-72-W6S-28359
 62
7
  6
BYLAYER
 10
99.9935201348
 20
6.2803328299
 40
0.5790908606
 50
111.1471074555
 51
136.8410387208
  0
ARC
  8
LS-12V-72-W6S-28359
 62
7
  6
BYLAYER
 10
100.0684174676
 20
6.2082646946
 40
0.6830230801
 50
136.728707552
 51
157.5391803557
  0
ARC
  8
LS-12V-72-W6S-28359
 62
7
  6
BYLAYER
 10
100.016728845
 20
6.2356227207
 40
0.6248278433
 50
158.0467340334
 51
180.3952229121
  0
LINE
  8
LS-12V-72-W6S-28359
 62
7
  6
BYLAYER
 10
92.7744419484
 20
6.8558650881
 11
93.5492523875
 21
6.0035815511
  0
LINE
  8
LS-12V-72-W6S-28359
 62
7
  6
BYLAYER
 10
93.5492523875
 20
6.0035815511
 11
93.5492523875
 21
6.8558650881
  0
LINE
  8
LS-12V-72-W6S-28359
 62
7
  6
BYLAYER
 10
93.5492523875
 20
6.8558650881
 11
93.7305791665
 21
6.8558650881
  0
LINE
  8
LS-12V-72-W6S-28359
 62
7
  6
BYLAYER
 10
93.7305791665
 20
6.8558650881
 11
93.7305791665
 21
5.6355247411
  0
LINE
  8
LS-12V-72-W6S-28359
 62
7
  6
BYLAYER
 10
93.7305791665
 20
5.6355247411
 11
93.5914454285
 21
5.6355247411
  0
LINE
  8
LS-12V-72-W6S-28359
 62
7
  6
BYLAYER
 10
93.5914454285
 20
5.6355247411
 11
92.8008225315
 21
6.5140299421
  0
LINE
  8
LS-12V-72-W6S-28359
 62
7
  6
BYLAYER
 10
92.8008225315
 20
6.5140299421
 11
92.8008225315
 21
5.6355247411
  0
LINE
  8
LS-12V-72-W6S-28359
 62
7
  6
BYLAYER
 10
92.8008225315
 20
5.6355247411
 11
92.6194162929
 21
5.6355247411
  0
LINE
  8
LS-12V-72-W6S-28359
 62
7
  6
BYLAYER
 10
92.6194162929
 20
5.6355247411
 11
92.6194162929
 21
6.8558650881
  0
LINE
  8
LS-12V-72-W6S-28359
 62
7
  6
BYLAYER
 10
92.6194162929
 20
6.8558650881
 11
92.7744419484
 21
6.8558650881
  0
LINE
  8
LS-12V-72-W6S-28359
 62
7
  6
BYLAYER
 10
99.1686306717
 20
10.0407260673
 11
99.1686306717
 21
10.3456763019
  0
LINE
  8
LS-12V-72-W6S-28359
 62
7
  6
BYLAYER
 10
99.1686306717
 20
10.3456763019
 11
97.3858446847
 21
10.3456763019
  0
LINE
  8
LS-12V-72-W6S-28359
 62
7
  6
BYLAYER
 10
97.3858446847
 20
10.3456763019
 11
97.3858446847
 21
10.0407260673
  0
LINE
  8
LS-12V-72-W6S-28359
 62
7
  6
BYLAYER
 10
97.3858446847
 20
10.0407260673
 11
99.1686306717
 21
10.0407260673
  0
LINE
  8
LS-12V-72-W6S-28359
 62
7
  6
BYLAYER
 10
97.3858446847
 20
10.5849104509
 11
99.1686306717
 21
10.5849104509
  0
LINE
  8
LS-12V-72-W6S-28359
 62
7
  6
BYLAYER
 10
99.1686306717
 20
10.5849104509
 11
99.1686306717
 21
10.8993472596
  0
LINE
  8
LS-12V-72-W6S-28359
 62
7
  6
BYLAYER
 10
99.1686306717
 20
10.8993472596
 11
97.3858446847
 21
10.8993472596
  0
LINE
  8
LS-12V-72-W6S-28359
 62
7
  6
BYLAYER
 10
97.3858446847
 20
10.8993472596
 11
97.3858446847
 21
10.5849104509
  0
LINE
  8
LS-12V-72-W6S-28359
 62
7
  6
BYLAYER
 10
99.1686306717
 20
11.4249034615
 11
97.3858446847
 21
11.4249034615
  0
LINE
  8
LS-12V-72-W6S-28359
 62
7
  6
BYLAYER
 10
97.3858446847
 20
11.4249034615
 11
97.3858446847
 21
11.1387538917
  0
LINE
  8
LS-12V-72-W6S-28359
 62
7
  6
BYLAYER
 10
97.3858446847
 20
11.1387538917
 11
99.1686306717
 21
11.1387538917
  0
LINE
  8
LS-12V-72-W6S-28359
 62
7
  6
BYLAYER
 10
99.1686306717
 20
11.1387538917
 11
99.1686306717
 21
11.4249034615
  0
LINE
  8
LS-12V-72-W6S-28359
 62
7
  6
BYLAYER
 10
84.4647453204
 20
9.8297150402
 11
84.4647453204
 21
7.9479666471
  0
LINE
  8
LS-12V-72-W6S-28359
 62
7
  6
BYLAYER
 10
84.8952362349
 20
7.9479666471
 11
84.4647453204
 21
7.9479666471
  0
LINE
  8
LS-12V-72-W6S-28359
 62
7
  6
BYLAYER
 10
84.8952362349
 20
7.949564016
 11
84.8952362349
 21
10.3314406949
  0
LINE
  8
LS-12V-72-W6S-28359
 62
7
  6
BYLAYER
 10
84.8952362349
 20
10.3314406949
 11
85.4437078013
 21
10.9097717448
  0
LINE
  8
LS-12V-72-W6S-28359
 62
7
  6
BYLAYER
 10
85.0167665134
 20
11.1575031094
 11
85.4437078013
 21
10.9097717448
  0
LINE
  8
LS-12V-72-W6S-28359
 62
7
  6
BYLAYER
 10
83.7709450083
 20
9.7232231318
 11
84.0172635309
 21
9.3696796997
  0
LINE
  8
LS-12V-72-W6S-28359
 62
7
  6
BYLAYER
 10
83.8246430716
 20
10.9550655146
 11
84.1400672195
 21
10.6488463515
  0
LINE
  8
LS-12V-72-W6S-28359
 62
7
  6
BYLAYER
 10
84.1400672195
 20
10.6488463515
 11
85.3881189556
 21
11.894015751
  0
LINE
  8
LS-12V-72-W6S-28359
 62
7
  6
BYLAYER
 10
85.3881189556
 20
11.894015751
 11
84.8383223825
 21
12.0856115265
  0
LINE
  8
LS-12V-72-W6S-28359
 62
7
  6
BYLAYER
 10
85.4974443046
 20
11.713925984
 11
85.4974443046
 21
11.3952410683
  0
LINE
  8
LS-12V-72-W6S-28359
 62
7
  6
BYLAYER
 10
85.5003877022
 20
11.3953027162
 11
86.812300073
 21
11.4227800352
  0
LINE
  8
LS-12V-72-W6S-28359
 62
7
  6
BYLAYER
 10
85.4974443046
 20
11.713925984
 11
86.855003694
 21
11.6907594415
  0
LINE
  8
LS-12V-72-W6S-28359
 62
7
  6
BYLAYER
 10
86.8562880657
 20
12.1595551289
 11
86.855003694
 21
11.6907594415
  0
LINE
  8
LS-12V-72-W6S-28359
 62
7
  6
BYLAYER
 10
87.4256278371
 20
12.0816454759
 11
87.2667480041
 21
11.6918255576
  0
LINE
  8
LS-12V-72-W6S-28359
 62
7
  6
BYLAYER
 10
87.4256278371
 20
12.0816454759
 11
86.8562880657
 21
12.1595551289
  0
LINE
  8
LS-12V-72-W6S-28359
 62
7
  6
BYLAYER
 10
87.2667480041
 20
11.6918255576
 11
88.9329854343
 21
11.7045525471
  0
LINE
  8
LS-12V-72-W6S-28359
 62
7
  6
BYLAYER
 10
88.9329854343
 20
11.3985312409
 11
87.1842399989
 21
11.4212542656
  0
LINE
  8
LS-12V-72-W6S-28359
 62
7
  6
BYLAYER
 10
87.1842399989
 20
11.4212542656
 11
87.1035784605
 21
11.0688529668
  0
LINE
  8
LS-12V-72-W6S-28359
 62
7
  6
BYLAYER
 10
86.8130527002
 20
11.4260774366
 11
86.7318700366
 21
11.0704009156
  0
LINE
  8
LS-12V-72-W6S-28359
 62
7
  6
BYLAYER
 10
86.7318700366
 20
11.0704009156
 11
85.6745147171
 21
11.0983301234
  0
LINE
  8
LS-12V-72-W6S-28359
 62
7
  6
BYLAYER
 10
85.6745147171
 20
11.0983301234
 11
85.6698506052
 21
9.9934265564
  0
LINE
  8
LS-12V-72-W6S-28359
 62
7
  6
BYLAYER
 10
85.6698506052
 20
9.9934265564
 11
88.696326082
 21
9.9929709678
  0
LINE
  8
LS-12V-72-W6S-28359
 62
7
  6
BYLAYER
 10
88.7013567817
 20
11.0967064716
 11
88.696326082
 21
9.9929709678
  0
LINE
  8
LS-12V-72-W6S-28359
 62
7
  6
BYLAYER
 10
88.7013567817
 20
11.0967064716
 11
87.1035784605
 21
11.0688529668
  0
LINE
  8
LS-12V-72-W6S-28359
 62
7
  6
BYLAYER
 10
86.9264655965
 20
10.8101734636
 11
87.4218372446
 21
10.8101734636
  0
LINE
  8
LS-12V-72-W6S-28359
 62
7
  6
BYLAYER
 10
87.7999203409
 20
10.8101734636
 11
88.295291989
 21
10.8101734636
  0
LINE
  8
LS-12V-72-W6S-28359
 62
7
  6
BYLAYER
 10
86.0709491011
 20
10.8101734636
 11
86.5663207492
 21
10.8101734636
  0
LINE
  8
LS-12V-72-W6S-28359
 62
7
  6
BYLAYER
 10
86.0709491011
 20
10.2753031708
 11
86.5663207492
 21
10.2753031708
  0
LINE
  8
LS-12V-72-W6S-28359
 62
7
  6
BYLAYER
 10
86.9264655965
 20
10.2753031708
 11
87.4218372446
 21
10.2753031708
  0
LINE
  8
LS-12V-72-W6S-28359
 62
7
  6
BYLAYER
 10
87.7999203409
 20
10.2753031708
 11
88.295291989
 21
10.2753031708
  0
LINE
  8
LS-12V-72-W6S-28359
 62
7
  6
BYLAYER
 10
85.3564765005
 20
9.4389889421
 11
88.8507209367
 21
9.4448012019
  0
LINE
  8
LS-12V-72-W6S-28359
 62
7
  6
BYLAYER
 10
88.8507209367
 20
9.4519681178
 11
88.8507209367
 21
9.7517306549
  0
LINE
  8
LS-12V-72-W6S-28359
 62
7
  6
BYLAYER
 10
88.8507209367
 20
9.7517306549
 11
85.3564765005
 21
9.7553655928
  0
LINE
  8
LS-12V-72-W6S-28359
 62
7
  6
BYLAYER
 10
85.3564765005
 20
9.755085193
 11
85.3564765005
 21
9.4389889421
  0
LINE
  8
LS-12V-72-W6S-28359
 62
7
  6
BYLAYER
 10
85.5593649225
 20
9.1168712047
 11
85.0855118004
 21
8.2349378863
  0
LINE
  8
LS-12V-72-W6S-28359
 62
7
  6
BYLAYER
 10
85.0947940869
 20
8.23221861
 11
85.5642835574
 21
8.0946801269
  0
LINE
  8
LS-12V-72-W6S-28359
 62
7
  6
BYLAYER
 10
85.950817854
 20
9.0612802559
 11
85.5642835574
 21
8.0946801269
  0
LINE
  8
LS-12V-72-W6S-28359
 62
7
  6
BYLAYER
 10
85.950817854
 20
9.0612802559
 11
85.5593649225
 21
9.1168712047
  0
LINE
  8
LS-12V-72-W6S-28359
 62
7
  6
BYLAYER
 10
86.1647451564
 20
9.1755610968
 11
86.5663207492
 21
9.151650489
  0
LINE
  8
LS-12V-72-W6S-28359
 62
7
  6
BYLAYER
 10
86.566483431
 20
9.1516408026
 11
86.566483431
 21
8.4353399454
  0
LINE
  8
LS-12V-72-W6S-28359
 62
7
  6
BYLAYER
 10
86.1647451564
 20
9.1755610968
 11
86.1647451564
 21
8.1745547732
  0
LINE
  8
LS-12V-72-W6S-28359
 62
7
  6
BYLAYER
 10
86.1647451564
 20
8.1745547732
 11
86.8400328526
 21
8.0693666824
  0
LINE
  8
LS-12V-72-W6S-28359
 62
7
  6
BYLAYER
 10
86.8400328526
 20
8.0693666824
 11
87.566236682
 21
8.0775531979
  0
LINE
  8
LS-12V-72-W6S-28359
 62
7
  6
BYLAYER
 10
87.566236682
 20
8.0775531979
 11
88.1019542718
 21
8.2426812064
  0
LINE
  8
LS-12V-72-W6S-28359
 62
7
  6
BYLAYER
 10
88.1019542718
 20
8.2426812064
 11
88.3065612784
 21
8.5827712308
  0
LINE
  8
LS-12V-72-W6S-28359
 62
7
  6
BYLAYER
 10
88.3065612784
 20
8.5827712308
 11
87.8709836755
 21
8.7558624278
  0
LINE
  8
LS-12V-72-W6S-28359
 62
7
  6
BYLAYER
 10
87.8709836755
 20
8.7558624278
 11
87.8168239258
 21
8.5092421391
  0
LINE
  8
LS-12V-72-W6S-28359
 62
7
  6
BYLAYER
 10
87.8168239258
 20
8.5092421391
 11
87.6177518285
 21
8.3820516417
  0
LINE
  8
LS-12V-72-W6S-28359
 62
7
  6
BYLAYER
 10
87.6177518285
 20
8.3820516417
 11
87.1806717673
 21
8.3560943973
  0
LINE
  8
LS-12V-72-W6S-28359
 62
7
  6
BYLAYER
 10
87.1806717673
 20
8.3560943973
 11
86.739797955
 21
8.3726670995
  0
LINE
  8
LS-12V-72-W6S-28359
 62
7
  6
BYLAYER
 10
86.739797955
 20
8.3726670995
 11
86.566483431
 21
8.4353399454
  0
LINE
  8
LS-12V-72-W6S-28359
 62
7
  6
BYLAYER
 10
87.3387759088
 20
9.3731173245
 11
87.6425444712
 21
8.7894630637
  0
LINE
  8
LS-12V-72-W6S-28359
 62
7
  6
BYLAYER
 10
87.6425444712
 20
8.7894630637
 11
87.1804832705
 21
8.6569790849
  0
LINE
  8
LS-12V-72-W6S-28359
 62
7
  6
BYLAYER
 10
87.1804832705
 20
8.6569790849
 11
86.8971753844
 21
9.272094328
  0
LINE
  8
LS-12V-72-W6S-28359
 62
7
  6
BYLAYER
 10
86.8971753844
 20
9.272094328
 11
87.3387759088
 21
9.3731173245
  0
LINE
  8
LS-12V-72-W6S-28359
 62
7
  6
BYLAYER
 10
87.9652041394
 20
9.0669510467
 11
88.3266418803
 21
9.2731966163
  0
LINE
  8
LS-12V-72-W6S-28359
 62
7
  6
BYLAYER
 10
88.3266418803
 20
9.2731966163
 11
89.160970047
 21
8.5619142241
  0
LINE
  8
LS-12V-72-W6S-28359
 62
7
  6
BYLAYER
 10
89.160970047
 20
8.5619142241
 11
88.7215724847
 21
8.2924030701
  0
LINE
  8
LS-12V-72-W6S-28359
 62
7
  6
BYLAYER
 10
88.7215724847
 20
8.2924030701
 11
87.9652041394
 21
9.0669510467
  0
LINE
  8
LS-12V-72-W6S-28359
 62
7
  6
BYLAYER
 10
90.1822233814
 20
9.2097365027
 11
89.7675760323
 21
8.2430980452
  0
LINE
  8
LS-12V-72-W6S-28359
 62
7
  6
BYLAYER
 10
89.7675760323
 20
8.2430980452
 11
90.3293406584
 21
8.153954175
  0
LINE
  8
LS-12V-72-W6S-28359
 62
7
  6
BYLAYER
 10
90.3293406584
 20
8.153954175
 11
90.6733381797
 21
9.1150813278
  0
LINE
  8
LS-12V-72-W6S-28359
 62
7
  6
BYLAYER
 10
90.6751224496
 20
9.1200665679
 11
90.1822233814
 21
9.2097365027
  0
LINE
  8
LS-12V-72-W6S-28359
 62
7
  6
BYLAYER
 10
91.1491627536
 20
9.2949767809
 11
91.1543743157
 21
8.3160717081
  0
LINE
  8
LS-12V-72-W6S-28359
 62
7
  6
BYLAYER
 10
91.1543743157
 20
8.3160717081
 11
91.2595532155
 21
8.1308653845
  0
LINE
  8
LS-12V-72-W6S-28359
 62
7
  6
BYLAYER
 10
91.2595532155
 20
8.1308653845
 11
91.6439201035
 21
8.0292327892
  0
LINE
  8
LS-12V-72-W6S-28359
 62
7
  6
BYLAYER
 10
91.6439201035
 20
8.0292327892
 11
93.2518715575
 21
8.0342245669
  0
LINE
  8
LS-12V-72-W6S-28359
 62
7
  6
BYLAYER
 10
93.2518715575
 20
8.0342245669
 11
93.557767699
 21
8.102911429
  0
LINE
  8
LS-12V-72-W6S-28359
 62
7
  6
BYLAYER
 10
93.557767699
 20
8.102911429
 11
93.7927805962
 21
8.2921996419
  0
LINE
  8
LS-12V-72-W6S-28359
 62
7
  6
BYLAYER
 10
93.7927805962
 20
8.2921996419
 11
93.9989863205
 21
8.6973719533
  0
LINE
  8
LS-12V-72-W6S-28359
 62
7
  6
BYLAYER
 10
93.9989863205
 20
8.6973719533
 11
93.4501655477
 21
8.9040078153
  0
LINE
  8
LS-12V-72-W6S-28359
 62
7
  6
BYLAYER
 10
93.4424921231
 20
8.9068969273
 11
93.3820571216
 21
8.6156668411
  0
LINE
  8
LS-12V-72-W6S-28359
 62
7
  6
BYLAYER
 10
93.3820571216
 20
8.6156668411
 11
93.3153669706
 21
8.474699037
  0
LINE
  8
LS-12V-72-W6S-28359
 62
7
  6
BYLAYER
 10
93.3153669706
 20
8.474699037
 11
93.175197851
 21
8.3828503261
  0
LINE
  8
LS-12V-72-W6S-28359
 62
7
  6
BYLAYER
 10
93.175197851
 20
8.3828503261
 11
92.8325622251
 21
8.335727944
  0
LINE
  8
LS-12V-72-W6S-28359
 62
7
  6
BYLAYER
 10
92.8325622251
 20
8.335727944
 11
91.9472205205
 21
8.3373253129
  0
LINE
  8
LS-12V-72-W6S-28359
 62
7
  6
BYLAYER
 10
91.9472205205
 20
8.3373253129
 11
91.7287803255
 21
8.3778585483
  0
LINE
  8
LS-12V-72-W6S-28359
 62
7
  6
BYLAYER
 10
91.7287803255
 20
8.3778585483
 11
91.6533046457
 21
8.4689085748
  0
LINE
  8
LS-12V-72-W6S-28359
 62
7
  6
BYLAYER
 10
91.6533046457
 20
8.4689085748
 11
91.6373309568
 21
9.026989329
  0
LINE
  8
LS-12V-72-W6S-28359
 62
7
  6
BYLAYER
 10
91.6373309568
 20
9.026989329
 11
91.7364707523
 21
9.2445049998
  0
LINE
  8
LS-12V-72-W6S-28359
 62
7
  6
BYLAYER
 10
91.7364707523
 20
9.2445049998
 11
91.1491627536
 21
9.2949767809
  0
LINE
  8
LS-12V-72-W6S-28359
 62
7
  6
BYLAYER
 10
92.1345627926
 20
9.3375164952
 11
92.6384278862
 21
8.6952121075
  0
LINE
  8
LS-12V-72-W6S-28359
 62
7
  6
BYLAYER
 10
92.6384278862
 20
8.6952121075
 11
93.1080655631
 21
8.8777413902
  0
LINE
  8
LS-12V-72-W6S-28359
 62
7
  6
BYLAYER
 10
93.1080655631
 20
8.8777413902
 11
92.5890596121
 21
9.487660173
  0
LINE
  8
LS-12V-72-W6S-28359
 62
7
  6
BYLAYER
 10
92.5890596121
 20
9.487660173
 11
92.1345627926
 21
9.3375164952
  0
LINE
  8
LS-12V-72-W6S-28359
 62
7
  6
BYLAYER
 10
93.8640280264
 20
9.1542317708
 11
94.6614484204
 21
8.3596962259
  0
LINE
  8
LS-12V-72-W6S-28359
 62
7
  6
BYLAYER
 10
94.6614484204
 20
8.3596962259
 11
95.1356923242
 21
8.6414130975
  0
LINE
  8
LS-12V-72-W6S-28359
 62
7
  6
BYLAYER
 10
95.1205257302
 20
8.6324036291
 11
94.2333648481
 21
9.3775352234
  0
LINE
  8
LS-12V-72-W6S-28359
 62
7
  6
BYLAYER
 10
94.2333648481
 20
9.3775352234
 11
93.8640280264
 21
9.1542317708
  0
LINE
  8
LS-12V-72-W6S-28359
 62
7
  6
BYLAYER
 10
94.3144485102
 20
11.9383397982
 11
94.3149861611
 21
9.5597724412
  0
LINE
  8
LS-12V-72-W6S-28359
 62
7
  6
BYLAYER
 10
94.3149861611
 20
9.5597724412
 11
90.3690478625
 21
9.5618231078
  0
LINE
  8
LS-12V-72-W6S-28359
 62
7
  6
BYLAYER
 10
90.3690478625
 20
9.5618231078
 11
90.3836740309
 21
11.9317814806
  0
LINE
  8
LS-12V-72-W6S-28359
 62
7
  6
BYLAYER
 10
90.3836740309
 20
11.9317814806
 11
94.3144485102
 21
11.9383397982
  0
LINE
  8
LS-12V-72-W6S-28359
 62
7
  6
BYLAYER
 10
90.8749501955
 20
11.6125651443
 11
90.8749501955
 21
9.8764646004
  0
LINE
  8
LS-12V-72-W6S-28359
 62
7
  6
BYLAYER
 10
90.8749501955
 20
9.8764646004
 11
93.809233788
 21
9.8764646004
  0
LINE
  8
LS-12V-72-W6S-28359
 62
7
  6
BYLAYER
 10
93.809233788
 20
9.8764646004
 11
93.809233788
 21
11.6125651443
  0
LINE
  8
LS-12V-72-W6S-28359
 62
7
  6
BYLAYER
 10
93.809233788
 20
11.6125651443
 11
90.8749501955
 21
11.6125651443
  0
LINE
  8
LS-12V-72-W6S-28359
 62
7
  6
BYLAYER
 10
91.2879065132
 20
11.1409073774
 11
92.1063583957
 21
11.1367142841
  0
LINE
  8
LS-12V-72-W6S-28359
 62
7
  6
BYLAYER
 10
92.1281225468
 20
11.4633762211
 11
92.1053600402
 21
11.1283280974
  0
LINE
  8
LS-12V-72-W6S-28359
 62
7
  6
BYLAYER
 10
92.6233069012
 20
11.3936910035
 11
92.5450358258
 21
11.1385113241
  0
LINE
  8
LS-12V-72-W6S-28359
 62
7
  6
BYLAYER
 10
92.5729897813
 20
11.1155491463
 11
93.4397620726
 21
11.1423050752
  0
LINE
  8
LS-12V-72-W6S-28359
 62
7
  6
BYLAYER
 10
93.4547374059
 20
11.1003741419
 11
93.4547374059
 21
10.8573744003
  0
LINE
  8
LS-12V-72-W6S-28359
 62
7
  6
BYLAYER
 10
93.4363676637
 20
10.8304188003
 11
92.5106923948
 21
10.8615674936
  0
LINE
  8
LS-12V-72-W6S-28359
 62
7
  6
BYLAYER
 10
92.4555831682
 20
10.8220326137
 11
92.4152496039
 21
10.7221970584
  0
LINE
  8
LS-12V-72-W6S-28359
 62
7
  6
BYLAYER
 10
92.4428042171
 20
10.6862562585
 11
93.4778992547
 21
10.3220561527
  0
LINE
  8
LS-12V-72-W6S-28359
 62
7
  6
BYLAYER
 10
92.0294850181
 20
10.8615674936
 11
91.2831144065
 21
10.8320161692
  0
LINE
  8
LS-12V-72-W6S-28359
 62
7
  6
BYLAYER
 10
91.2467742644
 20
11.0921876264
 11
91.2467742644
 21
10.838804987
  0
LINE
  8
LS-12V-72-W6S-28359
 62
7
  6
BYLAYER
 10
92.0250922537
 20
10.7960753693
 11
91.9222616317
 21
10.6269539386
  0
LINE
  8
LS-12V-72-W6S-28359
 62
7
  6
BYLAYER
 10
91.9222616317
 20
10.6269539386
 11
91.6930391967
 21
10.4422581613
  0
LINE
  8
LS-12V-72-W6S-28359
 62
7
  6
BYLAYER
 10
91.6930391967
 20
10.4422581613
 11
91.3450124508
 21
10.3072804905
  0
LINE
  8
LS-12V-72-W6S-28359
 62
7
  6
BYLAYER
 10
91.3450124508
 20
10.3072804905
 11
91.1131942914
 21
10.2527702773
  0
LINE
  8
LS-12V-72-W6S-28359
 62
7
  6
BYLAYER
 10
91.0678689493
 20
10.2158311218
 11
91.2379887355
 21
10.0872429265
  0
LINE
  8
LS-12V-72-W6S-28359
 62
7
  6
BYLAYER
 10
91.2379887355
 20
10.0872429265
 11
91.3492055442
 21
9.965443549
  0
LINE
  8
LS-12V-72-W6S-28359
 62
7
  6
BYLAYER
 10
91.3749631174
 20
9.9566580202
 11
91.753140201
 21
10.1036159576
  0
LINE
  8
LS-12V-72-W6S-28359
 62
7
  6
BYLAYER
 10
91.753140201
 20
10.1036159576
 11
92.076208058
 21
10.297496606
  0
LINE
  8
LS-12V-72-W6S-28359
 62
7
  6
BYLAYER
 10
92.076208058
 20
10.297496606
 11
92.2507206087
 21
10.4678160634
  0
LINE
  8
LS-12V-72-W6S-28359
 62
7
  6
BYLAYER
 10
92.2962456219
 20
10.4498456635
 11
92.5059002881
 21
10.3635877437
  0
LINE
  8
LS-12V-72-W6S-28359
 62
7
  6
BYLAYER
 10
92.5059002881
 20
10.3635877437
 11
92.900849745
 21
10.1699067663
  0
LINE
  8
LS-12V-72-W6S-28359
 62
7
  6
BYLAYER
 10
92.900849745
 20
10.1699067663
 11
93.1967623309
 21
9.994196189
  0
LINE
  8
LS-12V-72-W6S-28359
 62
7
  6
BYLAYER
 10
93.2458814241
 20
10.0157606689
 11
93.5138400546
 21
10.2661482417
  0
LINE
  8
LS-12V-72-W6S-28359
 62
7
  6
BYLAYER
 10
95.9873657732
 20
11.7622059998
 11
96.9469686426
 21
11.7198173269
  0
LINE
  8
LS-12V-72-W6S-28359
 62
7
  6
BYLAYER
 10
96.9489818421
 20
11.4262288316
 11
95.9873657732
 21
11.3901447978
  0
LINE
  8
LS-12V-72-W6S-28359
 62
7
  6
BYLAYER
 10
95.9873657732
 20
11.7622059998
 11
95.9873657732
 21
11.3901447978
  0
LINE
  8
LS-12V-72-W6S-28359
 62
7
  6
BYLAYER
 10
97.3853733061
 20
11.7205526116
 11
99.1674919638
 21
11.7205526116
  0
LINE
  8
LS-12V-72-W6S-28359
 62
7
  6
BYLAYER
 10
99.1317701175
 20
12.1738798512
 11
99.1674919638
 21
11.7205526116
  0
LINE
  8
LS-12V-72-W6S-28359
 62
7
  6
BYLAYER
 10
99.5938253736
 20
11.8880606997
 11
99.5938253736
 21
11.7185119526
  0
LINE
  8
LS-12V-72-W6S-28359
 62
7
  6
BYLAYER
 10
99.5938253736
 20
11.7185119526
 11
100.6325144912
 21
11.7603175174
  0
LINE
  8
LS-12V-72-W6S-28359
 62
7
  6
BYLAYER
 10
100.6325144912
 20
11.7603175174
 11
100.6325144912
 21
11.387971883
  0
LINE
  8
LS-12V-72-W6S-28359
 62
7
  6
BYLAYER
 10
100.6325144912
 20
11.387971883
 11
99.5938253736
 21
11.4269784485
  0
LINE
  8
LS-12V-72-W6S-28359
 62
7
  6
BYLAYER
 10
96.888762355
 20
12.1226417934
 11
96.9469686426
 21
11.7198173269
  0
LINE
  8
LS-12V-72-W6S-28359
 62
7
  6
BYLAYER
 10
96.888762355
 20
12.1226417934
 11
97.2896207568
 21
12.0863500863
  0
LINE
  8
LS-12V-72-W6S-28359
 62
7
  6
BYLAYER
 10
97.2896207568
 20
12.0863500863
 11
97.5253037411
 21
12.0831175266
  0
LINE
  8
LS-12V-72-W6S-28359
 62
7
  6
BYLAYER
 10
97.5253037411
 20
12.0831175266
 11
97.4190076365
 21
11.9779286732
  0
LINE
  8
LS-12V-72-W6S-28359
 62
7
  6
BYLAYER
 10
97.4190076365
 20
11.9779286732
 11
97.3878589433
 21
11.8778934468
  0
LINE
  8
LS-12V-72-W6S-28359
 62
7
  6
BYLAYER
 10
97.3878589433
 20
11.8778934468
 11
97.3853733061
 21
11.7205526116
  0
LINE
  8
LS-12V-72-W6S-28359
 62
7
  6
BYLAYER
 10
99.1317701175
 20
12.1738798512
 11
99.3086950276
 21
12.1522415528
  0
LINE
  8
LS-12V-72-W6S-28359
 62
7
  6
BYLAYER
 10
99.3086950276
 20
12.1522415528
 11
99.5828434626
 21
12.1346704951
  0
LINE
  8
LS-12V-72-W6S-28359
 62
7
  6
BYLAYER
 10
99.5828434626
 20
12.1346704951
 11
99.7980551433
 21
12.1298433172
  0
LINE
  8
LS-12V-72-W6S-28359
 62
7
  6
BYLAYER
 10
99.7980551433
 20
12.1298433172
 11
99.6299658447
 21
11.9849171621
  0
LINE
  8
LS-12V-72-W6S-28359
 62
7
  6
BYLAYER
 10
99.6299658447
 20
11.9849171621
 11
99.5938253736
 21
11.8880606997
  0
LINE
  8
LS-12V-72-W6S-28359
 62
7
  6
BYLAYER
 10
96.9489818421
 20
11.4262288316
 11
96.9489818421
 21
10.0391000705
  0
LINE
  8
LS-12V-72-W6S-28359
 62
7
  6
BYLAYER
 10
96.9489818421
 20
10.0391000705
 11
95.7805065026
 21
10.0816545594
  0
LINE
  8
LS-12V-72-W6S-28359
 62
7
  6
BYLAYER
 10
95.7805065026
 20
9.7218296462
 11
97.2848050454
 21
9.7655458779
  0
LINE
  8
LS-12V-72-W6S-28359
 62
7
  6
BYLAYER
 10
95.7805065026
 20
10.0816545594
 11
95.7805065026
 21
9.7218296462
  0
LINE
  8
LS-12V-72-W6S-28359
 62
7
  6
BYLAYER
 10
97.2848050454
 20
9.7655458779
 11
96.5053126342
 21
9.2889578262
  0
LINE
  8
LS-12V-72-W6S-28359
 62
7
  6
BYLAYER
 10
96.5053126342
 20
9.2889578262
 11
95.6363400148
 21
8.9483276512
  0
LINE
  8
LS-12V-72-W6S-28359
 62
7
  6
BYLAYER
 10
95.6363400148
 20
8.9483276512
 11
95.8160479603
 21
8.850080725
  0
LINE
  8
LS-12V-72-W6S-28359
 62
7
  6
BYLAYER
 10
95.8160479603
 20
8.850080725
 11
96.0074532083
 21
8.6464460184
  0
LINE
  8
LS-12V-72-W6S-28359
 62
7
  6
BYLAYER
 10
96.0104009765
 20
8.6450004496
 11
96.7588949448
 21
9.0182038002
  0
LINE
  8
LS-12V-72-W6S-28359
 62
7
  6
BYLAYER
 10
96.7588949448
 20
9.0182038002
 11
97.439773432
 21
9.4838368302
  0
LINE
  8
LS-12V-72-W6S-28359
 62
7
  6
BYLAYER
 10
97.439773432
 20
9.4838368302
 11
97.6921539414
 21
9.729032954
  0
LINE
  8
LS-12V-72-W6S-28359
 62
7
  6
BYLAYER
 10
97.138270055
 20
9.1248444009
 11
98.107060228
 21
9.0918952652
  0
LINE
  8
LS-12V-72-W6S-28359
 62
7
  6
BYLAYER
 10
98.1062755994
 20
8.8306646655
 11
97.138270055
 21
8.7938045917
  0
LINE
  8
LS-12V-72-W6S-28359
 62
7
  6
BYLAYER
 10
97.138270055
 20
9.1248444009
 11
97.138270055
 21
8.7938045917
  0
LINE
  8
LS-12V-72-W6S-28359
 62
7
  6
BYLAYER
 10
98.0652971279
 20
9.5703876857
 11
98.1026815194
 21
9.2358453108
  0
LINE
  8
LS-12V-72-W6S-28359
 62
7
  6
BYLAYER
 10
98.1026815194
 20
9.2358453108
 11
98.107060228
 21
9.0918952652
  0
LINE
  8
LS-12V-72-W6S-28359
 62
7
  6
BYLAYER
 10
98.0652971279
 20
9.5703876857
 11
98.2514364968
 21
9.5537217189
  0
LINE
  8
LS-12V-72-W6S-28359
 62
7
  6
BYLAYER
 10
98.2514364968
 20
9.5537217189
 11
98.5271823006
 21
9.5433388212
  0
LINE
  8
LS-12V-72-W6S-28359
 62
7
  6
BYLAYER
 10
98.5271823006
 20
9.5433388212
 11
98.6898646711
 21
9.5384722545
  0
LINE
  8
LS-12V-72-W6S-28359
 62
7
  6
BYLAYER
 10
98.6898646711
 20
9.5384722545
 11
98.556733625
 21
9.4183447059
  0
LINE
  8
LS-12V-72-W6S-28359
 62
7
  6
BYLAYER
 10
98.556733625
 20
9.4183447059
 11
98.5271823006
 21
9.3276940217
  0
LINE
  8
LS-12V-72-W6S-28359
 62
7
  6
BYLAYER
 10
98.5271823006
 20
9.3276940217
 11
98.5253901232
 21
9.0924707354
  0
LINE
  8
LS-12V-72-W6S-28359
 62
7
  6
BYLAYER
 10
98.5253901232
 20
9.0924707354
 11
99.0401373838
 21
9.1030640222
  0
LINE
  8
LS-12V-72-W6S-28359
 62
7
  6
BYLAYER
 10
99.0401373838
 20
9.1030640222
 11
99.4820095517
 21
9.124328098
  0
LINE
  8
LS-12V-72-W6S-28359
 62
7
  6
BYLAYER
 10
99.4820095517
 20
9.124328098
 11
99.4820095517
 21
8.7943666095
  0
LINE
  8
LS-12V-72-W6S-28359
 62
7
  6
BYLAYER
 10
99.4820095517
 20
8.7943666095
 11
98.5255849317
 21
8.8291890521
  0
LINE
  8
LS-12V-72-W6S-28359
 62
7
  6
BYLAYER
 10
98.5255849317
 20
8.8291890521
 11
98.5255849317
 21
8.4244637953
  0
LINE
  8
LS-12V-72-W6S-28359
 62
7
  6
BYLAYER
 10
98.1062755994
 20
8.8306646655
 11
98.1062755994
 21
8.4239638264
  0
LINE
  8
LS-12V-72-W6S-28359
 62
7
  6
BYLAYER
 10
98.1062755994
 20
8.4239638264
 11
96.223377026
 21
8.4607191976
  0
LINE
  8
LS-12V-72-W6S-28359
 62
7
  6
BYLAYER
 10
96.223377026
 20
8.4607191976
 11
96.223377026
 21
8.0962802018
  0
LINE
  8
LS-12V-72-W6S-28359
 62
7
  6
BYLAYER
 10
96.223377026
 20
8.0962802018
 11
98.4872480785
 21
8.1308653845
  0
LINE
  8
LS-12V-72-W6S-28359
 62
7
  6
BYLAYER
 10
98.4872480785
 20
8.1308653845
 11
100.426453905
 21
8.0959266238
  0
LINE
  8
LS-12V-72-W6S-28359
 62
7
  6
BYLAYER
 10
100.426453905
 20
8.0959266238
 11
100.426453905
 21
8.4616662636
  0
LINE
  8
LS-12V-72-W6S-28359
 62
7
  6
BYLAYER
 10
100.426453905
 20
8.4616662636
 11
98.5255849317
 21
8.4244637953
  0
LINE
  8
LS-12V-72-W6S-28359
 62
7
  6
BYLAYER
 10
100.4978208009
 20
8.7141582321
 11
99.7753264132
 21
9.07570908
  0
LINE
  8
LS-12V-72-W6S-28359
 62
7
  6
BYLAYER
 10
99.7753264132
 20
9.07570908
 11
99.2328200056
 21
9.4978138079
  0
LINE
  8
LS-12V-72-W6S-28359
 62
7
  6
BYLAYER
 10
99.2328200056
 20
9.4978138079
 11
99.0690896949
 21
9.729032954
  0
LINE
  8
LS-12V-72-W6S-28359
 62
7
  6
BYLAYER
 10
99.4682726259
 20
9.7658623132
 11
99.7745277288
 21
9.5067990079
  0
LINE
  8
LS-12V-72-W6S-28359
 62
7
  6
BYLAYER
 10
99.7745277288
 20
9.5067990079
 11
100.2120071322
 21
9.2901558529
  0
LINE
  8
LS-12V-72-W6S-28359
 62
7
  6
BYLAYER
 10
100.2120071322
 20
9.2901558529
 11
100.7960161607
 21
9.1469407166
  0
LINE
  8
LS-12V-72-W6S-28359
 62
7
  6
BYLAYER
 10
100.7960161607
 20
9.1469407166
 11
100.6614668022
 21
9.0241939335
  0
LINE
  8
LS-12V-72-W6S-28359
 62
7
  6
BYLAYER
 10
100.6614668022
 20
9.0241939335
 11
100.5498506514
 21
8.8588662539
  0
LINE
  8
LS-12V-72-W6S-28359
 62
7
  6
BYLAYER
 10
100.5498506514
 20
8.8588662539
 11
100.4978208009
 21
8.7141582321
  0
LINE
  8
LS-12V-72-W6S-28359
 62
7
  6
BYLAYER
 10
100.7866605886
 20
9.7176075904
 11
99.4682726259
 21
9.7658623132
  0
LINE
  8
LS-12V-72-W6S-28359
 62
7
  6
BYLAYER
 10
100.7866605886
 20
10.0814264967
 11
99.5938253736
 21
10.0389445703
  0
LINE
  8
LS-12V-72-W6S-28359
 62
7
  6
BYLAYER
 10
100.7866605886
 20
10.0814264967
 11
100.7866605886
 21
9.7176075904
  0
LINE
  8
LS-12V-72-W6S-28359
 62
7
  6
BYLAYER
 10
99.5938253736
 20
11.4269784485
 11
99.5938253736
 21
10.0389445703
  0
LINE
  8
LS-12V-72-W6S-28359
 62
7
  6
BYLAYER
 10
101.5378233068
 20
12.0248513842
 11
101.5378233068
 21
8.0989180068
  0
LINE
  8
LS-12V-72-W6S-28359
 62
7
  6
BYLAYER
 10
101.7374944175
 20
7.8992468961
 11
103.5712738976
 21
7.8992468961
  0
LINE
  8
LS-12V-72-W6S-28359
 62
7
  6
BYLAYER
 10
103.7709450083
 20
8.0989180068
 11
103.7709450083
 21
12.0248513842
  0
LINE
  8
LS-12V-72-W6S-28359
 62
7
  6
BYLAYER
 10
103.5712738976
 20
12.2245224948
 11
101.7374944175
 21
12.2245224948
  0
LINE
  8
LS-12V-72-W6S-28359
 62
7
  6
BYLAYER
 10
102.5546742169
 20
11.638288114
 11
101.8317391817
 21
11.638288114
  0
LINE
  8
LS-12V-72-W6S-28359
 62
7
  6
BYLAYER
 10
101.8317391817
 20
11.638288114
 11
101.8317391817
 21
11.3823097502
  0
LINE
  8
LS-12V-72-W6S-28359
 62
7
  6
BYLAYER
 10
101.8317391817
 20
11.3823097502
 11
102.5272964035
 21
11.3823097502
  0
LINE
  8
LS-12V-72-W6S-28359
 62
7
  6
BYLAYER
 10
102.6751921278
 20
11.3823097502
 11
103.4770291334
 21
11.3823097502
  0
LINE
  8
LS-12V-72-W6S-28359
 62
7
  6
BYLAYER
 10
103.4770291334
 20
11.3823097502
 11
103.4770291334
 21
11.638288114
  0
LINE
  8
LS-12V-72-W6S-28359
 62
7
  6
BYLAYER
 10
103.4770291334
 20
11.638288114
 11
102.7019091399
 21
11.638288114
  0
LINE
  8
LS-12V-72-W6S-28359
 62
7
  6
BYLAYER
 10
102.7019091399
 20
11.638288114
 11
102.7301977937
 21
11.9662835859
  0
LINE
  8
LS-12V-72-W6S-28359
 62
7
  6
BYLAYER
 10
102.5814354972
 20
12.0100372026
 11
102.7301977937
 21
11.9662835859
  0
LINE
  8
LS-12V-72-W6S-28359
 62
7
  6
BYLAYER
 10
102.5814354972
 20
12.0100372026
 11
102.5546742169
 21
11.638288114
  0
LINE
  8
LS-12V-72-W6S-28359
 62
7
  6
BYLAYER
 10
102.5272964035
 20
11.3823097502
 11
102.4797165225
 21
11.050057022
  0
LINE
  8
LS-12V-72-W6S-28359
 62
7
  6
BYLAYER
 10
102.6751921278
 20
11.3823097502
 11
102.6313303815
 21
11.050057022
  0
LINE
  8
LS-12V-72-W6S-28359
 62
7
  6
BYLAYER
 10
102.6313303815
 20
11.050057022
 11
103.4143324046
 21
11.050057022
  0
LINE
  8
LS-12V-72-W6S-28359
 62
7
  6
BYLAYER
 10
103.4143324046
 20
11.050057022
 11
103.4143324046
 21
10.7940786582
  0
LINE
  8
LS-12V-72-W6S-28359
 62
7
  6
BYLAYER
 10
103.4143324046
 20
10.7940786582
 11
102.5890723814
 21
10.7940786582
  0
LINE
  8
LS-12V-72-W6S-28359
 62
7
  6
BYLAYER
 10
102.5890723814
 20
10.7940786582
 11
102.498194115
 21
10.4099114413
  0
LINE
  8
LS-12V-72-W6S-28359
 62
7
  6
BYLAYER
 10
102.4318333123
 20
10.7940786582
 11
102.3248567073
 21
10.4099114413
  0
LINE
  8
LS-12V-72-W6S-28359
 62
7
  6
BYLAYER
 10
102.4318333123
 20
10.7940786582
 11
101.8980299904
 21
10.7940786582
  0
LINE
  8
LS-12V-72-W6S-28359
 62
7
  6
BYLAYER
 10
101.8980299904
 20
11.050057022
 11
102.4797165225
 21
11.050057022
  0
LINE
  8
LS-12V-72-W6S-28359
 62
7
  6
BYLAYER
 10
101.8980299904
 20
11.050057022
 11
101.8980299904
 21
10.7940786582
  0
LINE
  8
LS-12V-72-W6S-28359
 62
7
  6
BYLAYER
 10
102.3248567073
 20
10.4099114413
 11
101.7598575819
 21
10.4099114413
  0
LINE
  8
LS-12V-72-W6S-28359
 62
7
  6
BYLAYER
 10
101.7598575819
 20
10.4099114413
 11
101.7598575819
 21
10.1535337353
  0
LINE
  8
LS-12V-72-W6S-28359
 62
7
  6
BYLAYER
 10
101.7598575819
 20
10.1535337353
 11
102.2404230363
 21
10.1535337353
  0
LINE
  8
LS-12V-72-W6S-28359
 62
7
  6
BYLAYER
 10
102.2404230363
 20
10.1535337353
 11
101.7274821756
 21
9.3575342253
  0
LINE
  8
LS-12V-72-W6S-28359
 62
7
  6
BYLAYER
 10
102.4193068266
 20
10.1535337353
 11
102.2311947531
 21
9.7252897692
  0
LINE
  8
LS-12V-72-W6S-28359
 62
7
  6
BYLAYER
 10
102.4193068266
 20
10.1535337353
 11
102.8824832021
 21
10.1535337353
  0
LINE
  8
LS-12V-72-W6S-28359
 62
7
  6
BYLAYER
 10
102.8824832021
 20
10.1535337353
 11
103.0462364721
 21
9.6974266846
  0
LINE
  8
LS-12V-72-W6S-28359
 62
7
  6
BYLAYER
 10
103.0347453359
 20
10.1535337353
 11
103.200284974
 21
9.822878376
  0
LINE
  8
LS-12V-72-W6S-28359
 62
7
  6
BYLAYER
 10
103.200284974
 20
9.822878376
 11
103.3913702269
 21
9.5896625188
  0
LINE
  8
LS-12V-72-W6S-28359
 62
7
  6
BYLAYER
 10
103.3913702269
 20
9.5896625188
 11
103.5831573918
 21
9.4355525051
  0
LINE
  8
LS-12V-72-W6S-28359
 62
7
  6
BYLAYER
 10
103.0347453359
 20
10.1535337353
 11
103.5525048132
 21
10.1535337353
  0
LINE
  8
LS-12V-72-W6S-28359
 62
7
  6
BYLAYER
 10
103.5525048132
 20
10.4099114413
 11
103.5525048132
 21
10.1535337353
  0
LINE
  8
LS-12V-72-W6S-28359
 62
7
  6
BYLAYER
 10
103.5525048132
 20
10.4099114413
 11
102.498194115
 21
10.4099114413
  0
LINE
  8
LS-12V-72-W6S-28359
 62
7
  6
BYLAYER
 10
103.1551665568
 20
9.5143859186
 11
103.2953284227
 21
9.3240999417
  0
LINE
  8
LS-12V-72-W6S-28359
 62
7
  6
BYLAYER
 10
103.2953284227
 20
9.3240999417
 11
103.4922313724
 21
9.1196579151
  0
LINE
  8
LS-12V-72-W6S-28359
 62
7
  6
BYLAYER
 10
103.5831573918
 20
9.4355525051
 11
103.4922313724
 21
9.1196579151
  0
LINE
  8
LS-12V-72-W6S-28359
 62
7
  6
BYLAYER
 10
103.1551665568
 20
9.5143859186
 11
102.8842244203
 21
9.17933353
  0
LINE
  8
LS-12V-72-W6S-28359
 62
7
  6
BYLAYER
 10
102.8086531085
 20
9.4147672321
 11
102.8842244203
 21
9.17933353
  0
LINE
  8
LS-12V-72-W6S-28359
 62
7
  6
BYLAYER
 10
103.0462364721
 20
9.6974266846
 11
102.8086531085
 21
9.4147672321
  0
LINE
  8
LS-12V-72-W6S-28359
 62
7
  6
BYLAYER
 10
102.7410414196
 20
9.9538626246
 11
102.7410414196
 21
8.4688010596
  0
LINE
  8
LS-12V-72-W6S-28359
 62
7
  6
BYLAYER
 10
102.7410414196
 20
9.9538626246
 11
102.5976775621
 21
9.9538626246
  0
LINE
  8
LS-12V-72-W6S-28359
 62
7
  6
BYLAYER
 10
102.5976775621
 20
9.9538626246
 11
102.5976775621
 21
8.6364326366
  0
LINE
  8
LS-12V-72-W6S-28359
 62
7
  6
BYLAYER
 10
102.5976775621
 20
8.6364326366
 11
102.5840999266
 21
8.5086431258
  0
LINE
  8
LS-12V-72-W6S-28359
 62
7
  6
BYLAYER
 10
102.5840999266
 20
8.5086431258
 11
102.5537499178
 21
8.4479431082
  0
LINE
  8
LS-12V-72-W6S-28359
 62
7
  6
BYLAYER
 10
102.5537499178
 20
8.4479431082
 11
102.4944475979
 21
8.4211871793
  0
LINE
  8
LS-12V-72-W6S-28359
 62
7
  6
BYLAYER
 10
102.4944475979
 20
8.4211871793
 11
102.270153794
 21
8.4519182048
  0
LINE
  8
LS-12V-72-W6S-28359
 62
7
  6
BYLAYER
 10
102.270153794
 20
8.4519182048
 11
102.2924293182
 21
8.1202913389
  0
LINE
  8
LS-12V-72-W6S-28359
 62
7
  6
BYLAYER
 10
102.2924293182
 20
8.1202913389
 11
102.5716708874
 21
8.112233622
  0
LINE
  8
LS-12V-72-W6S-28359
 62
7
  6
BYLAYER
 10
102.5716708874
 20
8.112233622
 11
102.6809404153
 21
8.2231134376
  0
LINE
  8
LS-12V-72-W6S-28359
 62
7
  6
BYLAYER
 10
102.6809404153
 20
8.2231134376
 11
102.7410414196
 21
8.4688010596
  0
LINE
  8
LS-12V-72-W6S-28359
 62
7
  6
BYLAYER
 10
102.7669445698
 20
8.8833207763
 11
103.3850775559
 21
8.3751636831
  0
LINE
  8
LS-12V-72-W6S-28359
 62
7
  6
BYLAYER
 10
103.3850775559
 20
8.3751636831
 11
103.4521054356
 21
8.6751932396
  0
LINE
  8
LS-12V-72-W6S-28359
 62
7
  6
BYLAYER
 10
103.4521054356
 20
8.6751932396
 11
102.8243169269
 21
9.1279590854
  0
LINE
  8
LS-12V-72-W6S-28359
 62
7
  6
BYLAYER
 10
102.8243169269
 20
9.1279590854
 11
102.7669445698
 21
8.8833207763
  0
LINE
  8
LS-12V-72-W6S-28359
 62
7
  6
BYLAYER
 10
102.5152332285
 20
9.1242945868
 11
102.5463374419
 21
8.8574204357
  0
LINE
  8
LS-12V-72-W6S-28359
 62
7
  6
BYLAYER
 10
102.5463374419
 20
8.8574204357
 11
101.9121670444
 21
8.4382982474
  0
LINE
  8
LS-12V-72-W6S-28359
 62
7
  6
BYLAYER
 10
101.8666534358
 20
8.7236886107
 11
101.9121670444
 21
8.4382982474
  0
LINE
  8
LS-12V-72-W6S-28359
 62
7
  6
BYLAYER
 10
101.8666534358
 20
8.7236886107
 11
102.5152332285
 21
9.1242945868
  0
LINE
  8
LS-12V-72-W6S-28359
 62
7
  6
BYLAYER
 10
102.4822415084
 20
9.395053769
 11
102.3938077321
 21
9.1514489256
  0
LINE
  8
LS-12V-72-W6S-28359
 62
7
  6
BYLAYER
 10
102.3938077321
 20
9.1514489256
 11
102.1312402676
 21
9.5316079539
  0
LINE
  8
LS-12V-72-W6S-28359
 62
7
  6
BYLAYER
 10
102.1312402676
 20
9.5316079539
 11
101.8135201638
 21
9.0856039415
  0
LINE
  8
LS-12V-72-W6S-28359
 62
7
  6
BYLAYER
 10
101.7274821756
 20
9.3575342253
 11
101.8135201638
 21
9.0856039415
  0
LINE
  8
LS-12V-72-W6S-28359
 62
7
  6
BYLAYER
 10
102.2311947531
 20
9.7252897692
 11
102.4822415084
 21
9.395053769
  0
LINE
  8
LS-12V-72-W6S-28359
 62
7
  6
BYLAYER
 10
83.7445749493
 20
6.8574542799
 11
83.9653534135
 21
6.8547526539
  0
LINE
  8
LS-12V-72-W6S-28359
 62
7
  6
BYLAYER
 10
84.0015472557
 20
6.8557061689
 11
84.2820396001
 21
5.9292073771
  0
LINE
  8
LS-12V-72-W6S-28359
 62
7
  6
BYLAYER
 10
84.2820396001
 20
5.9292073771
 11
84.5986860568
 21
6.8574542799
  0
LINE
  8
LS-12V-72-W6S-28359
 62
7
  6
BYLAYER
 10
84.5986860568
 20
6.8574542799
 11
84.7850982494
 21
6.8557061689
  0
LINE
  8
LS-12V-72-W6S-28359
 62
7
  6
BYLAYER
 10
84.7850982494
 20
6.8557061689
 11
85.0909382023
 21
5.9417619919
  0
LINE
  8
LS-12V-72-W6S-28359
 62
7
  6
BYLAYER
 10
85.0909382023
 20
5.9417619919
 11
85.3840646211
 21
6.8574542799
  0
LINE
  8
LS-12V-72-W6S-28359
 62
7
  6
BYLAYER
 10
85.3840646211
 20
6.8574542799
 11
85.5831108881
 21
6.8557061689
  0
LINE
  8
LS-12V-72-W6S-28359
 62
7
  6
BYLAYER
 10
85.5831108881
 20
6.8557061689
 11
85.1560156045
 21
5.6178847127
  0
LINE
  8
LS-12V-72-W6S-28359
 62
7
  6
BYLAYER
 10
85.1560156045
 20
5.6178847127
 11
84.9552212266
 21
5.6178847127
  0
LINE
  8
LS-12V-72-W6S-28359
 62
7
  6
BYLAYER
 10
84.9552212266
 20
5.6178847127
 11
84.6638429187
 21
6.5335770006
  0
LINE
  8
LS-12V-72-W6S-28359
 62
7
  6
BYLAYER
 10
84.6638429187
 20
6.5335770006
 11
84.3580029659
 21
5.6178847127
  0
LINE
  8
LS-12V-72-W6S-28359
 62
7
  6
BYLAYER
 10
84.3580029659
 20
5.6178847127
 11
84.1426674834
 21
5.6178847127
  0
LINE
  8
LS-12V-72-W6S-28359
 62
7
  6
BYLAYER
 10
84.1426674834
 20
5.6178847127
 11
83.7445749493
 21
6.8574542799
  0
LINE
  8
LS-12V-72-W6S-28359
 62
7
  6
BYLAYER
 10
85.626495823
 20
6.8574542799
 11
86.024588357
 21
5.6178847127
  0
LINE
  8
LS-12V-72-W6S-28359
 62
7
  6
BYLAYER
 10
86.024588357
 20
5.6178847127
 11
86.2399238396
 21
5.6178847127
  0
LINE
  8
LS-12V-72-W6S-28359
 62
7
  6
BYLAYER
 10
86.2399238396
 20
5.6178847127
 11
86.5457637924
 21
6.5335770006
  0
LINE
  8
LS-12V-72-W6S-28359
 62
7
  6
BYLAYER
 10
86.5457637924
 20
6.5335770006
 11
86.8371421003
 21
5.6178847127
  0
LINE
  8
LS-12V-72-W6S-28359
 62
7
  6
BYLAYER
 10
86.8371421003
 20
5.6178847127
 11
87.0379364782
 21
5.6178847127
  0
LINE
  8
LS-12V-72-W6S-28359
 62
7
  6
BYLAYER
 10
87.0379364782
 20
5.6178847127
 11
87.4650317618
 21
6.8557061689
  0
LINE
  8
LS-12V-72-W6S-28359
 62
7
  6
BYLAYER
 10
87.4650317618
 20
6.8557061689
 11
87.2659854948
 21
6.8574542799
  0
LINE
  8
LS-12V-72-W6S-28359
 62
7
  6
BYLAYER
 10
87.2659854948
 20
6.8574542799
 11
86.972859076
 21
5.9417619919
  0
LINE
  8
LS-12V-72-W6S-28359
 62
7
  6
BYLAYER
 10
86.972859076
 20
5.9417619919
 11
86.6670191231
 21
6.8557061689
  0
LINE
  8
LS-12V-72-W6S-28359
 62
7
  6
BYLAYER
 10
86.6670191231
 20
6.8557061689
 11
86.4800106095
 21
6.8557061689
  0
LINE
  8
LS-12V-72-W6S-28359
 62
7
  6
BYLAYER
 10
86.4800106095
 20
6.8557061689
 11
86.1639604738
 21
5.9292073771
  0
LINE
  8
LS-12V-72-W6S-28359
 62
7
  6
BYLAYER
 10
86.1639604738
 20
5.9292073771
 11
85.8834681294
 21
6.8557061689
  0
LINE
  8
LS-12V-72-W6S-28359
 62
7
  6
BYLAYER
 10
85.8834681294
 20
6.8557061689
 11
85.626495823
 21
6.8574542799
  0
LINE
  8
LS-12V-72-W6S-28359
 62
7
  6
BYLAYER
 10
87.5084961562
 20
6.8574542799
 11
87.7654684627
 21
6.8557061689
  0
LINE
  8
LS-12V-72-W6S-28359
 62
7
  6
BYLAYER
 10
87.7654684627
 20
6.8557061689
 11
88.045960807
 21
5.9292073771
  0
LINE
  8
LS-12V-72-W6S-28359
 62
7
  6
BYLAYER
 10
88.045960807
 20
5.9292073771
 11
88.3626072638
 21
6.8574542799
  0
LINE
  8
LS-12V-72-W6S-28359
 62
7
  6
BYLAYER
 10
88.3626072638
 20
6.8574542799
 11
88.5490194564
 21
6.8557061689
  0
LINE
  8
LS-12V-72-W6S-28359
 62
7
  6
BYLAYER
 10
88.5490194564
 20
6.8557061689
 11
88.8548594092
 21
5.9417619919
  0
LINE
  8
LS-12V-72-W6S-28359
 62
7
  6
BYLAYER
 10
88.8548594092
 20
5.9417619919
 11
89.147985828
 21
6.8574542799
  0
LINE
  8
LS-12V-72-W6S-28359
 62
7
  6
BYLAYER
 10
89.147985828
 20
6.8574542799
 11
89.3470320951
 21
6.8557061689
  0
LINE
  8
LS-12V-72-W6S-28359
 62
7
  6
BYLAYER
 10
89.3470320951
 20
6.8557061689
 11
88.9199368115
 21
5.6178847127
  0
LINE
  8
LS-12V-72-W6S-28359
 62
7
  6
BYLAYER
 10
88.9199368115
 20
5.6178847127
 11
88.7191424335
 21
5.6178847127
  0
LINE
  8
LS-12V-72-W6S-28359
 62
7
  6
BYLAYER
 10
88.7191424335
 20
5.6178847127
 11
88.4277641257
 21
6.5335770006
  0
LINE
  8
LS-12V-72-W6S-28359
 62
7
  6
BYLAYER
 10
88.4277641257
 20
6.5335770006
 11
88.1219241728
 21
5.6178847127
  0
LINE
  8
LS-12V-72-W6S-28359
 62
7
  6
BYLAYER
 10
88.1219241728
 20
5.6178847127
 11
87.9065886903
 21
5.6178847127
  0
LINE
  8
LS-12V-72-W6S-28359
 62
7
  6
BYLAYER
 10
87.9065886903
 20
5.6178847127
 11
87.5084961562
 21
6.8574542799
  0
LINE
  8
LS-12V-72-W6S-28359
 62
7
  6
BYLAYER
 10
89.6274449799
 20
5.8295650541
 11
89.7088910572
 21
5.8314720843
  0
LINE
  8
LS-12V-72-W6S-28359
 62
7
  6
BYLAYER
 10
89.7088910572
 20
5.8314720843
 11
89.7849338826
 21
5.7934904014
  0
LINE
  8
LS-12V-72-W6S-28359
 62
7
  6
BYLAYER
 10
89.7849338826
 20
5.7934904014
 11
89.8172149138
 21
5.7364709049
  0
LINE
  8
LS-12V-72-W6S-28359
 62
7
  6
BYLAYER
 10
89.8172149138
 20
5.7364709049
 11
89.80662635
 21
5.6639712735
  0
LINE
  8
LS-12V-72-W6S-28359
 62
7
  6
BYLAYER
 10
89.80662635
 20
5.6639712735
 11
89.7441711141
 21
5.6097798347
  0
LINE
  8
LS-12V-72-W6S-28359
 62
7
  6
BYLAYER
 10
89.7441711141
 20
5.6097798347
 11
89.6274449799
 21
5.6034230677
  0
LINE
  8
LS-12V-72-W6S-28359
 62
7
  6
BYLAYER
 10
89.6274449799
 20
5.6034230677
 11
89.556884866
 21
5.6269431057
  0
LINE
  8
LS-12V-72-W6S-28359
 62
7
  6
BYLAYER
 10
89.556884866
 20
5.6269431057
 11
89.5189031831
 21
5.6992513304
  0
LINE
  8
LS-12V-72-W6S-28359
 62
7
  6
BYLAYER
 10
89.5189031831
 20
5.6992513304
 11
89.5404758906
 21
5.7798966599
  0
LINE
  8
LS-12V-72-W6S-28359
 62
7
  6
BYLAYER
 10
89.5404758906
 20
5.7798966599
 11
89.6272006095
 21
5.829565379
  0
LINE
  8
LS-12V-72-W6S-28359
 62
7
  6
BYLAYER
 10
90.2176707969
 20
6.8558650881
 11
90.2176707969
 21
5.6355247411
  0
LINE
  8
LS-12V-72-W6S-28359
 62
7
  6
BYLAYER
 10
90.2176707969
 20
5.6355247411
 11
90.8022549831
 21
5.6355247411
  0
LINE
  8
LS-12V-72-W6S-28359
 62
7
  6
BYLAYER
 10
91.2777411556
 20
6.6813718337
 11
91.0880706246
 21
6.8187377941
  0
LINE
  8
LS-12V-72-W6S-28359
 62
7
  6
BYLAYER
 10
91.0880706246
 20
6.8187377941
 11
90.8945092935
 21
6.8572705113
  0
LINE
  8
LS-12V-72-W6S-28359
 62
7
  6
BYLAYER
 10
90.8945092935
 20
6.8572705113
 11
90.2176707969
 21
6.8558650881
  0
LINE
  8
LS-12V-72-W6S-28359
 62
7
  6
BYLAYER
 10
90.4554138831
 20
6.7695719759
 11
90.4554138831
 21
5.7183216315
  0
LINE
  8
LS-12V-72-W6S-28359
 62
7
  6
BYLAYER
 10
90.4554138831
 20
5.7183216315
 11
90.6487362961
 21
5.7188233169
  0
LINE
  8
LS-12V-72-W6S-28359
 62
7
  6
BYLAYER
 10
91.0259337224
 20
6.6568982807
 11
90.9145313805
 21
6.7309546163
  0
LINE
  8
LS-12V-72-W6S-28359
 62
7
  6
BYLAYER
 10
90.9145313805
 20
6.7309546163
 11
90.6862869106
 21
6.7658886105
  0
LINE
  8
LS-12V-72-W6S-28359
 62
7
  6
BYLAYER
 10
90.6862869106
 20
6.7658886105
 11
90.4554138831
 21
6.7658886105
  0
LINE
  8
LS-12V-72-W6S-28359
 62
7
  6
BYLAYER
 10
96.6395152104
 20
6.8240812531
 11
97.3475001363
 21
6.8240812531
  0
LINE
  8
LS-12V-72-W6S-28359
 62
7
  6
BYLAYER
 10
97.3475001363
 20
6.8240812531
 11
97.3475001363
 21
6.7095005277
  0
LINE
  8
LS-12V-72-W6S-28359
 62
7
  6
BYLAYER
 10
97.3475001363
 20
6.7095005277
 11
96.8202063127
 21
6.7095005277
  0
LINE
  8
LS-12V-72-W6S-28359
 62
7
  6
BYLAYER
 10
96.8202063127
 20
6.7095005277
 11
96.8202063127
 21
6.3115669128
  0
LINE
  8
LS-12V-72-W6S-28359
 62
7
  6
BYLAYER
 10
96.8202063127
 20
6.3115669128
 11
97.3475001363
 21
6.3115669128
  0
LINE
  8
LS-12V-72-W6S-28359
 62
7
  6
BYLAYER
 10
97.3475001363
 20
6.3115669128
 11
97.3475001363
 21
6.1985753792
  0
LINE
  8
LS-12V-72-W6S-28359
 62
7
  6
BYLAYER
 10
97.3475001363
 20
6.1985753792
 11
96.8202063127
 21
6.1985753792
  0
LINE
  8
LS-12V-72-W6S-28359
 62
7
  6
BYLAYER
 10
96.8202063127
 20
6.1985753792
 11
96.8202063127
 21
5.726108671
  0
LINE
  8
LS-12V-72-W6S-28359
 62
7
  6
BYLAYER
 10
96.8202063127
 20
5.726108671
 11
97.3475001363
 21
5.726108671
  0
LINE
  8
LS-12V-72-W6S-28359
 62
7
  6
BYLAYER
 10
97.3475001363
 20
5.726108671
 11
97.3475001363
 21
5.6178847127
  0
LINE
  8
LS-12V-72-W6S-28359
 62
7
  6
BYLAYER
 10
97.3475001363
 20
5.6178847127
 11
96.6395152104
 21
5.6178847127
  0
LINE
  8
LS-12V-72-W6S-28359
 62
7
  6
BYLAYER
 10
96.6395152104
 20
5.6178847127
 11
96.6395152104
 21
6.8240812531
  0
LINE
  8
LS-12V-72-W6S-28359
 62
7
  6
BYLAYER
 10
95.0984280745
 20
6.6198701128
 11
94.8436896228
 21
6.7755121079
  0
LINE
  8
LS-12V-72-W6S-28359
 62
7
  6
BYLAYER
 10
94.8436896228
 20
6.7755121079
 11
94.6884644955
 21
6.7907082263
  0
LINE
  8
LS-12V-72-W6S-28359
 62
7
  6
BYLAYER
 10
94.2852070882
 20
6.4825639454
 11
94.2534257324
 21
6.3594787138
  0
LINE
  8
LS-12V-72-W6S-28359
 62
7
  6
BYLAYER
 10
94.321703151
 20
5.9225821851
 11
94.4277110809
 21
5.7903882424
  0
LINE
  8
LS-12V-72-W6S-28359
 62
7
  6
BYLAYER
 10
94.8593026089
 20
5.6917821292
 11
94.9789687479
 21
5.7431130228
  0
LINE
  8
LS-12V-72-W6S-28359
 62
7
  6
BYLAYER
 10
94.9789687479
 20
5.7431130228
 11
94.9789687479
 21
6.2042964695
  0
LINE
  8
LS-12V-72-W6S-28359
 62
7
  6
BYLAYER
 10
94.9789687479
 20
6.2042964695
 11
95.2026474871
 21
6.2042964695
  0
LINE
  8
LS-12V-72-W6S-28359
 62
7
  6
BYLAYER
 10
95.2026474871
 20
6.2042964695
 11
95.2000253207
 21
5.687570771
  0
LINE
  8
LS-12V-72-W6S-28359
 62
7
  6
BYLAYER
 10
95.2000253207
 20
5.687570771
 11
94.9614876386
 21
5.6302804083
  0
LINE
  8
LS-12V-72-W6S-28359
 62
7
  6
BYLAYER
 10
94.9614876386
 20
5.6302804083
 11
94.6744001485
 21
5.6073960471
  0
LINE
  8
LS-12V-72-W6S-28359
 62
7
  6
BYLAYER
 10
94.6572368775
 20
6.8778753939
 11
94.9302202909
 21
6.8650824003
  0
LINE
  8
LS-12V-72-W6S-28359
 62
7
  6
BYLAYER
 10
94.9302202909
 20
6.8650824003
 11
95.2167118341
 21
6.7695719759
  0
LINE
  8
LS-12V-72-W6S-28359
 62
7
  6
BYLAYER
 10
95.2167118341
 20
6.7695719759
 11
95.1603749865
 21
6.6198701128
  0
LINE
  8
LS-12V-72-W6S-28359
 62
7
  6
BYLAYER
 10
95.1603749865
 20
6.6198701128
 11
95.0984280745
 21
6.6198701128
  0
LINE
  8
LS-12V-72-W6S-28359
 62
7
  6
BYLAYER
 10
95.4271208222
 20
6.8682607838
 11
95.4271208222
 21
6.7416022011
  0
LINE
  8
LS-12V-72-W6S-28359
 62
7
  6
BYLAYER
 10
95.8252928159
 20
6.7799956554
 11
95.8252928159
 21
5.6178847127
  0
LINE
  8
LS-12V-72-W6S-28359
 62
7
  6
BYLAYER
 10
95.8252928159
 20
5.6178847127
 11
96.0550899433
 21
5.6178847127
  0
LINE
  8
LS-12V-72-W6S-28359
 62
7
  6
BYLAYER
 10
95.4271208222
 20
6.8682607838
 11
96.4531824774
 21
6.8719159248
  0
LINE
  8
LS-12V-72-W6S-28359
 62
7
  6
BYLAYER
 10
96.4531824774
 20
6.8719159248
 11
96.4509178792
 21
6.7484357256
  0
LINE
  8
LS-12V-72-W6S-28359
 62
7
  6
BYLAYER
 10
96.0550899433
 20
5.6178847127
 11
96.0550899433
 21
6.7807343188
  0
LINE
  8
LS-12V-72-W6S-28359
 62
7
  6
BYLAYER
 10
102.4302121194
 20
6.8719159248
 11
102.5586982726
 21
6.8719159248
  0
LINE
  8
LS-12V-72-W6S-28359
 62
7
  6
BYLAYER
 10
102.5586982726
 20
6.8719159248
 11
103.0219476685
 21
5.9853058459
  0
LINE
  8
LS-12V-72-W6S-28359
 62
7
  6
BYLAYER
 10
103.0219476685
 20
5.9853058459
 11
103.4978311389
 21
6.8719159248
  0
LINE
  8
LS-12V-72-W6S-28359
 62
7
  6
BYLAYER
 10
103.4978311389
 20
6.8719159248
 11
103.6281448626
 21
6.8719159248
  0
LINE
  8
LS-12V-72-W6S-28359
 62
7
  6
BYLAYER
 10
103.6281448626
 20
6.8719159248
 11
103.7710926608
 21
5.6178847127
  0
LINE
  8
LS-12V-72-W6S-28359
 62
7
  6
BYLAYER
 10
103.5122927839
 20
5.6178847127
 11
103.4381569886
 21
6.4394968489
  0
LINE
  8
LS-12V-72-W6S-28359
 62
7
  6
BYLAYER
 10
103.4381569886
 20
6.4394968489
 11
103.029178491
 21
5.6468080026
  0
LINE
  8
LS-12V-72-W6S-28359
 62
7
  6
BYLAYER
 10
103.029178491
 20
5.6468080026
 11
102.9277880572
 21
5.6468080026
  0
LINE
  8
LS-12V-72-W6S-28359
 62
7
  6
BYLAYER
 10
102.9277880572
 20
5.6468080026
 11
102.5333506641
 21
6.4231281738
  0
LINE
  8
LS-12V-72-W6S-28359
 62
7
  6
BYLAYER
 10
102.5333506641
 20
6.4231281738
 11
102.4591354093
 21
5.6178847127
  0
LINE
  8
LS-12V-72-W6S-28359
 62
7
  6
BYLAYER
 10
102.2582615717
 20
5.6178847127
 11
102.4302121194
 21
6.8719159248
  0
LINE
  8
LS-12V-72-W6S-28359
 62
7
  6
BYLAYER
 10
102.2582615717
 20
5.6178847127
 11
102.4591354093
 21
5.6178847127
  0
LINE
  8
LS-12V-72-W6S-28359
 62
7
  6
BYLAYER
 10
103.5122927839
 20
5.6178847127
 11
103.7710926608
 21
5.6178847127
  0
LINE
  8
LS-12V-72-W6S-28359
 62
7
  6
BYLAYER
 10
98.9862686802
 20
5.829565379
 11
99.0679591279
 21
5.8314720843
  0
LINE
  8
LS-12V-72-W6S-28359
 62
7
  6
BYLAYER
 10
99.0679591279
 20
5.8314720843
 11
99.1263448583
 21
5.8074413551
  0
LINE
  8
LS-12V-72-W6S-28359
 62
7
  6
BYLAYER
 10
99.1263448583
 20
5.8074413551
 11
99.1692701022
 21
5.7580514253
  0
LINE
  8
LS-12V-72-W6S-28359
 62
7
  6
BYLAYER
 10
99.1692701022
 20
5.7580514253
 11
99.1783284952
 21
5.7138718945
  0
LINE
  8
LS-12V-72-W6S-28359
 62
7
  6
BYLAYER
 10
99.1783284952
 20
5.7138718945
 11
99.1537156802
 21
5.6450919965
  0
LINE
  8
LS-12V-72-W6S-28359
 62
7
  6
BYLAYER
 10
99.1537156802
 20
5.6450919965
 11
99.1032391848
 21
5.6097798347
  0
LINE
  8
LS-12V-72-W6S-28359
 62
7
  6
BYLAYER
 10
99.1032391848
 20
5.6097798347
 11
99.0647075035
 21
5.60342263
  0
LINE
  8
LS-12V-72-W6S-28359
 62
7
  6
BYLAYER
 10
99.0647075035
 20
5.60342263
 11
98.9865130506
 21
5.6034230677
  0
LINE
  8
LS-12V-72-W6S-28359
 62
7
  6
BYLAYER
 10
98.9865130506
 20
5.6034230677
 11
98.9159529368
 21
5.6269431057
  0
LINE
  8
LS-12V-72-W6S-28359
 62
7
  6
BYLAYER
 10
98.9159529368
 20
5.6269431057
 11
98.8826554483
 21
5.6780150179
  0
LINE
  8
LS-12V-72-W6S-28359
 62
7
  6
BYLAYER
 10
98.8826554483
 20
5.6780150179
 11
98.8897312728
 21
5.7580514253
  0
LINE
  8
LS-12V-72-W6S-28359
 62
7
  6
BYLAYER
 10
98.8897312728
 20
5.7580514253
 11
98.9304842665
 21
5.8114638708
  0
LINE
  8
LS-12V-72-W6S-28359
 62
7
  6
BYLAYER
 10
98.9304842665
 20
5.8114638708
 11
98.9862686802
 21
5.829565379
  0
LINE
  8
LS-12V-72-W6S-28359
 62
7
  6
BYLAYER
 10
101.7904686411
 20
6.5873088887
 11
101.8375230551
 21
6.4865369248
  0
LINE
  8
LS-12V-72-W6S-28359
 62
7
  6
BYLAYER
 10
101.7767890908
 20
5.8967058815
 11
101.5751474968
 21
5.7029064714
  0
LINE
  8
LS-12V-72-W6S-28359
 62
7
  6
BYLAYER
 10
101.5751474968
 20
5.7029064714
 11
101.4059780347
 21
5.6595215366
  0
LINE
  8
LS-12V-72-W6S-28359
 62
7
  6
BYLAYER
 10
101.4059780347
 20
5.6595215366
 11
101.1452185862
 21
5.7492080431
  0
LINE
  8
LS-12V-72-W6S-28359
 62
7
  6
BYLAYER
 10
101.1452185862
 20
5.7492080431
 11
101.0124326142
 21
5.8954886748
  0
LINE
  8
LS-12V-72-W6S-28359
 62
7
  6
BYLAYER
 10
100.9689503026
 20
5.9934107239
 11
100.9336702457
 21
6.2403711223
  0
LINE
  8
LS-12V-72-W6S-28359
 62
7
  6
BYLAYER
 10
100.9336702457
 20
6.2403711223
 11
100.9918843161
 21
6.4889200062
  0
LINE
  8
LS-12V-72-W6S-28359
 62
7
  6
BYLAYER
 10
100.9918843161
 20
6.4889200062
 11
101.1164272973
 21
6.6964691553
  0
LINE
  8
LS-12V-72-W6S-28359
 62
7
  6
BYLAYER
 10
101.3950920712
 20
6.823127738
 11
101.5872021093
 21
6.776504509
  0
LINE
  8
LS-12V-72-W6S-28359
 62
7
  6
BYLAYER
 10
101.3950920712
 20
6.823127738
 11
101.2425424946
 21
6.7888779222
  0
LINE
  8
LS-12V-72-W6S-28359
 62
7
  6
BYLAYER
 10
101.2425424946
 20
6.7888779222
 11
101.1164272973
 21
6.6964691553
  0
LINE
  8
LS-12V-72-W6S-28359
 62
7
  6
BYLAYER
 10
101.9216707585
 20
5.7590049403
 11
102.0819791891
 21
5.9714248955
  0
LINE
  8
LS-12V-72-W6S-28359
 62
7
  6
BYLAYER
 10
102.0819791891
 20
5.9714248955
 11
102.1305656554
 21
6.2030477602
  0
LINE
  8
LS-12V-72-W6S-28359
 62
7
  6
BYLAYER
 10
102.1305656554
 20
6.2030477602
 11
102.1062553805
 21
6.4231281738
  0
LINE
  8
LS-12V-72-W6S-28359
 62
7
  6
BYLAYER
 10
102.1062553805
 20
6.4231281738
 11
102.0326597965
 21
6.6057629116
  0
LINE
  8
LS-12V-72-W6S-28359
 62
7
  6
BYLAYER
 10
101.846215418
 20
6.8053472464
 11
101.5897753575
 21
6.8857417379
  0
LINE
  8
LS-12V-72-W6S-28359
 62
7
  6
BYLAYER
 10
101.5897753575
 20
6.8857417379
 11
101.3448370973
 21
6.8979875058
  0
LINE
  8
LS-12V-72-W6S-28359
 62
7
  6
BYLAYER
 10
100.7987490138
 20
6.6214403511
 11
100.6990234204
 21
6.4180874047
  0
LINE
  8
LS-12V-72-W6S-28359
 62
7
  6
BYLAYER
 10
100.6990234204
 20
6.4180874047
 11
100.6747676168
 21
6.2276287989
  0
LINE
  8
LS-12V-72-W6S-28359
 62
7
  6
BYLAYER
 10
100.6747676168
 20
6.2276287989
 11
100.6831733305
 21
6.1126820087
  0
LINE
  8
LS-12V-72-W6S-28359
 62
7
  6
BYLAYER
 10
100.6831733305
 20
6.1126820087
 11
100.7119779962
 21
5.9880074719
  0
LINE
  8
LS-12V-72-W6S-28359
 62
7
  6
BYLAYER
 10
100.7119779962
 20
5.9880074719
 11
100.8250489894
 21
5.8042969053
  0
LINE
  8
LS-12V-72-W6S-28359
 62
7
  6
BYLAYER
 10
100.8250489894
 20
5.8042969053
 11
100.9009160103
 21
5.7379386096
  0
LINE
  8
LS-12V-72-W6S-28359
 62
7
  6
BYLAYER
 10
100.9009160103
 20
5.7379386096
 11
101.0684404379
 21
5.6399814306
  0
LINE
  8
LS-12V-72-W6S-28359
 62
7
  6
BYLAYER
 10
101.0684404379
 20
5.6399814306
 11
101.2752272832
 21
5.5921398063
  0
LINE
  8
LS-12V-72-W6S-28359
 62
7
  6
BYLAYER
 10
101.2752272832
 20
5.5921398063
 11
101.4518104115
 21
5.5889496847
  0
LINE
  8
LS-12V-72-W6S-28359
 62
7
  6
BYLAYER
 10
101.4518104115
 20
5.5889496847
 11
101.698230398
 21
5.6305982467
  0
LINE
  8
LS-12V-72-W6S-28359
 62
7
  6
BYLAYER
 10
101.698230398
 20
5.6305982467
 11
101.8156827988
 21
5.6848269621
  0
LINE
  8
LS-12V-72-W6S-28359
 62
7
  6
BYLAYER
 10
101.8156827988
 20
5.6848269621
 11
101.9216707585
 21
5.7590049403
  0
LINE
  8
LS-12V-72-W6S-28359
 62
7
  6
BYLAYER
 10
101.8375230551
 20
6.4865369248
 11
101.8665623498
 21
6.3650877466
  0
LINE
  8
LS-12V-72-W6S-28359
 62
7
  6
BYLAYER
 10
101.8665623498
 20
6.3650877466
 11
101.8728031121
 21
6.2403711223
  0
LINE
  8
LS-12V-72-W6S-28359
 62
7
  6
BYLAYER
 10
101.8728031121
 20
6.2403711223
 11
101.8221873547
 21
5.9942053197
  0
LINE
  8
LS-12V-72-W6S-28359
 62
7
  6
BYLAYER
 10
101.8221873547
 20
5.9942053197
 11
101.7767890908
 21
5.8967058815
  0
LINE
  8
LS-12V-72-W6S-28359
 62
7
  6
BYLAYER
 10
100.9689503026
 20
5.9934107239
 11
101.0124326142
 21
5.8954886748
  0
LINE
  8
LS-12V-72-W6S-28359
 62
7
  6
BYLAYER
 10
84.0172635309
 20
9.3696796997
 11
84.4647453204
 21
9.8297150402
  0
LINE
  8
LS-12V-72-W6S-28359
 62
7
  6
BYLAYER
 10
84.8383223825
 20
12.0856115265
 11
84.5881420667
 21
11.6674400962
  0
LINE
  8
LS-12V-72-W6S-28359
 62
7
  6
BYLAYER
 10
84.5881420667
 20
11.6674400962
 11
84.2269370276
 21
11.2774824171
  0
LINE
  8
LS-12V-72-W6S-28359
 62
7
  6
BYLAYER
 10
84.2269370276
 20
11.2774824171
 11
83.8246430716
 21
10.9550655146
  0
LINE
  8
LS-12V-72-W6S-28359
 62
7
  6
BYLAYER
 10
85.0167665134
 20
11.1575031094
 11
84.559788769
 21
10.4366673702
  0
LINE
  8
LS-12V-72-W6S-28359
 62
7
  6
BYLAYER
 10
84.559788769
 20
10.4366673702
 11
84.1432748322
 21
10.0121665889
  0
LINE
  8
LS-12V-72-W6S-28359
 62
7
  6
BYLAYER
 10
84.1432748322
 20
10.0121665889
 11
83.7709450083
 21
9.7232231318
  0
LINE
  8
LS-12V-72-W6S-28359
 62
7
  6
BYLAYER
 10
91.2777411556
 20
6.6813718337
 11
91.3675304896
 21
6.4975023479
  0
LINE
  8
LS-12V-72-W6S-28359
 62
7
  6
BYLAYER
 10
91.3675304896
 20
6.4975023479
 11
91.3974746038
 21
6.2878908459
  0
LINE
  8
LS-12V-72-W6S-28359
 62
7
  6
BYLAYER
 10
91.3974746038
 20
6.2878908459
 11
91.3534661426
 21
6.0299621342
  0
LINE
  8
LS-12V-72-W6S-28359
 62
7
  6
BYLAYER
 10
90.6487362961
 20
5.7188233169
 11
90.8412696407
 21
5.7362794983
  0
LINE
  8
LS-12V-72-W6S-28359
 62
7
  6
BYLAYER
 10
90.8412696407
 20
5.7362794983
 11
90.9923223168
 21
5.8187585502
  0
LINE
  8
LS-12V-72-W6S-28359
 62
7
  6
BYLAYER
 10
90.9923223168
 20
5.8187585502
 11
91.099036543
 21
6.0070777729
  0
LINE
  8
LS-12V-72-W6S-28359
 62
7
  6
BYLAYER
 10
91.099036543
 20
6.0070777729
 11
91.1336729053
 21
6.2456314463
  0
LINE
  8
LS-12V-72-W6S-28359
 62
7
  6
BYLAYER
 10
91.1336729053
 20
6.2456314463
 11
91.1284148742
 21
6.3394049212
  0
LINE
  8
LS-12V-72-W6S-28359
 62
7
  6
BYLAYER
 10
91.1284148742
 20
6.3394049212
 11
91.0901271619
 21
6.5123861702
  0
LINE
  8
LS-12V-72-W6S-28359
 62
7
  6
BYLAYER
 10
91.0901271619
 20
6.5123861702
 11
91.0259337224
 21
6.6568982807
  0
LINE
  8
LS-12V-72-W6S-28359
 62
7
  6
BYLAYER
 10
94.6572368775
 20
6.8778753939
 11
94.5172688139
 21
6.85936131
  0
LINE
  8
LS-12V-72-W6S-28359
 62
7
  6
BYLAYER
 10
94.5172688139
 20
6.85936131
 11
94.3408499484
 21
6.8042769877
  0
LINE
  8
LS-12V-72-W6S-28359
 62
7
  6
BYLAYER
 10
94.3408499484
 20
6.8042769877
 11
94.1320090032
 21
6.6464096151
  0
LINE
  8
LS-12V-72-W6S-28359
 62
7
  6
BYLAYER
 10
94.1320090032
 20
6.6464096151
 11
94.0146516719
 21
6.3935568503
  0
LINE
  8
LS-12V-72-W6S-28359
 62
7
  6
BYLAYER
 10
94.0146516719
 20
6.3935568503
 11
93.9947030081
 21
6.2183403435
  0
LINE
  8
LS-12V-72-W6S-28359
 62
7
  6
BYLAYER
 10
93.9947030081
 20
6.2183403435
 11
94.0656870779
 21
5.9131361488
  0
LINE
  8
LS-12V-72-W6S-28359
 62
7
  6
BYLAYER
 10
94.0656870779
 20
5.9131361488
 11
94.2354280634
 21
5.7190689521
  0
LINE
  8
LS-12V-72-W6S-28359
 62
7
  6
BYLAYER
 10
94.2354280634
 20
5.7190689521
 11
94.4780419369
 21
5.6217808085
  0
LINE
  8
LS-12V-72-W6S-28359
 62
7
  6
BYLAYER
 10
94.4780419369
 20
5.6217808085
 11
94.6744001485
 21
5.6073960471
  0
LINE
  8
LS-12V-72-W6S-28359
 62
7
  6
BYLAYER
 10
94.8593026089
 20
5.6917821292
 11
94.7272407743
 21
5.6743010199
  0
LINE
  8
LS-12V-72-W6S-28359
 62
7
  6
BYLAYER
 10
94.7272407743
 20
5.6743010199
 11
94.5827021465
 21
5.7008663601
  0
LINE
  8
LS-12V-72-W6S-28359
 62
7
  6
BYLAYER
 10
94.5827021465
 20
5.7008663601
 11
94.4277110809
 21
5.7903882424
  0
LINE
  8
LS-12V-72-W6S-28359
 62
7
  6
BYLAYER
 10
94.2534257324
 20
6.3594787138
 11
94.2445121292
 21
6.2382774568
  0
LINE
  8
LS-12V-72-W6S-28359
 62
7
  6
BYLAYER
 10
94.2445121292
 20
6.2382774568
 11
94.2674094118
 21
6.0584728648
  0
LINE
  8
LS-12V-72-W6S-28359
 62
7
  6
BYLAYER
 10
94.2674094118
 20
6.0584728648
 11
94.321703151
 21
5.9225821851
  0
LINE
  8
LS-12V-72-W6S-28359
 62
7
  6
BYLAYER
 10
94.6884644955
 20
6.7907082263
 11
94.4886236326
 21
6.7212605467
  0
LINE
  8
LS-12V-72-W6S-28359
 62
7
  6
BYLAYER
 10
94.4886236326
 20
6.7212605467
 11
94.3561445085
 21
6.6073585336
  0
LINE
  8
LS-12V-72-W6S-28359
 62
7
  6
BYLAYER
 10
94.3561445085
 20
6.6073585336
 11
94.2852070882
 21
6.4825639454
  0
LINE
  8
LS-12V-72-W6S-28359
 62
7
  6
BYLAYER
 10
95.4271208222
 20
6.7416022011
 11
95.4995085065
 21
6.7398540902
  0
LINE
  8
LS-12V-72-W6S-28359
 62
7
  6
BYLAYER
 10
95.4995085065
 20
6.7398540902
 11
95.8252928159
 21
6.7799956554
  0
LINE
  8
LS-12V-72-W6S-28359
 62
7
  6
BYLAYER
 10
96.0550899433
 20
6.7807343188
 11
96.3807947931
 21
6.7416022011
  0
LINE
  8
LS-12V-72-W6S-28359
 62
7
  6
BYLAYER
 10
96.3807947931
 20
6.7416022011
 11
96.4531824774
 21
6.7398540902
  0
LINE
  8
LS-12V-72-W6S-28359
 62
7
  6
BYLAYER
 10
90.816978668
 20
5.6358816726
 11
90.979168368
 21
5.6608496398
  0
LINE
  8
LS-12V-72-W6S-28359
 62
7
  6
BYLAYER
 10
90.979168368
 20
5.6608496398
 11
91.1912433849
 21
5.7830064727
  0
LINE
  8
LS-12V-72-W6S-28359
 62
7
  6
BYLAYER
 10
91.1912433849
 20
5.7830064727
 11
91.3534661426
 21
6.0299621342
  0
LINE
  8
LS-12V-72-W6S-28359
 62
7
  6
BYLAYER
 10
100.8063792018
 20
6.6320874296
 11
100.9567425922
 21
6.7850942
  0
LINE
  8
LS-12V-72-W6S-28359
 62
7
  6
BYLAYER
 10
100.9567425922
 20
6.7850942
 11
101.1501151278
 21
6.8710588809
  0
LINE
  8
LS-12V-72-W6S-28359
 62
7
  6
BYLAYER
 10
101.1501151278
 20
6.8710588809
 11
101.3448370973
 21
6.8979875058
  0
LINE
  8
LS-12V-72-W6S-28359
 62
7
  6
BYLAYER
 10
101.7904686411
 20
6.5873088887
 11
101.6918440368
 21
6.7049084078
  0
LINE
  8
LS-12V-72-W6S-28359
 62
7
  6
BYLAYER
 10
101.6918440368
 20
6.7049084078
 11
101.5872021093
 21
6.776504509
  0
LINE
  8
LS-12V-72-W6S-28359
 62
7
  6
BYLAYER
 10
101.846215418
 20
6.8053472464
 11
101.962053784
 21
6.6995586769
  0
LINE
  8
LS-12V-72-W6S-28359
 62
7
  6
BYLAYER
 10
101.962053784
 20
6.6995586769
 11
102.0326597965
 21
6.6057629116
  0
LINE
  8
LS-12V-72-W6S-28359
 62
7
  6
BYLAYER
 10
88.9329854343
 20
11.7045525471
 11
88.9329854343
 21
11.3985312409
  0
LINE
  8
LS-12V-72-W6S-28359
 62
7
  6
BYLAYER
 10
99.0690896949
 20
9.729032954
 11
97.6921539414
 21
9.729032954
  0
ARC
  8
LS-12V-72-W6S-28359
 62
7
  6
BYLAYER
 10
101.7374944175
 20
12.0248513842
 40
0.1996711106
 50
90.0
 51
180.0
  0
ARC
  8
LS-12V-72-W6S-28359
 62
7
  6
BYLAYER
 10
103.5712738976
 20
12.0248513842
 40
0.1996711106
 50
0.0
 51
90.0
  0
ARC
  8
LS-12V-72-W6S-28359
 62
7
  6
BYLAYER
 10
103.5712738976
 20
8.0989180068
 40
0.1996711106
 50
270.0
 51
360.0
  0
ARC
  8
LS-12V-72-W6S-28359
 62
7
  6
BYLAYER
 10
101.7374944175
 20
8.0989180068
 40
0.1996711106
 50
180.0
 51
270.0
  0
ENDBLK
  8
0
  6
BYBLOCK
 62
0
  0
BLOCK
  8
0
  2
_FILLED
 70
64
 10
0.0
 20
0.0
  0
SOLID
  8
0
  6
BYBLOCK
 62
0
 10
0.0
 20
0.0
 11
-1.0
 21
0.2142857143
 12
-1.0
 22
-0.2142857143
 13
-1.0
 23
-0.2142857143
  0
ENDBLK
  8
0
  6
BYBLOCK
 62
0
  0
BLOCK
  8
LS-12V-72-W6S-28354
 62
3
  6
BYLAYER
  2
*D0
 70
65
 10
0.0
 20
0.0
  0
TEXT
  8
LS-12V-72-W6S-28354
 62
3
  6
BYLAYER
 10
66.4252359053
 20
68.6463442597
  7
STANDARD
 40
1.75
  1
41,4
 41
0.85
 72
1
 11
69.4002359053
 21
68.6463442597
  0
LINE
  8
LS-12V-72-W6S-28354
 62
3
  6
BYLAYER
 10
90.1002359053
 20
55.4840918041
 11
90.1002359053
 21
68.9588442597
  0
LINE
  8
LS-12V-72-W6S-28354
 62
3
  6
BYLAYER
 10
48.7002359053
 20
55.4840918041
 11
48.7002359053
 21
68.9588442597
  0
LINE
  8
LS-12V-72-W6S-28354
 62
3
  6
BYLAYER
 10
90.1002359053
 20
68.2088442597
 11
69.4002359053
 21
68.2088442597
  0
LINE
  8
LS-12V-72-W6S-28354
 62
3
  6
BYLAYER
 10
48.7002359053
 20
68.2088442597
 11
69.4002359053
 21
68.2088442597
  0
INSERT
  8
LS-12V-72-W6S-28354
 62
3
  6
BYLAYER
  2
_FILLED
 10
90.1002359053
 20
68.2088442597
 41
1.75
 42
1.75
 43
1.75
  0
INSERT
  8
LS-12V-72-W6S-28354
 62
3
  6
BYLAYER
  2
_FILLED
 10
48.7002359053
 20
68.2088442597
 41
1.75
 42
1.75
 43
1.75
 50
180.0
  0
ENDBLK
  8
0
  6
BYBLOCK
 62
0
  0
BLOCK
  8
LS-12V-72-W6S-28354
 62
3
  6
BYLAYER
  2
*D1
 70
65
 10
0.0
 20
0.0
  0
TEXT
  8
LS-12V-72-W6S-28354
 62
3
  6
BYLAYER
 10
43.2627359053
 20
50.7403418041
  7
STANDARD
 40
1.75
  1
7
 50
90.0
 41
0.85
 72
1
 11
43.2627359053
 21
51.4840918041
  0
LINE
  8
LS-12V-72-W6S-28354
 62
3
  6
BYLAYER
 10
48.2002359053
 20
47.9840918041
 11
42.9502359053
 21
47.9840918041
  0
LINE
  8
LS-12V-72-W6S-28354
 62
3
  6
BYLAYER
 10
48.2002359053
 20
54.9840918041
 11
42.9502359053
 21
54.9840918041
  0
LINE
  8
LS-12V-72-W6S-28354
 62
3
  6
BYLAYER
 10
43.7002359053
 20
47.9840918041
 11
43.7002359053
 21
51.4840918041
  0
LINE
  8
LS-12V-72-W6S-28354
 62
3
  6
BYLAYER
 10
43.7002359053
 20
54.9840918041
 11
43.7002359053
 21
51.4840918041
  0
INSERT
  8
LS-12V-72-W6S-28354
 62
3
  6
BYLAYER
  2
_FILLED
 10
43.7002359053
 20
47.9840918041
 41
1.75
 42
1.75
 43
1.75
 50
270.0
  0
INSERT
  8
LS-12V-72-W6S-28354
 62
3
  6
BYLAYER
  2
_FILLED
 10
43.7002359053
 20
54.9840918041
 41
1.75
 42
1.75
 43
1.75
 50
90.0
  0
ENDBLK
  8
0
  6
BYBLOCK
 62
0
  0
BLOCK
  8
LS-12V-72-W6S-28354
 62
3
  6
BYLAYER
  2
*D2
 70
65
 10
0.0
 20
0.0
  0
TEXT
  8
LS-12V-72-W6S-28354
 62
3
  6
BYLAYER
 10
57.3252359053
 20
64.6463442597
  7
STANDARD
 40
1.75
  1
13,6
 41
0.85
 72
1
 11
60.3002359053
 21
64.6463442597
  0
LINE
  8
LS-12V-72-W6S-28354
 62
3
  6
BYLAYER
 10
67.1002359053
 20
53.8340918041
 11
67.1002359053
 21
64.9588442597
  0
LINE
  8
LS-12V-72-W6S-28354
 62
3
  6
BYLAYER
 10
53.5002359053
 20
53.8340918041
 11
53.5002359053
 21
64.9588442597
  0
LINE
  8
LS-12V-72-W6S-28354
 62
3
  6
BYLAYER
 10
67.1002359053
 20
64.2088442597
 11
60.3002359053
 21
64.2088442597
  0
LINE
  8
LS-12V-72-W6S-28354
 62
3
  6
BYLAYER
 10
53.5002359053
 20
64.2088442597
 11
60.3002359053
 21
64.2088442597
  0
INSERT
  8
LS-12V-72-W6S-28354
 62
3
  6
BYLAYER
  2
_FILLED
 10
67.1002359053
 20
64.2088442597
 41
1.75
 42
1.75
 43
1.75
  0
INSERT
  8
LS-12V-72-W6S-28354
 62
3
  6
BYLAYER
  2
_FILLED
 10
53.5002359053
 20
64.2088442597
 41
1.75
 42
1.75
 43
1.75
 50
180.0
  0
ENDBLK
  8
0
  6
BYBLOCK
 62
0
  0
BLOCK
  8
LS-12V-72-W6S-28354
 62
3
  6
BYLAYER
  2
*D3
 70
65
 10
0.0
 20
0.0
  0
TEXT
  8
LS-12V-72-W6S-28354
 62
3
  6
BYLAYER
 10
42.7224798228
 20
64.6463442597
  7
STANDARD
 40
1.75
  1
4,8
 41
0.85
 72
2
 11
47.1849798228
 21
64.6463442597
  0
LINE
  8
LS-12V-72-W6S-28354
 62
3
  6
BYLAYER
 10
48.7002359053
 20
55.4840918041
 11
48.7002359053
 21
64.9588442597
  0
LINE
  8
LS-12V-72-W6S-28354
 62
3
  6
BYLAYER
 10
53.5002359053
 20
53.8340918041
 11
53.5002359053
 21
64.9588442597
  0
LINE
  8
LS-12V-72-W6S-28354
 62
3
  6
BYLAYER
 10
48.7002359053
 20
64.2088442597
 11
51.1002359053
 21
64.2088442597
  0
LINE
  8
LS-12V-72-W6S-28354
 62
3
  6
BYLAYER
 10
51.1002359053
 20
64.2088442597
 11
42.7224798228
 21
64.2088442597
  0
LINE
  8
LS-12V-72-W6S-28354
 62
3
  6
BYLAYER
 10
53.5002359053
 20
64.2088442597
 11
51.1002359053
 21
64.2088442597
  0
INSERT
  8
LS-12V-72-W6S-28354
 62
3
  6
BYLAYER
  2
_FILLED
 10
48.7002359053
 20
64.2088442597
 41
1.75
 42
1.75
 43
1.75
 50
180.0
  0
INSERT
  8
LS-12V-72-W6S-28354
 62
3
  6
BYLAYER
  2
_FILLED
 10
53.5002359053
 20
64.2088442597
 41
1.75
 42
1.75
 43
1.75
  0
ENDBLK
  8
0
  6
BYBLOCK
 62
0
  0
BLOCK
  8
LS-12V-72-W6S-28354
 62
3
  6
BYLAYER
  2
*D4
 70
65
 10
0.0
 20
0.0
  0
TEXT
  8
LS-12V-72-W6S-28354
 62
3
  6
BYLAYER
 10
43.2627359053
 20
83.6859926936
  7
STANDARD
 40
1.75
  1
1
 50
90.0
 41
0.85
 72
0
  0
LINE
  8
LS-12V-72-W6S-28354
 62
3
  6
BYLAYER
 10
51.6133288661
 20
79.9734926936
 11
42.9502359053
 21
79.9734926936
  0
LINE
  8
LS-12V-72-W6S-28354
 62
3
  6
BYLAYER
 10
48.2002359053
 20
78.9734926936
 11
42.9502359053
 21
78.9734926936
  0
LINE
  8
LS-12V-72-W6S-28354
 62
3
  6
BYLAYER
 10
43.7002359053
 20
79.9734926936
 11
43.7002359053
 21
85.1734926936
  0
LINE
  8
LS-12V-72-W6S-28354
 62
3
  6
BYLAYER
 10
43.7002359053
 20
85.1734926936
 11
43.7002359053
 21
79.4734926936
  0
LINE
  8
LS-12V-72-W6S-28354
 62
3
  6
BYLAYER
 10
43.7002359053
 20
78.9734926936
 11
43.7002359053
 21
76.4734926936
  0
LINE
  8
LS-12V-72-W6S-28354
 62
3
  6
BYLAYER
 10
43.7002359053
 20
76.4734926936
 11
43.7002359053
 21
79.4734926936
  0
INSERT
  8
LS-12V-72-W6S-28354
 62
3
  6
BYLAYER
  2
_FILLED
 10
43.7002359053
 20
79.9734926936
 41
1.75
 42
1.75
 43
1.75
 50
270.0
  0
INSERT
  8
LS-12V-72-W6S-28354
 62
3
  6
BYLAYER
  2
_FILLED
 10
43.7002359053
 20
78.9734926936
 41
1.75
 42
1.75
 43
1.75
 50
90.0
  0
ENDBLK
  8
0
  6
BYBLOCK
 62
0
  0
ENDSEC
  0
SECTION
  2
ENTITIES
  0
TEXT
  8
LS-12V-72-W6S-28359
 62
7
  6
BYLAYER
 10
143.2499999228
 20
87.4999973883
  7
TEXTSTYLE_2
 40
1.250005
  1
D
 41
0.9047619048
 72
0
  0
TEXT
  8
LS-12V-72-W6S-28359
 62
7
  6
BYLAYER
 10
143.2500001029
 20
63.7499973389
  7
TEXTSTYLE_2
 40
1.250005
  1
C
 50
180.0
 41
0.8333333333
 71
2
 72
2
 11
144.2916709362
 21
63.7499973389
  0
TEXT
  8
LS-12V-72-W6S-28359
 62
7
  6
BYLAYER
 10
143.249999826
 20
39.9999973971
  7
TEXTSTYLE_2
 40
1.250005
  1
B
 41
0.7857142857
 72
0
  0
TEXT
  8
LS-12V-72-W6S-28359
 62
7
  6
BYLAYER
 10
4.6190430952
 20
87.4999975
  7
TEXTSTYLE_2
 40
1.250005
  1
D
 41
0.9047619048
 72
2
 11
5.75
 21
87.4999975
  0
TEXT
  8
LS-12V-72-W6S-28359
 62
7
  6
BYLAYER
 10
4.7083289865
 20
63.7499974506
  7
TEXTSTYLE_2
 40
1.250005
  1
C
 41
0.8333333333
 72
2
 11
5.7499998199
 21
63.7499974506
  0
TEXT
  8
LS-12V-72-W6S-28359
 62
7
  6
BYLAYER
 10
4.6785672621
 20
16.2499975378
  7
TEXTSTYLE_2
 40
1.250005
  1
A
 41
0.8571428571
 72
2
 11
5.7500001192
 21
16.2499975378
  0
TEXT
  8
LS-12V-72-W6S-28359
 62
7
  6
BYLAYER
 10
4.767853311
 20
39.9999975088
  7
TEXTSTYLE_2
 40
1.250005
  1
B
 41
0.7857142857
 72
2
 11
5.7500000967
 21
39.9999975088
  0
TEXT
  8
LS-12V-72-W6S-28359
 62
7
  6
BYLAYER
 10
131.5914672573
 20
99.6646393553
  7
TEXTSTYLE_2
 40
1.250005
  1
1
 41
0.5714285714
 72
0
  0
TEXT
  8
LS-12V-72-W6S-28359
 62
7
  6
BYLAYER
 10
108.2597190597
 20
99.6646393553
  7
TEXTSTYLE_2
 40
1.250005
  1
2
 41
0.7857142857
 72
2
 11
109.2418658454
 21
99.6646393553
  0
TEXT
  8
LS-12V-72-W6S-28359
 62
7
  6
BYLAYER
 10
85.4248005906
 20
99.6646393553
  7
TEXTSTYLE_2
 40
1.250005
  1
3
 41
0.7142857143
 72
0
  0
TEXT
  8
LS-12V-72-W6S-28359
 62
7
  6
BYLAYER
 10
62.093052393
 20
99.6646393553
  7
TEXTSTYLE_2
 40
1.250005
  1
4
 41
0.7857142857
 72
2
 11
63.0751991787
 21
99.6646393553
  0
TEXT
  8
LS-12V-72-W6S-28359
 62
7
  6
BYLAYER
 10
39.2581339239
 20
99.6646393553
  7
TEXTSTYLE_2
 40
1.250005
  1
5
 41
0.7142857143
 72
0
  0
TEXT
  8
LS-12V-72-W6S-28359
 62
7
  6
BYLAYER
 10
15.9263857263
 20
99.6646393553
  7
TEXTSTYLE_2
 40
1.250005
  1
6
 41
0.7857142857
 72
2
 11
16.9085325121
 21
99.6646393553
  0
TEXT
  8
LS-12V-72-W6S-28359
 62
7
  6
BYLAYER
 10
39.2581341613
 20
4.1646390375
  7
TEXTSTYLE_2
 40
1.250005
  1
5
 41
0.7142857143
 72
0
  0
TEXT
  8
LS-12V-72-W6S-28359
 62
7
  6
BYLAYER
 10
15.9263859637
 20
4.1646390375
  7
TEXTSTYLE_2
 40
1.250005
  1
6
 41
0.7857142857
 72
2
 11
16.9085327494
 21
4.1646390375
  0
INSERT
  8
LS-12V-72-W6S-28359
 62
7
  6
BYLAYER
  2
SYMBOL_179_BL0
 10
93.757833805
 20
8.8995111363
  0
DIMENSION
  8
LS-12V-72-W6S-28354
 62
3
  6
BYLAYER
  2
*D0
 10
48.7002359053
 20
68.2088442597
 11
66.4252359053
 21
69.5213442597
 70
128
 13
90.1002359053
 23
55.4840918041
 14
48.7002359053
 24
55.4840918041
 50
180.0
  0
DIMENSION
  8
LS-12V-72-W6S-28354
 62
3
  6
BYLAYER
  2
*D1
 10
43.7002359053
 20
54.9840918041
 11
42.7209906573
 21
50.8191817856
 70
128
 13
48.2002359053
 23
47.9840918041
 14
48.2002359053
 24
54.9840918041
 50
90.0
  0
DIMENSION
  8
LS-12V-72-W6S-28354
 62
3
  6
BYLAYER
  2
*D2
 10
53.5002359053
 20
64.2088442597
 11
57.3252359053
 21
65.5213442597
 70
128
 13
67.1002359053
 23
53.8340918041
 14
53.5002359053
 24
53.8340918041
 50
180.0
  0
DIMENSION
  8
LS-12V-72-W6S-28354
 62
3
  6
BYLAYER
  2
*D3
 10
53.5002359053
 20
64.2088442597
 11
40.4912298228
 21
65.5213442597
 70
128
 13
48.7002359053
 23
55.4840918041
 14
53.5002359053
 24
53.8340918041
  0
DIMENSION
  8
LS-12V-72-W6S-28354
 62
3
  6
BYLAYER
  2
*D4
 10
43.7002359053
 20
78.9734926936
 11
42.3877359053
 21
84.4297426936
 70
128
 13
51.6133288661
 23
79.9734926936
 14
48.2002359053
 24
78.9734926936
 50
270.0
  0
LINE
  8
LS-12V-72-W6S-28359
 62
3
  6
BYLAYER
 10
51.3999999228
 20
31.1249997732
 11
144.9999999228
 21
31.1249997732
  0
LINE
  8
LS-12V-72-W6S-28359
 62
3
  6
BYLAYER
 10
51.3999999228
 20
31.1249997732
 11
51.3999999228
 21
3.4999997732
  0
LINE
  8
LS-12V-72-W6S-28359
 62
3
  6
BYLAYER
 10
104.7999999228
 20
26.8749997732
 11
144.9999999228
 21
26.8749997732
  0
LINE
  8
LS-12V-72-W6S-28359
 62
3
  6
BYLAYER
 10
51.3999999228
 20
22.6249997732
 11
144.9999999228
 21
22.6249997732
  0
LINE
  8
LS-12V-72-W6S-28359
 62
3
  6
BYLAYER
 10
51.3999999228
 20
20.4999997732
 11
78.6999999228
 21
20.4999997732
  0
LINE
  8
LS-12V-72-W6S-28359
 62
3
  6
BYLAYER
 10
82.6999999228
 20
20.4999997732
 11
104.7999999228
 21
20.4999997732
  0
LINE
  8
LS-12V-72-W6S-28359
 62
3
  6
BYLAYER
 10
51.3999999228
 20
18.3749997732
 11
78.6999999228
 21
18.3749997732
  0
LINE
  8
LS-12V-72-W6S-28359
 62
3
  6
BYLAYER
 10
82.6999999228
 20
18.3749997732
 11
104.7999999228
 21
18.3749997732
  0
LINE
  8
LS-12V-72-W6S-28359
 62
3
  6
BYLAYER
 10
51.3999999228
 20
16.2499997732
 11
78.6999999228
 21
16.2499997732
  0
LINE
  8
LS-12V-72-W6S-28359
 62
3
  6
BYLAYER
 10
82.6999999228
 20
16.2499997732
 11
144.9999999228
 21
16.2499997732
  0
LINE
  8
LS-12V-72-W6S-28359
 62
3
  6
BYLAYER
 10
51.3999999228
 20
14.1249997732
 11
78.6999999228
 21
14.1249997732
  0
LINE
  8
LS-12V-72-W6S-28359
 62
3
  6
BYLAYER
 10
82.6999999228
 20
14.1249997732
 11
104.7999999228
 21
14.1249997732
  0
LINE
  8
LS-12V-72-W6S-28359
 62
3
  6
BYLAYER
 10
51.3999999228
 20
11.9999997732
 11
78.6999999228
 21
11.9999997732
  0
LINE
  8
LS-12V-72-W6S-28359
 62
3
  6
BYLAYER
 10
104.7999999228
 20
11.9999997732
 11
144.9999999228
 21
11.9999997732
  0
LINE
  8
LS-12V-72-W6S-28359
 62
3
  6
BYLAYER
 10
51.3999999228
 20
9.8749997732
 11
78.6999999228
 21
9.8749997732
  0
LINE
  8
LS-12V-72-W6S-28359
 62
3
  6
BYLAYER
 10
51.3999999228
 20
7.7499997732
 11
78.6999999228
 21
7.7499997732
  0
LINE
  8
LS-12V-72-W6S-28359
 62
3
  6
BYLAYER
 10
104.7999999228
 20
7.7499997732
 11
138.2999999228
 21
7.7499997732
  0
LINE
  8
LS-12V-72-W6S-28359
 62
3
  6
BYLAYER
 10
51.3999999228
 20
5.6249997732
 11
78.6999999228
 21
5.6249997732
  0
LINE
  8
LS-12V-72-W6S-28359
 62
3
  6
BYLAYER
 10
51.3999999228
 20
3.4999997732
 11
144.9999999228
 21
3.4999997732
  0
LINE
  8
LS-12V-72-W6S-28359
 62
3
  6
BYLAYER
 10
55.2999999228
 20
22.6249997732
 11
55.2999999228
 21
3.4999997732
  0
LINE
  8
LS-12V-72-W6S-28359
 62
3
  6
BYLAYER
 10
68.2999999228
 20
22.6249997732
 11
68.2999999228
 21
3.4999997732
  0
LINE
  8
LS-12V-72-W6S-28359
 62
3
  6
BYLAYER
 10
74.7999999228
 20
22.6249997732
 11
74.7999999228
 21
3.4999997732
  0
LINE
  8
LS-12V-72-W6S-28359
 62
3
  6
BYLAYER
 10
78.6999999228
 20
22.6249997732
 11
78.6999999228
 21
3.4999997732
  0
LINE
  8
LS-12V-72-W6S-28359
 62
3
  6
BYLAYER
 10
82.6999999228
 20
31.1249997732
 11
82.6999999228
 21
3.4999997732
  0
LINE
  8
LS-12V-72-W6S-28359
 62
3
  6
BYLAYER
 10
89.6999999228
 20
22.6249997732
 11
89.6999999228
 21
14.1249997732
  0
LINE
  8
LS-12V-72-W6S-28359
 62
3
  6
BYLAYER
 10
97.2999999228
 20
31.1249997732
 11
97.2999999228
 21
14.1249997732
  0
LINE
  8
LS-12V-72-W6S-28359
 62
3
  6
BYLAYER
 10
104.7999999228
 20
31.1249997732
 11
104.7999999228
 21
3.4999997732
  0
LINE
  8
LS-12V-72-W6S-28359
 62
3
  6
BYLAYER
 10
114.7999999228
 20
31.1249997732
 11
114.7999999228
 21
26.8749997732
  0
LINE
  8
LS-12V-72-W6S-28359
 62
3
  6
BYLAYER
 10
132.2999999228
 20
31.1249997732
 11
132.2999999228
 21
22.6249997732
  0
LINE
  8
LS-12V-72-W6S-28359
 62
3
  6
BYLAYER
 10
138.2999999228
 20
16.2499997732
 11
138.2999999228
 21
3.4999997732
  0
LINE
  8
LS-12V-72-W6S-28359
 62
3
  6
BYLAYER
 10
144.9999999228
 20
31.1249997732
 11
144.9999999228
 21
3.4999997732
  0
TEXT
  8
LS-12V-72-W6S-28359
 62
3
  6
BYLAYER
 10
51.8687499228
 20
27.1874997732
  7
TEXTSTYLE_3
 40
1.25
  1
文档及其包含的信息属于德恩基机密资料,
 41
0.7879699248
 72
0
  0
TEXT
  8
LS-12V-72-W6S-28359
 62
3
  6
BYLAYER
 10
51.8687499228
 20
25.3124997732
  7
TEXTSTYLE_3
 40
1.25
  1
未得到德恩基的书面确认之前不得复印或泄漏整个或部分内容.
 41
0.7918367347
 72
0
  0
TEXT
  8
LS-12V-72-W6S-28359
 62
3
  6
BYLAYER
 10
83.1687499228
 20
28.3749997732
  7
TEXTSTYLE_3
 40
1.5
  1
尺寸单位:mm
 41
0.7734693878
 72
0
  0
TEXT
  8
LS-12V-72-W6S-28359
 62
3
  6
BYLAYER
 10
83.1687499228
 20
26.1249997732
  7
TEXTSTYLE_3
 40
1.5
  1
未注公差按执行标准
 41
0.8
 72
0
  0
TEXT
  8
LS-12V-72-W6S-28359
 62
3
  6
BYLAYER
 10
83.1687499228
 20
23.8749997732
  7
TEXTSTYLE_3
 40
1.5
  1
DIN ISO 2768
 41
0.7718253968
 72
0
  0
TEXT
  8
LS-12V-72-W6S-28359
 62
3
  6
BYLAYER
 10
99.4499999228
 20
27.9999997732
  7
TEXTSTYLE_3
 40
2.0
  1
比例
 41
0.8
 72
1
 11
101.0499999228
 21
27.9999997732
  0
TEXT
  8
LS-12V-72-W6S-28359
 62
3
  6
BYLAYER
 10
105.2687499228
 20
27.9999997732
  7
TEXTSTYLE_3
 40
2.0
  1
色温:
 41
0.6523809524
 72
0
  0
TEXT
  8
LS-12V-72-W6S-28359
 62
3
  6
BYLAYER
 10
132.7687499228
 20
29.3124997732
  7
TEXTSTYLE_3
 40
1.5
  1
重量
 41
0.8
 72
0
  0
TEXT
  8
LS-12V-72-W6S-28359
 62
3
  6
BYLAYER
 10
98.264285637
 20
23.9999997732
  7
TEXTSTYLE_4
 40
1.5
  1
2,000
 41
0.7428571429
 72
1
 11
101.0499999228
 21
23.9999997732
  0
TEXT
  8
LS-12V-72-W6S-28359
 62
3
  6
BYLAYER
 10
52.8982142085
 20
20.9874997732
  7
TEXTSTYLE_4
 40
1.15
  1
8
 41
0.7857142857
 72
1
 11
53.3499999228
 21
20.9874997732
  0
TEXT
  8
LS-12V-72-W6S-28359
 62
3
  6
BYLAYER
 10
81.6062499228
 20
6.8720235827
  7
TEXTSTYLE_2
 40
2.5
  1
CAD-A4
 50
90.0
 41
0.8253968254
 72
2
 11
81.6062499228
 21
19.2529759637
  0
TEXT
  8
LS-12V-72-W6S-28359
 62
3
  6
BYLAYER
 10
91.9999999228
 20
20.8124997732
  7
TEXTSTYLE_5
 40
1.5
  1
日期
 41
1.0
 72
1
 11
93.4999999228
 21
20.8124997732
  0
TEXT
  8
LS-12V-72-W6S-28359
 62
3
  6
BYLAYER
 10
99.5499999228
 20
20.8124997732
  7
TEXTSTYLE_5
 40
1.5
  1
姓名
 41
1.0
 72
1
 11
101.0499999228
 21
20.8124997732
  0
TEXT
  8
LS-12V-72-W6S-28359
 62
3
  6
BYLAYER
 10
105.2687499228
 20
20.8124997732
  7
TEXTSTYLE_3
 40
1.5
  1
零件名称:
 41
0.7114285714
 72
0
  0
TEXT
  8
LS-12V-72-W6S-28359
 62
3
  6
BYLAYER
 10
52.8982142085
 20
18.8624997732
  7
TEXTSTYLE_4
 40
1.15
  1
7
 41
0.7857142857
 72
1
 11
53.3499999228
 21
18.8624997732
  0
TEXT
  8
LS-12V-72-W6S-28359
 62
3
  6
BYLAYER
 10
83.1687499228
 20
18.6874997732
  7
TEXTSTYLE_5
 40
1.5
  1
设计
 41
1.0
 72
0
  0
TEXT
  8
LS-12V-72-W6S-28359
 62
3
  6
BYLAYER
 10
89.8857142085
 20
18.8874997732
  7
TEXTSTYLE_4
 40
1.1
  1
15-Aug-20
 41
0.7301587302
 72
1
 11
93.4999999228
 21
18.8874997732
  0
TEXT
  8
LS-12V-72-W6S-28359
 62
3
  6
BYLAYER
 10
97.2440475418
 20
18.8624997732
  7
TEXTSTYLE_4
 40
1.15
  1
David Cao
 41
0.7354497354
 72
1
 11
101.0499999228
 21
18.8624997732
  0
TEXT
  8
LS-12V-72-W6S-28359
 62
3
  6
BYLAYER
 10
110.9238094466
 20
17.3749997732
  7
TEXTSTYLE_4
 40
2.0
  1
LS-12V-72-W6S-2835
 41
0.7764550265
 72
1
 11
124.8999999228
 21
17.3749997732
  0
TEXT
  8
LS-12V-72-W6S-28359
 62
3
  6
BYLAYER
 10
52.8982142085
 20
16.7374997732
  7
TEXTSTYLE_4
 40
1.15
  1
6
 41
0.7857142857
 72
1
 11
53.3499999228
 21
16.7374997732
  0
TEXT
  8
LS-12V-72-W6S-28359
 62
3
  6
BYLAYER
 10
83.1687499228
 20
16.5624997732
  7
TEXTSTYLE_5
 40
1.5
  1
检验
 41
1.0
 72
0
  0
TEXT
  8
LS-12V-72-W6S-28359
 62
3
  6
BYLAYER
 10
52.939285637
 20
14.6124997732
  7
TEXTSTYLE_4
 40
1.15
  1
5
 41
0.7142857143
 72
1
 11
53.3499999228
 21
14.6124997732
  0
TEXT
  8
LS-12V-72-W6S-28359
 62
3
  6
BYLAYER
 10
83.1687499228
 20
14.4374997732
  7
TEXTSTYLE_5
 40
1.5
  1
核准
 41
1.0
 72
0
  0
TEXT
  8
LS-12V-72-W6S-28359
 62
3
  6
BYLAYER
 10
105.2687499228
 20
14.4374997732
  7
TEXTSTYLE_3
 40
1.5
  1
产品编号:
 41
0.7114285714
 72
0
  0
TEXT
  8
LS-12V-72-W6S-28359
 62
3
  6
BYLAYER
 10
138.7687499228
 20
14.4374997732
  7
TEXTSTYLE_3
 40
1.5
  1
版本:
 41
0.6523809524
 72
0
  0
TEXT
  8
LS-12V-72-W6S-28359
 62
3
  6
BYLAYER
 10
52.8982142085
 20
12.4874997732
  7
TEXTSTYLE_4
 40
1.15
  1
4
 41
0.7857142857
 72
1
 11
53.3499999228
 21
12.4874997732
  0
TEXT
  8
LS-12V-72-W6S-28359
 62
3
  6
BYLAYER
 10
142.2860118275
 20
12.4874997732
  7
TEXTSTYLE_7
 40
1.15
  1
A
 41
1.0
 72
2
 11
143.6276784942
 21
12.4874997732
  0
TEXT
  8
LS-12V-72-W6S-28359
 62
3
  6
BYLAYER
 10
143.6276784942
 20
12.4874997732
  7
TEXTSTYLE_4
 40
1.15
  1
0
 41
0.7857142857
 72
2
 11
144.5312499228
 21
12.4874997732
  0
TEXT
  8
LS-12V-72-W6S-28359
 62
3
  6
BYLAYER
 10
52.939285637
 20
10.3624997732
  7
TEXTSTYLE_4
 40
1.15
  1
3
 41
0.7142857143
 72
1
 11
53.3499999228
 21
10.3624997732
  0
TEXT
  8
LS-12V-72-W6S-28359
 62
3
  6
BYLAYER
 10
138.7687499228
 20
10.1874997732
  7
TEXTSTYLE_3
 40
1.5
  1
页次:
 41
0.6523809524
 72
0
  0
TEXT
  8
LS-12V-72-W6S-28359
 62
3
  6
BYLAYER
 10
52.8982142085
 20
8.2374997732
  7
TEXTSTYLE_4
 40
1.15
  1
2
 41
0.7857142857
 72
1
 11
53.3499999228
 21
8.2374997732
  0
TEXT
  8
LS-12V-72-W6S-28359
 62
3
  6
BYLAYER
 10
141.2928570656
 20
8.1874997732
  7
TEXTSTYLE_4
 40
1.25
  1
1
 41
0.5714285714
 72
1
 11
141.6499999228
 21
8.1874997732
  0
TEXT
  8
LS-12V-72-W6S-28359
 62
3
  6
BYLAYER
 10
53.0214284942
 20
6.1124997732
  7
TEXTSTYLE_4
 40
1.15
  1
1
 41
0.5714285714
 72
1
 11
53.3499999228
 21
6.1124997732
  0
TEXT
  8
LS-12V-72-W6S-28359
 62
3
  6
BYLAYER
 10
105.2687499228
 20
5.9374997732
  7
TEXTSTYLE_3
 40
1.5
  1
项目号
 41
0.8
 72
0
  0
TEXT
  8
LS-12V-72-W6S-28359
 62
3
  6
BYLAYER
 10
140.7874999228
 20
6.1124997732
  7
TEXTSTYLE_4
 40
1.15
  1
OF
 41
0.75
 72
1
 11
141.6499999228
 21
6.1124997732
  0
TEXT
  8
LS-12V-72-W6S-28359
 62
3
  6
BYLAYER
 10
52.1589284942
 20
3.9874997732
  7
TEXTSTYLE_4
 40
1.15
  1
No.
 41
0.6904761905
 72
1
 11
53.3499999228
 21
3.9874997732
  0
TEXT
  8
LS-12V-72-W6S-28359
 62
3
  6
BYLAYER
 10
60.6499999228
 20
3.9874997732
  7
TEXTSTYLE_5
 40
1.15
  1
内容
 41
1.0
 72
1
 11
61.7999999228
 21
3.9874997732
  0
TEXT
  8
LS-12V-72-W6S-28359
 62
3
  6
BYLAYER
 10
70.3999999228
 20
3.9874997732
  7
TEXTSTYLE_5
 40
1.15
  1
日期
 41
1.0
 72
1
 11
71.5499999228
 21
3.9874997732
  0
TEXT
  8
LS-12V-72-W6S-28359
 62
3
  6
BYLAYER
 10
75.5999999228
 20
3.9874997732
  7
TEXTSTYLE_5
 40
1.15
  1
姓名
 41
1.0
 72
1
 11
76.7499999228
 21
3.9874997732
  0
TEXT
  8
LS-12V-72-W6S-28359
 62
3
  6
BYLAYER
 10
141.2928570656
 20
3.9374997732
  7
TEXTSTYLE_4
 40
1.25
  1
1
 41
0.5714285714
 72
1
 11
141.6499999228
 21
3.9374997732
  0
LINE
  8
LS-12V-72-W6S-28359
 62
7
  6
BYLAYER
 10
3.5000001517
 20
3.4999997732
 11
3.5000001517
 21
101.500000091
  0
LINE
  8
LS-12V-72-W6S-28359
 62
7
  6
BYLAYER
 10
6.0000001517
 20
5.9999997732
 11
6.0000001517
 21
99.000000091
  0
LINE
  8
LS-12V-72-W6S-28359
 62
7
  6
BYLAYER
 10
28.0833334553
 20
5.9999997732
 11
28.0833334553
 21
3.4999997732
  0
LINE
  8
LS-12V-72-W6S-28359
 62
7
  6
BYLAYER
 10
28.083333218
 20
99.000000091
 11
28.083333218
 21
101.500000091
  0
LINE
  8
LS-12V-72-W6S-28359
 62
7
  6
BYLAYER
 10
3.5000001517
 20
3.4999997732
 11
144.9999999228
 21
3.4999997732
  0
LINE
  8
LS-12V-72-W6S-28359
 62
7
  6
BYLAYER
 10
6.0000001517
 20
5.9999997732
 11
51.3999999228
 21
5.9999997732
  0
LINE
  8
LS-12V-72-W6S-28359
 62
3
  6
BYLAYER
 10
139.7483438918
 20
25.5306031055
 11
142.2483438918
 21
26.1556031055
  0
LINE
  8
LS-12V-72-W6S-28359
 62
3
  6
BYLAYER
 10
142.6509996526
 20
24.8882054838
 11
139.3253784253
 21
24.8882054838
  0
LINE
  8
LS-12V-72-W6S-28359
 62
3
  6
BYLAYER
 10
137.1082976071
 20
24.8882054838
 11
133.681899979
 21
24.8882054838
  0
LINE
  8
LS-12V-72-W6S-28359
 62
7
  6
BYLAYER
 10
51.1666667887
 20
5.9999997732
 11
51.1666667887
 21
3.4999997732
  0
LINE
  8
LS-12V-72-W6S-28359
 62
7
  6
BYLAYER
 10
51.1666665513
 20
99.000000091
 11
51.1666665513
 21
101.500000091
  0
LINE
  8
LS-12V-72-W6S-28359
 62
7
  6
BYLAYER
 10
6.0000001517
 20
28.7500001573
 11
3.5000001517
 21
28.7500001573
  0
LINE
  8
LS-12V-72-W6S-28359
 62
3
  6
BYLAYER
 10
139.7483438918
 20
24.2806031055
 11
142.2483438918
 21
23.6556031055
  0
LINE
  8
LS-12V-72-W6S-28359
 62
7
  6
BYLAYER
 10
74.2499998847
 20
99.000000091
 11
74.2499998847
 21
101.500000091
  0
LINE
  8
LS-12V-72-W6S-28359
 62
7
  6
BYLAYER
 10
142.4999999228
 20
52.4999998883
 11
144.9999999228
 21
52.4999998883
  0
LINE
  8
LS-12V-72-W6S-28359
 62
7
  6
BYLAYER
 10
6.0000001517
 20
52.5000001573
 11
3.5000001517
 21
52.5000001573
  0
LINE
  8
LS-12V-72-W6S-28359
 62
7
  6
BYLAYER
 10
97.3333332527
 20
101.5000000697
 11
97.3333332527
 21
99.0000000697
  0
LINE
  8
LS-12V-72-W6S-28359
 62
7
  6
BYLAYER
 10
6.0000001517
 20
76.2500001573
 11
3.5000001517
 21
76.2500001573
  0
LINE
  8
LS-12V-72-W6S-28359
 62
7
  6
BYLAYER
 10
142.4999999228
 20
76.2499998883
 11
144.9999999228
 21
76.2499998883
  0
LINE
  8
LS-12V-72-W6S-28359
 62
7
  6
BYLAYER
 10
120.4166665513
 20
99.000000091
 11
120.4166665513
 21
101.500000091
  0
LINE
  8
LS-12V-72-W6S-28359
 62
7
  6
BYLAYER
 10
6.0000001517
 20
99.000000091
 11
142.4999999228
 21
99.000000091
  0
LINE
  8
LS-12V-72-W6S-28359
 62
7
  6
BYLAYER
 10
3.5000001517
 20
101.500000091
 11
144.9999999228
 21
101.500000091
  0
LINE
  8
LS-12V-72-W6S-28359
 62
3
  6
BYLAYER
 10
135.3575501584
 20
23.2063112243
 11
135.349656007
 21
26.4902782059
  0
LINE
  8
LS-12V-72-W6S-28359
 62
3
  6
BYLAYER
 10
139.7483438918
 20
25.5306031055
 11
139.7483438918
 21
24.2806031055
  0
LINE
  8
LS-12V-72-W6S-28359
 62
3
  6
BYLAYER
 10
142.2483438918
 20
26.1556031055
 11
142.2483438918
 21
23.6556031055
  0
LINE
  8
LS-12V-72-W6S-28359
 62
7
  6
BYLAYER
 10
142.4999999228
 20
31.1249997732
 11
142.4999999228
 21
99.000000091
  0
LINE
  8
LS-12V-72-W6S-28359
 62
7
  6
BYLAYER
 10
144.9999999228
 20
3.4999997732
 11
144.9999999228
 21
101.500000091
  0
LINE
  8
LS-12V-72-W6S-2835_PLATE2
 62
7
  6
BYLAYER
 10
48.7002359053
 20
54.9840918041
 11
48.7002359053
 21
53.4840918041
  0
LINE
  8
LS-12V-72-W6S-2835_PADS2
 62
7
  6
BYLAYER
 10
48.7002359053
 20
53.4840918041
 11
48.7002359053
 21
51.8840918041
  0
LINE
  8
LS-12V-72-W6S-2835_PLATE2
 62
7
  6
BYLAYER
 10
48.7002359053
 20
51.8840918041
 11
48.7002359053
 21
51.0840918041
  0
LINE
  8
LS-12V-72-W6S-2835_PADS2
 62
7
  6
BYLAYER
 10
48.7002359053
 20
51.0840918041
 11
48.7002359053
 21
49.4840918041
  0
LINE
  8
LS-12V-72-W6S-2835_PLATE2
 62
7
  6
BYLAYER
 10
48.7002359053
 20
49.4840918041
 11
48.7002359053
 21
47.9840918041
  0
LINE
  8
LED_CHIP_2835_BASE2
 62
7
  6
BYLAYER
 10
52.1002359053
 20
53.1340918041
 11
52.1002359053
 21
49.8340918041
  0
LINE
  8
LED_CHIP_2835_BASE2
 62
7
  6
BYLAYER
 10
52.1107102739
 20
49.8445661727
 11
52.1107102739
 21
50.2236174355
  0
LINE
  8
LED_CHIP_2835_BASE2
 62
7
  6
BYLAYER
 10
52.1133288661
 20
53.1209988433
 11
52.1133288661
 21
50.2209988433
  0
LINE
  8
LED_CHIP_2835_BASE2
 62
7
  6
BYLAYER
 10
52.2502359053
 20
52.7573060898
 11
52.2502359053
 21
50.2108775184
  0
LINE
  8
LED_CHIP_2835_SLICONE2
 62
7
  6
BYLAYER
 10
52.2642042131
 20
52.7573060898
 11
52.2642042131
 21
50.2108775184
  0
LINE
  8
LED_CHIP_2835_BASE2
 62
7
  6
BYLAYER
 10
52.4502359053
 20
52.9573060898
 11
52.4502359053
 21
52.943337782
  0
LINE
  8
LED_CHIP_2835_BASE2
 62
7
  6
BYLAYER
 10
52.4502359053
 20
50.0108775184
 11
52.4502359053
 21
50.0248458262
  0
LINE
  8
LED_CHIP_2835_BASE2
 62
7
  6
BYLAYER
 10
54.5502359053
 20
52.9573060898
 11
54.5502359053
 21
52.943337782
  0
LINE
  8
LED_CHIP_2835_BASE2
 62
7
  6
BYLAYER
 10
54.5502359053
 20
50.0108775184
 11
54.5502359053
 21
50.0248458262
  0
LINE
  8
0
 62
7
  6
BYLAYER
 10
54.7152359053
 20
50.6063353135
 11
54.7152359053
 21
50.606371286
  0
LINE
  8
LED_CHIP_2835_SLICONE2
 62
7
  6
BYLAYER
 10
54.7362675975
 20
50.2108775184
 11
54.7362675975
 21
52.7573060898
  0
LINE
  8
LED_CHIP_2835_BASE2
 62
7
  6
BYLAYER
 10
54.7502359053
 20
50.2108775184
 11
54.7502359053
 21
52.7573060898
  0
LINE
  8
LED_CHIP_2835_BASE2
 62
7
  6
BYLAYER
 10
54.8871429445
 20
49.8471847649
 11
54.8871429445
 21
53.1209988433
  0
LINE
  8
LED_CHIP_2835_BASE2
 62
7
  6
BYLAYER
 10
54.9002359053
 20
49.8340918041
 11
54.9002359053
 21
53.1340918041
  0
LINE
  8
LS-12V-72-W6S-2835_PLATE2
 62
7
  6
BYLAYER
 10
55.1156754858
 20
48.3840918041
 11
55.1156754858
 21
48.7840918041
  0
LINE
  8
LS-12V-72-W6S-2835_PLATE2
 62
7
  6
BYLAYER
 10
56.1054686366
 20
50.9067100659
 11
55.1156754858
 21
48.7840918041
  0
LINE
  8
LED_CHIP_2835_ELETRODE_22
 62
7
  6
BYLAYER
 10
53.0202359053
 20
53.2340918041
 11
52.9202359053
 21
53.1340918041
  0
LINE
  8
LED_CHIP_2835_BASE2
 62
7
  6
BYLAYER
 10
54.9002359053
 20
53.1340918041
 11
54.8871429445
 21
53.1209988433
  0
LINE
  8
LED_CHIP_2835_BASE2
 62
7
  6
BYLAYER
 10
52.4897615367
 20
49.8445661727
 11
52.1107102739
 21
50.2236174355
  0
LINE
  8
LED_CHIP_2835_ELETRODE_12
 62
7
  6
BYLAYER
 10
52.9202359053
 20
49.8340918041
 11
53.0202359053
 21
49.7340918041
  0
LINE
  8
LED_CHIP_2835_BASE2
 62
7
  6
BYLAYER
 10
52.1002359053
 20
49.8340918041
 11
52.1107102739
 21
49.8445661727
  0
LINE
  8
LED_CHIP_2835_BASE2
 62
7
  6
BYLAYER
 10
54.9002359053
 20
49.8340918041
 11
54.8871429445
 21
49.8471847649
  0
LINE
  8
LED_CHIP_2835_BASE2
 62
7
  6
BYLAYER
 10
52.1002359053
 20
53.1340918041
 11
52.1133288661
 21
53.1209988433
  0
LINE
  8
LS-12V-72-W6S-2835_PLATE2
 62
7
  6
BYLAYER
 10
58.850143446
 20
48.9079025853
 11
57.9180842107
 21
50.9067100659
  0
LINE
  8
LED_CHIP_2835_ELETRODE_12
 62
7
  6
BYLAYER
 10
53.9802359053
 20
49.7340918041
 11
54.0802359053
 21
49.8340918041
  0
LINE
  8
LED_CHIP_2835_ELETRODE_22
 62
7
  6
BYLAYER
 10
54.0802359053
 20
53.1340918041
 11
53.9802359053
 21
53.2340918041
  0
LINE
  8
LS-12V-72-W6S-2835_PLATE2
 62
7
  6
BYLAYER
 10
61.2065436923
 20
52.0614735424
 11
62.4616879591
 21
54.7531391088
  0
LINE
  8
LS-12V-72-W6S-2835_PLATE2
 62
7
  6
BYLAYER
 10
58.1387838514
 20
54.7531391088
 11
59.3939281182
 21
52.0614735424
  0
LINE
  8
LS-12V-72-W6S-2835_PLATE2
 62
7
  6
BYLAYER
 10
62.6823875999
 20
50.9067100659
 11
61.7503283645
 21
48.9079025853
  0
LINE
  8
LS-12V-72-W6S-2835_PLATE2
 62
7
  6
BYLAYER
 10
65.4847963248
 20
48.7840918041
 11
64.495003174
 21
50.9067100659
  0
LINE
  8
LS-12V-72-W6S-2835_PLATE2
 62
7
  6
BYLAYER
 10
65.4847963248
 20
48.3840918041
 11
65.4847963248
 21
48.7840918041
  0
LINE
  8
LED_CHIP_2835_BASE2
 62
7
  6
BYLAYER
 10
65.7002359053
 20
53.1340918041
 11
65.7002359053
 21
49.8340918041
  0
LINE
  8
LED_CHIP_2835_BASE2
 62
7
  6
BYLAYER
 10
65.7107102739
 20
49.8445661727
 11
65.7107102739
 21
50.2236174355
  0
LINE
  8
LED_CHIP_2835_BASE2
 62
7
  6
BYLAYER
 10
65.7133288661
 20
53.1209988433
 11
65.7133288661
 21
50.2209988433
  0
LINE
  8
LED_CHIP_2835_BASE2
 62
7
  6
BYLAYER
 10
65.8502359053
 20
52.7573060898
 11
65.8502359053
 21
50.2108775184
  0
LINE
  8
LED_CHIP_2835_SLICONE2
 62
7
  6
BYLAYER
 10
65.8642042131
 20
52.7573060898
 11
65.8642042131
 21
50.2108775184
  0
LINE
  8
LED_CHIP_2835_BASE2
 62
7
  6
BYLAYER
 10
66.0502359053
 20
52.9573060898
 11
66.0502359053
 21
52.943337782
  0
LINE
  8
LED_CHIP_2835_BASE2
 62
7
  6
BYLAYER
 10
66.0502359053
 20
50.0108775184
 11
66.0502359053
 21
50.0248458262
  0
LINE
  8
LED_CHIP_2835_ELETRODE_22
 62
7
  6
BYLAYER
 10
66.6202359053
 20
53.2340918041
 11
66.5202359053
 21
53.1340918041
  0
LINE
  8
LS-12V-72-W6S-2835_PLATE2
 62
7
  6
BYLAYER
 10
48.7002359053
 20
47.9840918041
 11
54.7156754858
 21
47.9840918041
  0
LINE
  8
LS-12V-72-W6S-2835_PLATE2
 62
7
  6
BYLAYER
 10
65.8847963248
 20
47.9840918041
 11
72.6762607366
 21
47.9840918041
  0
LINE
  8
LS-12V-72-W6S-2835_PLATE2
 62
7
  6
BYLAYER
 10
77.724211074
 20
47.9840918041
 11
82.3310888409
 21
47.9840918041
  0
LINE
  8
LS-12V-72-W6S-2835_PLATE2
 62
7
  6
BYLAYER
 10
88.4693829696
 20
47.9840918041
 11
90.1002359053
 21
47.9840918041
  0
LINE
  8
LED_CHIP_2835_BASE2
 62
7
  6
BYLAYER
 10
65.7107102739
 20
50.2236174355
 11
66.0897615367
 21
49.8445661727
  0
LINE
  8
LED_CHIP_2835_ELETRODE_12
 62
7
  6
BYLAYER
 10
66.5202359053
 20
49.8340918041
 11
66.6202359053
 21
49.7340918041
  0
LINE
  8
LED_CHIP_2835_BASE2
 62
7
  6
BYLAYER
 10
68.5002359053
 20
53.1340918041
 11
68.4871429445
 21
53.1209988433
  0
LINE
  8
LED_CHIP_2835_BASE2
 62
7
  6
BYLAYER
 10
65.7002359053
 20
49.8340918041
 11
65.7107102739
 21
49.8445661727
  0
LINE
  8
LS-12V-72-W6S-2835_PLATE2
 62
7
  6
BYLAYER
 10
90.1002359053
 20
49.4840918041
 11
89.3002359053
 21
49.4840918041
  0
LINE
  8
LS-12V-72-W6S-2835_PADS2
 62
7
  6
BYLAYER
 10
48.7002359053
 20
49.4840918041
 11
49.5002359053
 21
49.4840918041
  0
LINE
  8
LS-12V-72-W6S-2835_PLATE2
 62
7
  6
BYLAYER
 10
48.7002359053
 20
49.4840918041
 11
49.5002359053
 21
49.4840918041
  0
LINE
  8
LS-12V-72-W6S-2835_PADS2
 62
7
  6
BYLAYER
 10
89.3002359053
 20
49.4840918041
 11
90.1002359053
 21
49.4840918041
  0
LINE
  8
LS-12V-72-W6S-2835_PADS2
 62
7
  6
BYLAYER
 10
52.8002359053
 20
49.6340918041
 11
54.2002359053
 21
49.6340918041
  0
LINE
  8
LS-12V-72-W6S-2835_PLATE2
 62
7
  6
BYLAYER
 10
52.8002359053
 20
49.6340918041
 11
54.2002359053
 21
49.6340918041
  0
LINE
  8
LS-12V-72-W6S-2835_PADS2
 62
7
  6
BYLAYER
 10
66.4002359053
 20
49.6340918041
 11
67.8002359053
 21
49.6340918041
  0
LINE
  8
LS-12V-72-W6S-2835_PLATE2
 62
7
  6
BYLAYER
 10
66.4002359053
 20
49.6340918041
 11
67.8002359053
 21
49.6340918041
  0
LINE
  8
LS-12V-72-W6S-2835_PADS2
 62
7
  6
BYLAYER
 10
80.0002359053
 20
49.6340918041
 11
81.4002359053
 21
49.6340918041
  0
LINE
  8
LS-12V-72-W6S-2835_PLATE2
 62
7
  6
BYLAYER
 10
80.0002359053
 20
49.6340918041
 11
81.4002359053
 21
49.6340918041
  0
LINE
  8
LED_CHIP_2835_BASE2
 62
7
  6
BYLAYER
 10
68.5002359053
 20
49.8340918041
 11
68.4871429445
 21
49.8471847649
  0
POLYLINE
  8
RES_1206_032
 62
7
  6
BYLAYER
 66
1
 70
0
  0
VERTEX
  8
RES_1206_032
 62
7
  6
BYLAYER
 10
69.3100118776
 20
51.5183076701
  0
VERTEX
  8
RES_1206_032
 62
7
  6
BYLAYER
 10
69.3149325917
 20
51.4653252977
  0
VERTEX
  8
RES_1206_032
 62
7
  6
BYLAYER
 10
69.3288098087
 20
51.4195807326
  0
VERTEX
  8
RES_1206_032
 62
7
  6
BYLAYER
 10
69.3505450817
 20
51.3801557464
  0
VERTEX
  8
RES_1206_032
 62
7
  6
BYLAYER
 10
69.3807540128
 20
51.3448928009
  0
VERTEX
  8
RES_1206_032
 62
7
  6
BYLAYER
 10
69.4212243369
 20
51.3128230326
  0
SEQEND
  0
LINE
  8
LED_CHIP_2835_BASE2
 62
7
  6
BYLAYER
 10
68.1502359053
 20
52.9573060898
 11
68.1502359053
 21
52.943337782
  0
LINE
  8
LED_CHIP_2835_BASE2
 62
7
  6
BYLAYER
 10
68.1502359053
 20
50.0108775184
 11
68.1502359053
 21
50.0248458262
  0
LINE
  8
0
 62
7
  6
BYLAYER
 10
68.3152359053
 20
50.6063353135
 11
68.3152359053
 21
50.606371286
  0
LINE
  8
LED_CHIP_2835_SLICONE2
 62
7
  6
BYLAYER
 10
68.3362675975
 20
50.2108775184
 11
68.3362675975
 21
52.7573060898
  0
LINE
  8
LED_CHIP_2835_BASE2
 62
7
  6
BYLAYER
 10
68.3502359053
 20
50.2108775184
 11
68.3502359053
 21
52.7573060898
  0
LINE
  8
LED_CHIP_2835_BASE2
 62
7
  6
BYLAYER
 10
68.4871429445
 20
49.8471847649
 11
68.4871429445
 21
53.1209988433
  0
LINE
  8
LED_CHIP_2835_BASE2
 62
7
  6
BYLAYER
 10
68.5002359053
 20
49.8340918041
 11
68.5002359053
 21
53.1340918041
  0
LINE
  8
RES_1206_032
 62
7
  6
BYLAYER
 10
68.9002359053
 20
52.6840918041
 11
68.9002359053
 21
50.2840918041
  0
LINE
  8
RES_1206_012
 62
7
  6
BYLAYER
 10
68.9002359053
 20
50.2840918097
 11
68.9002359053
 21
49.8838718925
  0
LINE
  8
RES_1206_012
 62
7
  6
BYLAYER
 10
68.9002359053
 20
52.6838718869
 11
68.9002359053
 21
53.0840918041
  0
LINE
  8
RES_1206_032
 62
7
  6
BYLAYER
 10
69.3273913523
 20
52.2042547069
 11
69.3273913523
 21
52.1217020831
  0
LINE
  8
RES_1206_032
 62
7
  6
BYLAYER
 10
69.3273913523
 20
50.9735690437
 11
69.3273913523
 21
50.8910164438
  0
LINE
  8
RES_1206_032
 62
7
  6
BYLAYER
 10
69.5234538218
 20
51.6377917133
 11
69.5234538218
 21
51.743698009
  0
LINE
  8
RES_1206_032
 62
7
  6
BYLAYER
 10
69.5511523863
 20
50.6840918026
 11
69.5511523863
 21
50.8676627479
  0
LINE
  8
RES_1206_032
 62
7
  6
BYLAYER
 10
69.5511523863
 20
51.9147774539
 11
69.5511523863
 21
52.0983484111
  0
POLYLINE
  8
RES_1206_032
 62
7
  6
BYLAYER
 66
1
 70
0
  0
VERTEX
  8
RES_1206_032
 62
7
  6
BYLAYER
 10
69.4077715536
 20
51.5069023929
  0
VERTEX
  8
RES_1206_032
 62
7
  6
BYLAYER
 10
69.4106025415
 20
51.5374008119
  0
VERTEX
  8
RES_1206_032
 62
7
  6
BYLAYER
 10
69.4183737954
 20
51.5625428021
  0
VERTEX
  8
RES_1206_032
 62
7
  6
BYLAYER
 10
69.4302748066
 20
51.5833168667
  0
VERTEX
  8
RES_1206_032
 62
7
  6
BYLAYER
 10
69.4463751745
 20
51.6009869402
  0
VERTEX
  8
RES_1206_032
 62
7
  6
BYLAYER
 10
69.466704427
 20
51.6157801703
  0
VERTEX
  8
RES_1206_032
 62
7
  6
BYLAYER
 10
69.4922444452
 20
51.6281450739
  0
VERTEX
  8
RES_1206_032
 62
7
  6
BYLAYER
 10
69.5234538218
 20
51.6377917133
  0
SEQEND
  0
POLYLINE
  8
RES_1206_032
 62
7
  6
BYLAYER
 66
1
 70
0
  0
VERTEX
  8
RES_1206_032
 62
7
  6
BYLAYER
 10
69.3328224605
 20
51.6274726804
  0
VERTEX
  8
RES_1206_032
 62
7
  6
BYLAYER
 10
69.320591025
 20
51.5958363054
  0
VERTEX
  8
RES_1206_032
 62
7
  6
BYLAYER
 10
69.3127808106
 20
51.5596706946
  0
VERTEX
  8
RES_1206_032
 62
7
  6
BYLAYER
 10
69.3100118776
 20
51.5183076701
  0
SEQEND
  0
POLYLINE
  8
RES_1206_032
 62
7
  6
BYLAYER
 66
1
 70
0
  0
VERTEX
  8
RES_1206_032
 62
7
  6
BYLAYER
 10
69.66642751
 20
51.6919630355
  0
VERTEX
  8
RES_1206_032
 62
7
  6
BYLAYER
 10
69.6417914811
 20
51.6638423028
  0
VERTEX
  8
RES_1206_032
 62
7
  6
BYLAYER
 10
69.622783267
 20
51.6329741039
  0
VERTEX
  8
RES_1206_032
 62
7
  6
BYLAYER
 10
69.6090580302
 20
51.5990698272
  0
VERTEX
  8
RES_1206_032
 62
7
  6
BYLAYER
 10
69.6003922124
 20
51.5608275417
  0
VERTEX
  8
RES_1206_032
 62
7
  6
BYLAYER
 10
69.5973167082
 20
51.5172214351
  0
SEQEND
  0
LINE
  8
LED_CHIP_2835_ELETRODE_12
 62
7
  6
BYLAYER
 10
67.5802359053
 20
49.7340918041
 11
67.6802359053
 21
49.8340918041
  0
POLYLINE
  8
RES_1206_032
 62
7
  6
BYLAYER
 66
1
 70
0
  0
VERTEX
  8
RES_1206_032
 62
7
  6
BYLAYER
 10
70.021485067
 20
51.3086674862
  0
VERTEX
  8
RES_1206_032
 62
7
  6
BYLAYER
 10
70.0564631452
 20
51.3388394851
  0
VERTEX
  8
RES_1206_032
 62
7
  6
BYLAYER
 10
70.0827748591
 20
51.3727644364
  0
VERTEX
  8
RES_1206_032
 62
7
  6
BYLAYER
 10
70.1013099018
 20
51.4104731835
  0
VERTEX
  8
RES_1206_032
 62
7
  6
BYLAYER
 10
70.1129370075
 20
51.4539098804
  0
VERTEX
  8
RES_1206_032
 62
7
  6
BYLAYER
 10
70.1170722937
 20
51.5047299228
  0
SEQEND
  0
POLYLINE
  8
RES_1206_032
 62
7
  6
BYLAYER
 66
1
 70
0
  0
VERTEX
  8
RES_1206_032
 62
7
  6
BYLAYER
 10
69.3986669795
 20
51.7044126995
  0
VERTEX
  8
RES_1206_032
 62
7
  6
BYLAYER
 10
69.3715643116
 20
51.6818246895
  0
VERTEX
  8
RES_1206_032
 62
7
  6
BYLAYER
 10
69.3498915761
 20
51.6563579542
  0
VERTEX
  8
RES_1206_032
 62
7
  6
BYLAYER
 10
69.3328224605
 20
51.6274726804
  0
SEQEND
  0
POLYLINE
  8
RES_1206_032
 62
7
  6
BYLAYER
 66
1
 70
0
  0
VERTEX
  8
RES_1206_032
 62
7
  6
BYLAYER
 10
69.739737825
 20
51.6105005189
  0
VERTEX
  8
RES_1206_032
 62
7
  6
BYLAYER
 10
69.7631414511
 20
51.6285216794
  0
VERTEX
  8
RES_1206_032
 62
7
  6
BYLAYER
 10
69.7892335182
 20
51.6414497947
  0
VERTEX
  8
RES_1206_032
 62
7
  6
BYLAYER
 10
69.8188167592
 20
51.649550826
  0
VERTEX
  8
RES_1206_032
 62
7
  6
BYLAYER
 10
69.8531211754
 20
51.6524556957
  0
SEQEND
  0
POLYLINE
  8
RES_1206_032
 62
7
  6
BYLAYER
 66
1
 70
0
  0
VERTEX
  8
RES_1206_032
 62
7
  6
BYLAYER
 10
69.9720621248
 20
51.3879614541
  0
VERTEX
  8
RES_1206_032
 62
7
  6
BYLAYER
 10
69.9476438841
 20
51.3698954425
  0
VERTEX
  8
RES_1206_032
 62
7
  6
BYLAYER
 10
69.9206175998
 20
51.3570266891
  0
VERTEX
  8
RES_1206_032
 62
7
  6
BYLAYER
 10
69.8899005374
 20
51.3489949234
  0
VERTEX
  8
RES_1206_032
 62
7
  6
BYLAYER
 10
69.8542073866
 20
51.3461420379
  0
SEQEND
  0
LINE
  8
LED_CHIP_2835_ELETRODE_12
 62
7
  6
BYLAYER
 10
81.1802359053
 20
49.7340918041
 11
80.2202359053
 21
49.7340918041
  0
LINE
  8
LED_CHIP_2835_ELETRODE_12
 62
7
  6
BYLAYER
 10
67.5802359053
 20
49.7340918041
 11
66.6202359053
 21
49.7340918041
  0
LINE
  8
LED_CHIP_2835_ELETRODE_12
 62
7
  6
BYLAYER
 10
53.9802359053
 20
49.7340918041
 11
53.0202359053
 21
49.7340918041
  0
LINE
  8
LED_CHIP_2835_ELETRODE_12
 62
7
  6
BYLAYER
 10
81.7502359053
 20
49.8340918041
 11
81.2802359053
 21
49.8340918041
  0
LINE
  8
LED_CHIP_2835_ELETRODE_12
 62
7
  6
BYLAYER
 10
80.1202359053
 20
49.8340918041
 11
79.6502359053
 21
49.8340918041
  0
LINE
  8
LED_CHIP_2835_ELETRODE_12
 62
7
  6
BYLAYER
 10
68.1502359053
 20
49.8340918041
 11
67.6802359053
 21
49.8340918041
  0
LINE
  8
LED_CHIP_2835_ELETRODE_12
 62
7
  6
BYLAYER
 10
66.5202359053
 20
49.8340918041
 11
66.0502359053
 21
49.8340918041
  0
LINE
  8
LED_CHIP_2835_ELETRODE_12
 62
7
  6
BYLAYER
 10
54.5502359053
 20
49.8340918041
 11
54.0802359053
 21
49.8340918041
  0
LINE
  8
LED_CHIP_2835_ELETRODE_12
 62
7
  6
BYLAYER
 10
52.9202359053
 20
49.8340918041
 11
52.4502359053
 21
49.8340918041
  0
LINE
  8
LED_CHIP_2835_BASE2
 62
7
  6
BYLAYER
 10
52.1002359053
 20
49.8340918041
 11
54.9002359053
 21
49.8340918041
  0
LINE
  8
LED_CHIP_2835_BASE2
 62
7
  6
BYLAYER
 10
65.7002359053
 20
49.8340918041
 11
68.5002359053
 21
49.8340918041
  0
LINE
  8
LED_CHIP_2835_BASE2
 62
7
  6
BYLAYER
 10
79.3002359053
 20
49.8340918041
 11
82.1002359053
 21
49.8340918041
  0
LINE
  8
LED_CHIP_2835_BASE2
 62
7
  6
BYLAYER
 10
52.1107102739
 20
49.8445661727
 11
52.4897615367
 21
49.8445661727
  0
LINE
  8
LED_CHIP_2835_BASE2
 62
7
  6
BYLAYER
 10
65.7107102739
 20
49.8445661727
 11
66.0897615367
 21
49.8445661727
  0
LINE
  8
LED_CHIP_2835_BASE2
 62
7
  6
BYLAYER
 10
79.3107102739
 20
49.8445661727
 11
79.6897615367
 21
49.8445661727
  0
LINE
  8
LED_CHIP_2835_BASE2
 62
7
  6
BYLAYER
 10
82.0871429445
 20
49.8471847649
 11
79.6871429445
 21
49.8471847649
  0
LINE
  8
LED_CHIP_2835_BASE2
 62
7
  6
BYLAYER
 10
68.4871429445
 20
49.8471847649
 11
66.0871429445
 21
49.8471847649
  0
LINE
  8
LED_CHIP_2835_BASE2
 62
7
  6
BYLAYER
 10
54.8871429445
 20
49.8471847649
 11
52.4871429445
 21
49.8471847649
  0
LINE
  8
RES_1206_012
 62
7
  6
BYLAYER
 10
70.5002359053
 20
49.8838718925
 11
68.9002359053
 21
49.8838718925
  0
LINE
  8
LED_CHIP_2835_BASE2
 62
7
  6
BYLAYER
 10
52.4502359053
 20
50.0108775184
 11
54.5502359053
 21
50.0108775184
  0
LINE
  8
LED_CHIP_2835_BASE2
 62
7
  6
BYLAYER
 10
66.0502359053
 20
50.0108775184
 11
68.1502359053
 21
50.0108775184
  0
LINE
  8
LED_CHIP_2835_BASE2
 62
7
  6
BYLAYER
 10
79.6502359053
 20
50.0108775184
 11
81.7502359053
 21
50.0108775184
  0
LINE
  8
LED_CHIP_2835_SLICONE2
 62
7
  6
BYLAYER
 10
52.4502359053
 20
50.0248458262
 11
54.5502359053
 21
50.0248458262
  0
LINE
  8
LED_CHIP_2835_SLICONE2
 62
7
  6
BYLAYER
 10
66.0502359053
 20
50.0248458262
 11
68.1502359053
 21
50.0248458262
  0
LINE
  8
LED_CHIP_2835_SLICONE2
 62
7
  6
BYLAYER
 10
79.6502359053
 20
50.0248458262
 11
81.7502359053
 21
50.0248458262
  0
LINE
  8
LED_CHIP_2835_BASE2
 62
7
  6
BYLAYER
 10
81.9502359053
 20
50.2108775184
 11
81.9362675975
 21
50.2108775184
  0
LINE
  8
LED_CHIP_2835_BASE2
 62
7
  6
BYLAYER
 10
68.3502359053
 20
50.2108775184
 11
68.3362675975
 21
50.2108775184
  0
LINE
  8
LED_CHIP_2835_BASE2
 62
7
  6
BYLAYER
 10
54.7502359053
 20
50.2108775184
 11
54.7362675975
 21
50.2108775184
  0
LINE
  8
LED_CHIP_2835_BASE2
 62
7
  6
BYLAYER
 10
52.2502359053
 20
50.2108775184
 11
52.2642042131
 21
50.2108775184
  0
LINE
  8
LED_CHIP_2835_BASE2
 62
7
  6
BYLAYER
 10
65.8502359053
 20
50.2108775184
 11
65.8642042131
 21
50.2108775184
  0
LINE
  8
LED_CHIP_2835_BASE2
 62
7
  6
BYLAYER
 10
79.4502359053
 20
50.2108775184
 11
79.4642042131
 21
50.2108775184
  0
LINE
  8
RES_1206_012
 62
7
  6
BYLAYER
 10
70.5002359053
 20
50.2840918097
 11
68.9002359053
 21
50.2840918097
  0
LINE
  8
RES_1206_032
 62
7
  6
BYLAYER
 10
70.5002359053
 20
50.2840918041
 11
68.9002359053
 21
50.2840918041
  0
LINE
  8
RES_1206_032
 62
7
  6
BYLAYER
 10
69.4691428801
 20
50.6840918026
 11
69.5511523863
 21
50.6840918026
  0
LINE
  8
RES_1206_032
 62
7
  6
BYLAYER
 10
69.5511523863
 20
50.8676627479
 11
70.1002359053
 21
50.8676627479
  0
LINE
  8
RES_1206_032
 62
7
  6
BYLAYER
 10
70.1002359053
 20
50.9735690437
 11
69.3273913523
 21
50.9735690437
  0
LINE
  8
LS-12V-72-W6S-2835_PADS2
 62
7
  6
BYLAYER
 10
90.1002359053
 20
51.0840918041
 11
89.3002359053
 21
51.0840918041
  0
LINE
  8
LS-12V-72-W6S-2835_PLATE2
 62
7
  6
BYLAYER
 10
90.1002359053
 20
51.0840918041
 11
89.3002359053
 21
51.0840918041
  0
LINE
  8
LS-12V-72-W6S-2835_PADS2
 62
7
  6
BYLAYER
 10
49.5002359053
 20
51.0840918041
 11
48.7002359053
 21
51.0840918041
  0
LINE
  8
LS-12V-72-W6S-2835_PLATE2
 62
7
  6
BYLAYER
 10
48.7002359053
 20
51.0840918041
 11
49.5002359053
 21
51.0840918041
  0
POLYLINE
  8
RES_1206_032
 62
7
  6
BYLAYER
 66
1
 70
0
  0
VERTEX
  8
RES_1206_032
 62
7
  6
BYLAYER
 10
69.3273913523
 20
50.8910164438
  0
VERTEX
  8
RES_1206_032
 62
7
  6
BYLAYER
 10
69.3626749132
 20
50.8795705125
  0
VERTEX
  8
RES_1206_032
 62
7
  6
BYLAYER
 10
69.3926027928
 20
50.8656386789
  0
VERTEX
  8
RES_1206_032
 62
7
  6
BYLAYER
 10
69.4166851352
 20
50.8492173673
  0
VERTEX
  8
RES_1206_032
 62
7
  6
BYLAYER
 10
69.4343839041
 20
50.8307313204
  0
SEQEND
  0
LINE
  8
LED_CHIP_2835_BASE2
 62
7
  6
BYLAYER
 10
65.7002359053
 20
53.1340918041
 11
65.7133288661
 21
53.1209988433
  0
POLYLINE
  8
RES_1206_032
 62
7
  6
BYLAYER
 66
1
 70
0
  0
VERTEX
  8
RES_1206_032
 62
7
  6
BYLAYER
 10
69.4343839041
 20
50.8307313204
  0
VERTEX
  8
RES_1206_032
 62
7
  6
BYLAYER
 10
69.4461573045
 20
50.8101090271
  0
VERTEX
  8
RES_1206_032
 62
7
  6
BYLAYER
 10
69.4550962538
 20
50.7845712483
  0
VERTEX
  8
RES_1206_032
 62
7
  6
BYLAYER
 10
69.46166878
 20
50.7548963538
  0
VERTEX
  8
RES_1206_032
 62
7
  6
BYLAYER
 10
69.4662645186
 20
50.7213877058
  0
VERTEX
  8
RES_1206_032
 62
7
  6
BYLAYER
 10
69.4691428801
 20
50.6840918026
  0
SEQEND
  0
POLYLINE
  8
RES_1206_032
 62
7
  6
BYLAYER
 66
1
 70
0
  0
VERTEX
  8
RES_1206_032
 62
7
  6
BYLAYER
 10
69.5973167082
 20
51.5172214351
  0
VERTEX
  8
RES_1206_032
 62
7
  6
BYLAYER
 10
69.6010775158
 20
51.4727101475
  0
VERTEX
  8
RES_1206_032
 62
7
  6
BYLAYER
 10
69.6119128733
 20
51.4325200487
  0
VERTEX
  8
RES_1206_032
 62
7
  6
BYLAYER
 10
69.6292777113
 20
51.3962275052
  0
VERTEX
  8
RES_1206_032
 62
7
  6
BYLAYER
 10
69.6536426524
 20
51.3624707107
  0
VERTEX
  8
RES_1206_032
 62
7
  6
BYLAYER
 10
69.6863865992
 20
51.3303918681
  0
SEQEND
  0
POLYLINE
  8
RES_1206_032
 62
7
  6
BYLAYER
 66
1
 70
0
  0
VERTEX
  8
RES_1206_032
 62
7
  6
BYLAYER
 10
70.1170722937
 20
51.5047299228
  0
VERTEX
  8
RES_1206_032
 62
7
  6
BYLAYER
 10
70.1133998322
 20
51.5535534674
  0
VERTEX
  8
RES_1206_032
 62
7
  6
BYLAYER
 10
70.1030738361
 20
51.59564134
  0
VERTEX
  8
RES_1206_032
 62
7
  6
BYLAYER
 10
70.0871526154
 20
51.631533708
  0
VERTEX
  8
RES_1206_032
 62
7
  6
BYLAYER
 10
70.0659588745
 20
51.6627129377
  0
VERTEX
  8
RES_1206_032
 62
7
  6
BYLAYER
 10
70.0388645544
 20
51.6904733493
  0
SEQEND
  0
LINE
  8
RES_1206_032
 62
7
  6
BYLAYER
 10
70.1002359053
 20
50.8676627479
 11
70.1002359053
 21
50.9735690437
  0
LINE
  8
RES_1206_032
 62
7
  6
BYLAYER
 10
70.1002359053
 20
52.0983484111
 11
70.1002359053
 21
52.2042547069
  0
LINE
  8
RES_1206_032
 62
7
  6
BYLAYER
 10
70.5002359053
 20
52.6840918041
 11
70.5002359053
 21
50.2840918041
  0
LINE
  8
RES_1206_012
 62
7
  6
BYLAYER
 10
70.5002359053
 20
50.2840918097
 11
70.5002359053
 21
49.8838718925
  0
LINE
  8
RES_1206_012
 62
7
  6
BYLAYER
 10
70.5002359053
 20
52.6838718869
 11
70.5002359053
 21
53.0840918041
  0
LINE
  8
LS-12V-72-W6S-2835_PLATE2
 62
7
  6
BYLAYER
 10
70.9754834497
 20
54.5840918041
 11
70.9754834497
 21
52.4840918041
  0
POLYLINE
  8
RES_1206_032
 62
7
  6
BYLAYER
 66
1
 70
0
  0
VERTEX
  8
RES_1206_032
 62
7
  6
BYLAYER
 10
70.0193126222
 20
51.500385078
  0
VERTEX
  8
RES_1206_032
 62
7
  6
BYLAYER
 10
70.0159551078
 20
51.4650013574
  0
VERTEX
  8
RES_1206_032
 62
7
  6
BYLAYER
 10
70.0066565153
 20
51.4352848167
  0
VERTEX
  8
RES_1206_032
 62
7
  6
BYLAYER
 10
69.992197002
 20
51.4101320109
  0
VERTEX
  8
RES_1206_032
 62
7
  6
BYLAYER
 10
69.9720621248
 20
51.3879614541
  0
SEQEND
  0
POLYLINE
  8
RES_1206_032
 62
7
  6
BYLAYER
 66
1
 70
0
  0
VERTEX
  8
RES_1206_032
 62
7
  6
BYLAYER
 10
69.6950763842
 20
51.5031006656
  0
VERTEX
  8
RES_1206_032
 62
7
  6
BYLAYER
 10
69.6982249465
 20
51.5361695311
  0
VERTEX
  8
RES_1206_032
 62
7
  6
BYLAYER
 10
69.7069582382
 20
51.5643663527
  0
VERTEX
  8
RES_1206_032
 62
7
  6
BYLAYER
 10
69.720617945
 20
51.5886809757
  0
VERTEX
  8
RES_1206_032
 62
7
  6
BYLAYER
 10
69.739737825
 20
51.6105005189
  0
SEQEND
  0
POLYLINE
  8
RES_1206_032
 62
7
  6
BYLAYER
 66
1
 70
0
  0
VERTEX
  8
RES_1206_032
 62
7
  6
BYLAYER
 10
69.5234538218
 20
51.743698009
  0
VERTEX
  8
RES_1206_032
 62
7
  6
BYLAYER
 10
69.4856553511
 20
51.7377640395
  0
VERTEX
  8
RES_1206_032
 62
7
  6
BYLAYER
 10
69.452036307
 20
51.7293245025
  0
VERTEX
  8
RES_1206_032
 62
7
  6
BYLAYER
 10
69.4228760608
 20
51.7182235286
  0
VERTEX
  8
RES_1206_032
 62
7
  6
BYLAYER
 10
69.3986669795
 20
51.7044126995
  0
SEQEND
  0
POLYLINE
  8
RES_1206_032
 62
7
  6
BYLAYER
 66
1
 70
0
  0
VERTEX
  8
RES_1206_032
 62
7
  6
BYLAYER
 10
69.8406296631
 20
51.7583619914
  0
VERTEX
  8
RES_1206_032
 62
7
  6
BYLAYER
 10
69.786624564
 20
51.7535841275
  0
VERTEX
  8
RES_1206_032
 62
7
  6
BYLAYER
 10
69.7407997014
 20
51.7404194917
  0
VERTEX
  8
RES_1206_032
 62
7
  6
BYLAYER
 10
69.7014786707
 20
51.7200333141
  0
VERTEX
  8
RES_1206_032
 62
7
  6
BYLAYER
 10
69.66642751
 20
51.6919630355
  0
SEQEND
  0
POLYLINE
  8
RES_1206_032
 62
7
  6
BYLAYER
 66
1
 70
0
  0
VERTEX
  8
RES_1206_032
 62
7
  6
BYLAYER
 10
69.7477579733
 20
51.2402357421
  0
VERTEX
  8
RES_1206_032
 62
7
  6
BYLAYER
 10
69.8175162955
 20
51.2431437052
  0
VERTEX
  8
RES_1206_032
 62
7
  6
BYLAYER
 10
69.880032279
 20
51.2518052817
  0
VERTEX
  8
RES_1206_032
 62
7
  6
BYLAYER
 10
69.9351008209
 20
51.266023211
  0
VERTEX
  8
RES_1206_032
 62
7
  6
BYLAYER
 10
69.9823312414
 20
51.2852912798
  0
VERTEX
  8
RES_1206_032
 62
7
  6
BYLAYER
 10
70.021485067
 20
51.3086674862
  0
SEQEND
  0
LINE
  8
LS-12V-72-W6S-2835_PLATE2
 62
7
  6
BYLAYER
 10
90.1002359053
 20
51.8840918041
 11
89.3002359053
 21
51.8840918041
  0
LINE
  8
LS-12V-72-W6S-2835_PADS2
 62
7
  6
BYLAYER
 10
48.7002359053
 20
51.8840918041
 11
49.5002359053
 21
51.8840918041
  0
LINE
  8
LS-12V-72-W6S-2835_PLATE2
 62
7
  6
BYLAYER
 10
48.7002359053
 20
51.8840918041
 11
49.5002359053
 21
51.8840918041
  0
LINE
  8
LS-12V-72-W6S-2835_PADS2
 62
7
  6
BYLAYER
 10
89.3002359053
 20
51.8840918041
 11
90.1002359053
 21
51.8840918041
  0
LINE
  8
RES_1206_032
 62
7
  6
BYLAYER
 10
69.4691428801
 20
51.9147774539
 11
69.5511523863
 21
51.9147774539
  0
LINE
  8
RES_1206_032
 62
7
  6
BYLAYER
 10
69.5511523863
 20
52.0983484111
 11
70.1002359053
 21
52.0983484111
  0
LINE
  8
RES_1206_032
 62
7
  6
BYLAYER
 10
70.1002359053
 20
52.2042547069
 11
69.3273913523
 21
52.2042547069
  0
LINE
  8
RES_1206_012
 62
7
  6
BYLAYER
 10
68.9002359053
 20
52.6838718869
 11
70.5002359053
 21
52.6838718869
  0
LINE
  8
RES_1206_032
 62
7
  6
BYLAYER
 10
68.9002359053
 20
52.6840918041
 11
70.5002359053
 21
52.6840918041
  0
POLYLINE
  8
RES_1206_032
 62
7
  6
BYLAYER
 66
1
 70
0
  0
VERTEX
  8
RES_1206_032
 62
7
  6
BYLAYER
 10
69.8531211754
 20
51.6524556957
  0
VERTEX
  8
RES_1206_032
 62
7
  6
BYLAYER
 10
69.8902663859
 20
51.6494460846
  0
VERTEX
  8
RES_1206_032
 62
7
  6
BYLAYER
 10
69.922038302
 20
51.6409973134
  0
VERTEX
  8
RES_1206_032
 62
7
  6
BYLAYER
 10
69.949027217
 20
51.6279451073
  0
VERTEX
  8
RES_1206_032
 62
7
  6
BYLAYER
 10
69.9727270752
 20
51.6102285261
  0
SEQEND
  0
POLYLINE
  8
RES_1206_032
 62
7
  6
BYLAYER
 66
1
 70
0
  0
VERTEX
  8
RES_1206_032
 62
7
  6
BYLAYER
 10
69.8542073866
 20
51.3461420379
  0
VERTEX
  8
RES_1206_032
 62
7
  6
BYLAYER
 10
69.8189771107
 20
51.3491611196
  0
VERTEX
  8
RES_1206_032
 62
7
  6
BYLAYER
 10
69.7888856657
 20
51.3575633944
  0
VERTEX
  8
RES_1206_032
 62
7
  6
BYLAYER
 10
69.7630706801
 20
51.3706097752
  0
VERTEX
  8
RES_1206_032
 62
7
  6
BYLAYER
 10
69.7401544353
 20
51.3885045722
  0
SEQEND
  0
POLYLINE
  8
RES_1206_032
 62
7
  6
BYLAYER
 66
1
 70
0
  0
VERTEX
  8
RES_1206_032
 62
7
  6
BYLAYER
 10
69.6863865992
 20
51.3303918681
  0
VERTEX
  8
RES_1206_032
 62
7
  6
BYLAYER
 10
69.6428142067
 20
51.3364572796
  0
VERTEX
  8
RES_1206_032
 62
7
  6
BYLAYER
 10
69.6028854389
 20
51.3431777128
  0
VERTEX
  8
RES_1206_032
 62
7
  6
BYLAYER
 10
69.5664352354
 20
51.3507840402
  0
VERTEX
  8
RES_1206_032
 62
7
  6
BYLAYER
 10
69.5335497252
 20
51.3596904603
  0
VERTEX
  8
RES_1206_032
 62
7
  6
BYLAYER
 10
69.5050403285
 20
51.3706887551
  0
SEQEND
  0
POLYLINE
  8
RES_1206_032
 62
7
  6
BYLAYER
 66
1
 70
0
  0
VERTEX
  8
RES_1206_032
 62
7
  6
BYLAYER
 10
69.3273913523
 20
52.1217020831
  0
VERTEX
  8
RES_1206_032
 62
7
  6
BYLAYER
 10
69.3626749242
 20
52.1102561847
  0
VERTEX
  8
RES_1206_032
 62
7
  6
BYLAYER
 10
69.3926028034
 20
52.096324362
  0
VERTEX
  8
RES_1206_032
 62
7
  6
BYLAYER
 10
69.4166851382
 20
52.0799030506
  0
VERTEX
  8
RES_1206_032
 62
7
  6
BYLAYER
 10
69.4343838984
 20
52.0614170032
  0
SEQEND
  0
POLYLINE
  8
RES_1206_032
 62
7
  6
BYLAYER
 66
1
 70
0
  0
VERTEX
  8
RES_1206_032
 62
7
  6
BYLAYER
 10
69.4212243369
 20
51.3128230326
  0
VERTEX
  8
RES_1206_032
 62
7
  6
BYLAYER
 10
69.4681847698
 20
51.2873071472
  0
VERTEX
  8
RES_1206_032
 62
7
  6
BYLAYER
 10
69.5243704123
 20
51.2669450736
  0
VERTEX
  8
RES_1206_032
 62
7
  6
BYLAYER
 10
69.5898870918
 20
51.2521497687
  0
VERTEX
  8
RES_1206_032
 62
7
  6
BYLAYER
 10
69.6644060205
 20
51.2432179649
  0
VERTEX
  8
RES_1206_032
 62
7
  6
BYLAYER
 10
69.7477579733
 20
51.2402357421
  0
SEQEND
  0
POLYLINE
  8
RES_1206_032
 62
7
  6
BYLAYER
 66
1
 70
0
  0
VERTEX
  8
RES_1206_032
 62
7
  6
BYLAYER
 10
69.5050403285
 20
51.3706887551
  0
VERTEX
  8
RES_1206_032
 62
7
  6
BYLAYER
 10
69.4750922259
 20
51.3881909619
  0
VERTEX
  8
RES_1206_032
 62
7
  6
BYLAYER
 10
69.4513871856
 20
51.4079812991
  0
VERTEX
  8
RES_1206_032
 62
7
  6
BYLAYER
 10
69.4331705493
 20
51.4296917727
  0
SEQEND
  0
POLYLINE
  8
RES_1206_032
 62
7
  6
BYLAYER
 66
1
 70
0
  0
VERTEX
  8
RES_1206_032
 62
7
  6
BYLAYER
 10
70.0388645544
 20
51.6904733493
  0
VERTEX
  8
RES_1206_032
 62
7
  6
BYLAYER
 10
69.998328086
 20
51.719444906
  0
VERTEX
  8
RES_1206_032
 62
7
  6
BYLAYER
 10
69.953185029
 20
51.7403264625
  0
VERTEX
  8
RES_1206_032
 62
7
  6
BYLAYER
 10
69.9014620244
 20
51.7535666101
  0
VERTEX
  8
RES_1206_032
 62
7
  6
BYLAYER
 10
69.8406296631
 20
51.7583619914
  0
SEQEND
  0
LINE
  8
LED_CHIP_2835_ELETRODE_22
 62
7
  6
BYLAYER
 10
67.6802359053
 20
53.1340918041
 11
67.5802359053
 21
53.2340918041
  0
POLYLINE
  8
RES_1206_032
 62
7
  6
BYLAYER
 66
1
 70
0
  0
VERTEX
  8
RES_1206_032
 62
7
  6
BYLAYER
 10
69.9727270752
 20
51.6102285261
  0
VERTEX
  8
RES_1206_032
 62
7
  6
BYLAYER
 10
69.9933485253
 20
51.5872874992
  0
VERTEX
  8
RES_1206_032
 62
7
  6
BYLAYER
 10
70.0075586036
 20
51.5621063896
  0
VERTEX
  8
RES_1206_032
 62
7
  6
BYLAYER
 10
70.0162284019
 20
51.5337103322
  0
VERTEX
  8
RES_1206_032
 62
7
  6
BYLAYER
 10
70.0193126222
 20
51.500385078
  0
SEQEND
  0
POLYLINE
  8
RES_1206_032
 62
7
  6
BYLAYER
 66
1
 70
0
  0
VERTEX
  8
RES_1206_032
 62
7
  6
BYLAYER
 10
69.7401544353
 20
51.3885045722
  0
VERTEX
  8
RES_1206_032
 62
7
  6
BYLAYER
 10
69.720738005
 20
51.4111911598
  0
VERTEX
  8
RES_1206_032
 62
7
  6
BYLAYER
 10
69.7068863263
 20
51.4370860493
  0
VERTEX
  8
RES_1206_032
 62
7
  6
BYLAYER
 10
69.6981783601
 20
51.4673310848
  0
VERTEX
  8
RES_1206_032
 62
7
  6
BYLAYER
 10
69.6950763842
 20
51.5031006656
  0
SEQEND
  0
POLYLINE
  8
RES_1206_032
 62
7
  6
BYLAYER
 66
1
 70
0
  0
VERTEX
  8
RES_1206_032
 62
7
  6
BYLAYER
 10
69.4343838984
 20
52.0614170032
  0
VERTEX
  8
RES_1206_032
 62
7
  6
BYLAYER
 10
69.4461573023
 20
52.0407947012
  0
VERTEX
  8
RES_1206_032
 62
7
  6
BYLAYER
 10
69.4550962545
 20
52.0152569153
  0
VERTEX
  8
RES_1206_032
 62
7
  6
BYLAYER
 10
69.4616687817
 20
51.9855820143
  0
VERTEX
  8
RES_1206_032
 62
7
  6
BYLAYER
 10
69.4662645196
 20
51.9520733608
  0
VERTEX
  8
RES_1206_032
 62
7
  6
BYLAYER
 10
69.4691428801
 20
51.9147774539
  0
SEQEND
  0
POLYLINE
  8
RES_1206_032
 62
7
  6
BYLAYER
 66
1
 70
0
  0
VERTEX
  8
RES_1206_032
 62
7
  6
BYLAYER
 10
69.4331705493
 20
51.4296917727
  0
VERTEX
  8
RES_1206_032
 62
7
  6
BYLAYER
 10
69.4186124896
 20
51.4555751115
  0
VERTEX
  8
RES_1206_032
 62
7
  6
BYLAYER
 10
69.4104178643
 20
51.4812053151
  0
VERTEX
  8
RES_1206_032
 62
7
  6
BYLAYER
 10
69.4077715536
 20
51.5069023929
  0
SEQEND
  0
LINE
  8
LS-12V-72-W6S-2835_PLATE2
 62
7
  6
BYLAYER
 10
72.8817912368
 20
52.0614735424
 11
73.8407742247
 21
54.1180191967
  0
LINE
  8
LED_CHIP_2835_BASE2
 62
7
  6
BYLAYER
 10
81.9502359053
 20
52.7573060898
 11
81.9362675975
 21
52.7573060898
  0
LINE
  8
LED_CHIP_2835_BASE2
 62
7
  6
BYLAYER
 10
68.3502359053
 20
52.7573060898
 11
68.3362675975
 21
52.7573060898
  0
LINE
  8
LED_CHIP_2835_BASE2
 62
7
  6
BYLAYER
 10
54.7502359053
 20
52.7573060898
 11
54.7362675975
 21
52.7573060898
  0
LINE
  8
LED_CHIP_2835_BASE2
 62
7
  6
BYLAYER
 10
52.2502359053
 20
52.7573060898
 11
52.2642042131
 21
52.7573060898
  0
LINE
  8
LED_CHIP_2835_BASE2
 62
7
  6
BYLAYER
 10
65.8502359053
 20
52.7573060898
 11
65.8642042131
 21
52.7573060898
  0
LINE
  8
LED_CHIP_2835_BASE2
 62
7
  6
BYLAYER
 10
79.4502359053
 20
52.7573060898
 11
79.4642042131
 21
52.7573060898
  0
LINE
  8
LED_CHIP_2835_SLICONE2
 62
7
  6
BYLAYER
 10
81.7502359053
 20
52.943337782
 11
79.6502359053
 21
52.943337782
  0
LINE
  8
LED_CHIP_2835_SLICONE2
 62
7
  6
BYLAYER
 10
68.1502359053
 20
52.943337782
 11
66.0502359053
 21
52.943337782
  0
LINE
  8
LED_CHIP_2835_SLICONE2
 62
7
  6
BYLAYER
 10
54.5502359053
 20
52.943337782
 11
52.4502359053
 21
52.943337782
  0
LINE
  8
LED_CHIP_2835_BASE2
 62
7
  6
BYLAYER
 10
81.7502359053
 20
52.9573060898
 11
79.6502359053
 21
52.9573060898
  0
LINE
  8
LED_CHIP_2835_BASE2
 62
7
  6
BYLAYER
 10
68.1502359053
 20
52.9573060898
 11
66.0502359053
 21
52.9573060898
  0
LINE
  8
LED_CHIP_2835_BASE2
 62
7
  6
BYLAYER
 10
54.5502359053
 20
52.9573060898
 11
52.4502359053
 21
52.9573060898
  0
LINE
  8
RES_1206_012
 62
7
  6
BYLAYER
 10
68.9002359053
 20
53.0840918041
 11
70.5002359053
 21
53.0840918041
  0
LINE
  8
LED_CHIP_2835_BASE2
 62
7
  6
BYLAYER
 10
52.1133288661
 20
53.1209988433
 11
54.8871429445
 21
53.1209988433
  0
LINE
  8
LED_CHIP_2835_BASE2
 62
7
  6
BYLAYER
 10
65.7133288661
 20
53.1209988433
 11
68.4871429445
 21
53.1209988433
  0
LINE
  8
LED_CHIP_2835_BASE2
 62
7
  6
BYLAYER
 10
79.3133288661
 20
53.1209988433
 11
82.0871429445
 21
53.1209988433
  0
LINE
  8
LED_CHIP_2835_ELETRODE_22
 62
7
  6
BYLAYER
 10
52.4502359053
 20
53.1340918041
 11
52.9202359053
 21
53.1340918041
  0
LINE
  8
LED_CHIP_2835_ELETRODE_22
 62
7
  6
BYLAYER
 10
54.0802359053
 20
53.1340918041
 11
54.5502359053
 21
53.1340918041
  0
LINE
  8
LED_CHIP_2835_BASE2
 62
7
  6
BYLAYER
 10
52.1002359053
 20
53.1340918041
 11
54.9002359053
 21
53.1340918041
  0
LINE
  8
LED_CHIP_2835_ELETRODE_22
 62
7
  6
BYLAYER
 10
66.0502359053
 20
53.1340918041
 11
66.5202359053
 21
53.1340918041
  0
LINE
  8
LED_CHIP_2835_ELETRODE_22
 62
7
  6
BYLAYER
 10
67.6802359053
 20
53.1340918041
 11
68.1502359053
 21
53.1340918041
  0
LINE
  8
LED_CHIP_2835_BASE2
 62
7
  6
BYLAYER
 10
65.7002359053
 20
53.1340918041
 11
68.5002359053
 21
53.1340918041
  0
LINE
  8
LED_CHIP_2835_ELETRODE_22
 62
7
  6
BYLAYER
 10
79.6502359053
 20
53.1340918041
 11
80.1202359053
 21
53.1340918041
  0
LINE
  8
LED_CHIP_2835_ELETRODE_22
 62
7
  6
BYLAYER
 10
81.2802359053
 20
53.1340918041
 11
81.7502359053
 21
53.1340918041
  0
LINE
  8
LED_CHIP_2835_BASE2
 62
7
  6
BYLAYER
 10
79.3002359053
 20
53.1340918041
 11
82.1002359053
 21
53.1340918041
  0
LINE
  8
LED_CHIP_2835_ELETRODE_22
 62
7
  6
BYLAYER
 10
53.0202359053
 20
53.2340918041
 11
53.9802359053
 21
53.2340918041
  0
LINE
  8
LED_CHIP_2835_ELETRODE_22
 62
7
  6
BYLAYER
 10
66.6202359053
 20
53.2340918041
 11
67.5802359053
 21
53.2340918041
  0
LINE
  8
LED_CHIP_2835_ELETRODE_22
 62
7
  6
BYLAYER
 10
80.2202359053
 20
53.2340918041
 11
81.1802359053
 21
53.2340918041
  0
LINE
  8
LS-12V-72-W6S-2835_PADS2
 62
7
  6
BYLAYER
 10
81.4002359053
 20
53.3340918041
 11
80.0002359053
 21
53.3340918041
  0
LINE
  8
LS-12V-72-W6S-2835_PLATE2
 62
7
  6
BYLAYER
 10
81.4002359053
 20
53.3340918041
 11
80.0002359053
 21
53.3340918041
  0
LINE
  8
LS-12V-72-W6S-2835_PADS2
 62
7
  6
BYLAYER
 10
67.8002359053
 20
53.3340918041
 11
66.4002359053
 21
53.3340918041
  0
LINE
  8
LS-12V-72-W6S-2835_PLATE2
 62
7
  6
BYLAYER
 10
67.8002359053
 20
53.3340918041
 11
66.4002359053
 21
53.3340918041
  0
LINE
  8
LS-12V-72-W6S-2835_PADS2
 62
7
  6
BYLAYER
 10
54.2002359053
 20
53.3340918041
 11
52.8002359053
 21
53.3340918041
  0
LINE
  8
LS-12V-72-W6S-2835_PLATE2
 62
7
  6
BYLAYER
 10
54.2002359053
 20
53.3340918041
 11
52.8002359053
 21
53.3340918041
  0
LINE
  8
LS-12V-72-W6S-2835_PADS2
 62
7
  6
BYLAYER
 10
90.1002359053
 20
53.4840918041
 11
89.3002359053
 21
53.4840918041
  0
LINE
  8
LS-12V-72-W6S-2835_PLATE2
 62
7
  6
BYLAYER
 10
90.1002359053
 20
53.4840918041
 11
89.3002359053
 21
53.4840918041
  0
LINE
  8
LS-12V-72-W6S-2835_PADS2
 62
7
  6
BYLAYER
 10
49.5002359053
 20
53.4840918041
 11
48.7002359053
 21
53.4840918041
  0
LINE
  8
LS-12V-72-W6S-2835_PLATE2
 62
7
  6
BYLAYER
 10
48.7002359053
 20
53.4840918041
 11
49.5002359053
 21
53.4840918041
  0
LINE
  8
LS-12V-72-W6S-2835_PLATE2
 62
7
  6
BYLAYER
 10
74.2939281182
 20
50.9067100659
 11
73.0387838514
 21
48.2150444994
  0
LINE
  8
LS-12V-72-W6S-2835_PLATE2
 62
7
  6
BYLAYER
 10
90.1002359053
 20
54.9840918041
 11
87.924211074
 21
54.9840918041
  0
LINE
  8
LS-12V-72-W6S-2835_PLATE2
 62
7
  6
BYLAYER
 10
82.8762607366
 20
54.9840918041
 11
79.8249883608
 21
54.9840918041
  0
LINE
  8
LS-12V-72-W6S-2835_PLATE2
 62
7
  6
BYLAYER
 10
70.5754834497
 20
54.9840918041
 11
62.824211074
 21
54.9840918041
  0
LINE
  8
LS-12V-72-W6S-2835_PLATE2
 62
7
  6
BYLAYER
 10
57.7762607366
 20
54.9840918041
 11
48.7002359053
 21
54.9840918041
  0
LINE
  8
LED_CHIP_2835_ELETRODE_22
 62
7
  6
BYLAYER
 10
80.2202359053
 20
53.2340918041
 11
80.1202359053
 21
53.1340918041
  0
LINE
  8
LS-12V-72-W6S-2835_PLATE2
 62
7
  6
BYLAYER
 10
77.3616879591
 20
48.2150444994
 11
76.1065436923
 21
50.9067100659
  0
LINE
  8
LED_CHIP_2835_BASE2
 62
7
  6
BYLAYER
 10
82.1002359053
 20
53.1340918041
 11
82.0871429445
 21
53.1209988433
  0
LINE
  8
LED_CHIP_2835_BASE2
 62
7
  6
BYLAYER
 10
79.3107102739
 20
50.2236174355
 11
79.6897615367
 21
49.8445661727
  0
LINE
  8
LED_CHIP_2835_ELETRODE_12
 62
7
  6
BYLAYER
 10
80.1202359053
 20
49.8340918041
 11
80.2202359053
 21
49.7340918041
  0
LINE
  8
LED_CHIP_2835_BASE2
 62
7
  6
BYLAYER
 10
79.3002359053
 20
49.8340918041
 11
79.3107102739
 21
49.8445661727
  0
LINE
  8
LED_CHIP_2835_BASE2
 62
7
  6
BYLAYER
 10
82.1002359053
 20
49.8340918041
 11
82.0871429445
 21
49.8471847649
  0
LINE
  8
LED_CHIP_2835_BASE2
 62
7
  6
BYLAYER
 10
79.3002359053
 20
53.1340918041
 11
79.3133288661
 21
53.1209988433
  0
LINE
  8
LS-12V-72-W6S-2835_PLATE2
 62
7
  6
BYLAYER
 10
76.5596975858
 20
54.1180191967
 11
77.5186805738
 21
52.0614735424
  0
LINE
  8
LED_CHIP_2835_BASE2
 62
7
  6
BYLAYER
 10
79.3002359053
 20
53.1340918041
 11
79.3002359053
 21
49.8340918041
  0
LINE
  8
LED_CHIP_2835_BASE2
 62
7
  6
BYLAYER
 10
79.3107102739
 20
49.8445661727
 11
79.3107102739
 21
50.2236174355
  0
LINE
  8
LED_CHIP_2835_BASE2
 62
7
  6
BYLAYER
 10
79.3133288661
 20
53.1209988433
 11
79.3133288661
 21
50.2209988433
  0
LINE
  8
LS-12V-72-W6S-2835_PLATE2
 62
7
  6
BYLAYER
 10
79.4249883608
 20
54.5840918041
 11
79.4249883608
 21
53.1340918041
  0
LINE
  8
LED_CHIP_2835_BASE2
 62
7
  6
BYLAYER
 10
79.4502359053
 20
52.7573060898
 11
79.4502359053
 21
50.2108775184
  0
LINE
  8
LED_CHIP_2835_SLICONE2
 62
7
  6
BYLAYER
 10
79.4642042131
 20
52.7573060898
 11
79.4642042131
 21
50.2108775184
  0
LINE
  8
LED_CHIP_2835_BASE2
 62
7
  6
BYLAYER
 10
79.6502359053
 20
52.9573060898
 11
79.6502359053
 21
52.943337782
  0
LINE
  8
LED_CHIP_2835_BASE2
 62
7
  6
BYLAYER
 10
79.6502359053
 20
50.0108775184
 11
79.6502359053
 21
50.0248458262
  0
LINE
  8
LED_CHIP_2835_ELETRODE_12
 62
7
  6
BYLAYER
 10
81.1802359053
 20
49.7340918041
 11
81.2802359053
 21
49.8340918041
  0
LINE
  8
LED_CHIP_2835_ELETRODE_22
 62
7
  6
BYLAYER
 10
81.2802359053
 20
53.1340918041
 11
81.1802359053
 21
53.2340918041
  0
LINE
  8
LED_CHIP_2835_BASE2
 62
7
  6
BYLAYER
 10
81.7502359053
 20
52.9573060898
 11
81.7502359053
 21
52.943337782
  0
LINE
  8
LED_CHIP_2835_BASE2
 62
7
  6
BYLAYER
 10
81.7502359053
 20
50.0108775184
 11
81.7502359053
 21
50.0248458262
  0
LINE
  8
0
 62
7
  6
BYLAYER
 10
81.9152359053
 20
50.6063353135
 11
81.9152359053
 21
50.606371286
  0
LINE
  8
LED_CHIP_2835_SLICONE2
 62
7
  6
BYLAYER
 10
81.9362675975
 20
50.2108775184
 11
81.9362675975
 21
52.7573060898
  0
LINE
  8
LED_CHIP_2835_BASE2
 62
7
  6
BYLAYER
 10
81.9502359053
 20
50.2108775184
 11
81.9502359053
 21
52.7573060898
  0
LINE
  8
LED_CHIP_2835_BASE2
 62
7
  6
BYLAYER
 10
82.0871429445
 20
49.8471847649
 11
82.0871429445
 21
53.1209988433
  0
LINE
  8
LED_CHIP_2835_BASE2
 62
7
  6
BYLAYER
 10
82.1002359053
 20
49.8340918041
 11
82.1002359053
 21
53.1340918041
  0
LINE
  8
LS-12V-72-W6S-2835_PLATE2
 62
7
  6
BYLAYER
 10
82.7310888409
 20
48.3840918041
 11
82.7310888409
 21
49.0840918041
  0
LINE
  8
LS-12V-72-W6S-2835_PLATE2
 62
7
  6
BYLAYER
 10
84.6648705122
 20
48.4690715848
 11
84.2664542341
 21
49.3991120234
  0
LINE
  8
LS-12V-72-W6S-2835_PLATE2
 62
7
  6
BYLAYER
 10
86.3065436923
 20
52.0614735424
 11
87.5616879591
 21
54.7531391088
  0
LINE
  8
LS-12V-72-W6S-2835_PLATE2
 62
7
  6
BYLAYER
 10
83.2387838514
 20
54.7531391088
 11
84.4939281182
 21
52.0614735424
  0
LINE
  8
LS-12V-72-W6S-2835_PLATE2
 62
7
  6
BYLAYER
 10
86.5340175765
 20
49.3991120234
 11
86.1356012984
 21
48.4690715848
  0
LINE
  8
LS-12V-72-W6S-2835_PLATE2
 62
7
  6
BYLAYER
 10
88.0693829696
 20
48.3840918041
 11
88.0693829696
 21
49.0840918041
  0
LINE
  8
LS-12V-72-W6S-2835_PLATE2
 62
7
  6
BYLAYER
 10
90.1002359053
 20
47.9840918041
 11
90.1002359053
 21
49.4840918041
  0
LINE
  8
LS-12V-72-W6S-2835_PADS2
 62
7
  6
BYLAYER
 10
90.1002359053
 20
49.4840918041
 11
90.1002359053
 21
51.0840918041
  0
LINE
  8
LS-12V-72-W6S-2835_PLATE2
 62
7
  6
BYLAYER
 10
90.1002359053
 20
51.0840918041
 11
90.1002359053
 21
51.8840918041
  0
LINE
  8
LS-12V-72-W6S-2835_PADS2
 62
7
  6
BYLAYER
 10
90.1002359053
 20
51.8840918041
 11
90.1002359053
 21
53.4840918041
  0
LINE
  8
LS-12V-72-W6S-2835_PLATE2
 62
7
  6
BYLAYER
 10
90.1002359053
 20
53.4840918041
 11
90.1002359053
 21
54.9840918041
  0
LINE
  8
LS-12V-72-W6S-2835_PLATE2
 62
7
  6
BYLAYER
 10
48.7002359053
 20
79.2734926936
 11
48.7002359053
 21
78.9734926936
  0
LINE
  8
LED_CHIP_2835_BASE2
 62
7
  6
BYLAYER
 10
52.1002359053
 20
79.4734926936
 11
52.1054730896
 21
79.2734926936
  0
LINE
  8
LED_CHIP_2835_BASE2
 62
7
  6
BYLAYER
 10
52.4871429445
 20
79.9734926936
 11
52.4897615367
 21
79.8734926936
  0
LINE
  8
LED_CHIP_2835_ELETRODE_12
 62
7
  6
BYLAYER
 10
52.4502359053
 20
79.4734926936
 11
52.4502359053
 21
79.2734926936
  0
LINE
  8
LED_CHIP_2835_ELETRODE_12
 62
7
  6
BYLAYER
 10
52.9202359053
 20
79.4734926936
 11
52.9202359053
 21
79.2734926936
  0
LINE
  8
LED_CHIP_2835_BASE2
 62
7
  6
BYLAYER
 10
52.1002359053
 20
79.4734926936
 11
52.1133288661
 21
79.9734926936
  0
LINE
  8
LED_CHIP_2835_ELETRODE_12
 62
7
  6
BYLAYER
 10
53.0202359053
 20
79.2734926936
 11
53.0202359053
 21
79.4734926936
  0
LINE
  8
LED_CHIP_2835_ELETRODE_12
 62
7
  6
BYLAYER
 10
53.9802359053
 20
79.4734926936
 11
53.9802359053
 21
79.2734926936
  0
LINE
  8
LED_CHIP_2835_ELETRODE_12
 62
7
  6
BYLAYER
 10
54.0802359053
 20
79.4734926936
 11
54.0802359053
 21
79.2734926936
  0
LINE
  8
LED_CHIP_2835_BASE2
 62
7
  6
BYLAYER
 10
54.9002359053
 20
79.4734926936
 11
54.8871429445
 21
79.9734926936
  0
LINE
  8
LED_CHIP_2835_ELETRODE_12
 62
7
  6
BYLAYER
 10
54.5502359053
 20
79.4734926936
 11
54.5502359053
 21
79.2734926936
  0
LINE
  8
0
 62
7
  6
BYLAYER
 10
54.7152359053
 20
80.8797741106
 11
54.7152359053
 21
80.8794677187
  0
LINE
  8
LS-12V-72-W6S-2835_PLATE2
 62
7
  6
BYLAYER
 10
54.7156754858
 20
78.9734926936
 11
54.7156754858
 21
79.2734926936
  0
LINE
  8
LS-12V-72-W6S-2835_PLATE2
 62
7
  6
BYLAYER
 10
55.1156754858
 20
78.9734926936
 11
55.1156754858
 21
79.2734926936
  0
LINE
  8
LED_CHIP_2835_BASE2
 62
7
  6
BYLAYER
 10
54.894998721
 20
79.2734926936
 11
54.9002359053
 21
79.4734926936
  0
LINE
  8
LS-12V-72-W6S-2835_PLATE2
 62
7
  6
BYLAYER
 10
56.1054686366
 20
79.2734926936
 11
56.1054686366
 21
78.9734926936
  0
LINE
  8
LS-12V-72-W6S-2835_PLATE2
 62
7
  6
BYLAYER
 10
57.9180842107
 20
79.2734926936
 11
57.9180842107
 21
78.9734926936
  0
LINE
  8
LS-12V-72-W6S-2835_PLATE2
 62
7
  6
BYLAYER
 10
58.850143446
 20
79.2734926936
 11
58.850143446
 21
78.9734926936
  0
LINE
  8
LS-12V-72-W6S-2835_PLATE2
 62
7
  6
BYLAYER
 10
61.7503283645
 20
79.2734926936
 11
61.7503283645
 21
78.9734926936
  0
LINE
  8
LS-12V-72-W6S-2835_PLATE2
 62
7
  6
BYLAYER
 10
62.6823875999
 20
79.2734926936
 11
62.6823875999
 21
78.9734926936
  0
LINE
  8
LS-12V-72-W6S-2835_PLATE2
 62
7
  6
BYLAYER
 10
64.495003174
 20
79.2734926936
 11
64.495003174
 21
78.9734926936
  0
LINE
  8
LED_CHIP_2835_BASE2
 62
7
  6
BYLAYER
 10
65.7002359053
 20
79.4734926936
 11
65.7054730896
 21
79.2734926936
  0
LINE
  8
LED_CHIP_2835_BASE2
 62
7
  6
BYLAYER
 10
66.0871429445
 20
79.9734926936
 11
66.0897615367
 21
79.8734926936
  0
LINE
  8
LS-12V-72-W6S-2835_PLATE2
 62
7
  6
BYLAYER
 10
65.4847963248
 20
79.2734926936
 11
65.4847963248
 21
78.9734926936
  0
LINE
  8
LS-12V-72-W6S-2835_PLATE2
 62
7
  6
BYLAYER
 10
65.8847963248
 20
79.2734926936
 11
65.8847963248
 21
78.9734926936
  0
LINE
  8
LED_CHIP_2835_ELETRODE_12
 62
7
  6
BYLAYER
 10
66.0502359053
 20
79.4734926936
 11
66.0502359053
 21
79.2734926936
  0
LINE
  8
LED_CHIP_2835_ELETRODE_12
 62
7
  6
BYLAYER
 10
66.5202359053
 20
79.4734926936
 11
66.5202359053
 21
79.2734926936
  0
LINE
  8
LED_CHIP_2835_ELETRODE_12
 62
7
  6
BYLAYER
 10
66.6202359053
 20
79.2734926936
 11
66.6202359053
 21
79.4734926936
  0
LINE
  8
LED_CHIP_2835_BASE2
 62
7
  6
BYLAYER
 10
65.7002359053
 20
79.4734926936
 11
65.7133288661
 21
79.9734926936
  0
LINE
  8
LED_CHIP_2835_ELETRODE_12
 62
7
  6
BYLAYER
 10
67.5802359053
 20
79.4734926936
 11
67.5802359053
 21
79.2734926936
  0
LINE
  8
LED_CHIP_2835_ELETRODE_12
 62
7
  6
BYLAYER
 10
67.6802359053
 20
79.4734926936
 11
67.6802359053
 21
79.2734926936
  0
LINE
  8
LED_CHIP_2835_ELETRODE_12
 62
7
  6
BYLAYER
 10
68.1502359053
 20
79.4734926936
 11
68.1502359053
 21
79.2734926936
  0
LINE
  8
LED_CHIP_2835_BASE2
 62
7
  6
BYLAYER
 10
68.5002359053
 20
79.4734926936
 11
68.4871429445
 21
79.9734926936
  0
LINE
  8
0
 62
7
  6
BYLAYER
 10
68.3152359053
 20
80.8797741106
 11
68.3152359053
 21
80.8794677187
  0
LINE
  8
RES_1206_012
 62
7
  6
BYLAYER
 10
68.9002359053
 20
79.8234926936
 11
68.9002359053
 21
79.2734926936
  0
LINE
  8
LED_CHIP_2835_BASE2
 62
7
  6
BYLAYER
 10
68.494998721
 20
79.2734926936
 11
68.5002359053
 21
79.4734926936
  0
LINE
  8
LS-12V-72-W6S-2835_PLATE2
 62
7
  6
BYLAYER
 10
48.7002359053
 20
78.9734926936
 11
90.1002359053
 21
78.9734926936
  0
LINE
  8
LS-12V-72-W6S-2835_PLATE2
 62
7
  6
BYLAYER
 10
48.7002359053
 20
79.2734926936
 11
90.1002359053
 21
79.2734926936
  0
LINE
  8
LED_CHIP_2835_BASE2
 62
7
  6
BYLAYER
 10
52.1002359053
 20
79.4734926936
 11
52.9202359053
 21
79.4734926936
  0
LINE
  8
LED_CHIP_2835_ELETRODE_12
 62
7
  6
BYLAYER
 10
52.4502359053
 20
79.4734926936
 11
54.5502359053
 21
79.4734926936
  0
LINE
  8
LED_CHIP_2835_BASE2
 62
7
  6
BYLAYER
 10
54.0802359053
 20
79.4734926936
 11
54.9002359053
 21
79.4734926936
  0
LINE
  8
LED_CHIP_2835_BASE2
 62
7
  6
BYLAYER
 10
65.7002359053
 20
79.4734926936
 11
66.5202359053
 21
79.4734926936
  0
LINE
  8
LED_CHIP_2835_ELETRODE_12
 62
7
  6
BYLAYER
 10
66.0502359053
 20
79.4734926936
 11
68.1502359053
 21
79.4734926936
  0
LINE
  8
LED_CHIP_2835_BASE2
 62
7
  6
BYLAYER
 10
67.6802359053
 20
79.4734926936
 11
68.5002359053
 21
79.4734926936
  0
LINE
  8
LED_CHIP_2835_BASE2
 62
7
  6
BYLAYER
 10
79.3002359053
 20
79.4734926936
 11
80.1202359053
 21
79.4734926936
  0
LINE
  8
LED_CHIP_2835_ELETRODE_12
 62
7
  6
BYLAYER
 10
79.6502359053
 20
79.4734926936
 11
81.7502359053
 21
79.4734926936
  0
LINE
  8
LED_CHIP_2835_BASE2
 62
7
  6
BYLAYER
 10
81.2802359053
 20
79.4734926936
 11
82.1002359053
 21
79.4734926936
  0
LINE
  8
RES_1206_012
 62
7
  6
BYLAYER
 10
70.5002359053
 20
79.8234926936
 11
68.9002359053
 21
79.8234926936
  0
LINE
  8
LED_CHIP_2835_BASE2
 62
7
  6
BYLAYER
 10
52.1107102739
 20
79.8734926936
 11
52.4897615367
 21
79.8734926936
  0
LINE
  8
LED_CHIP_2835_BASE2
 62
7
  6
BYLAYER
 10
65.7107102739
 20
79.8734926936
 11
66.0897615367
 21
79.8734926936
  0
LINE
  8
LED_CHIP_2835_BASE2
 62
7
  6
BYLAYER
 10
79.3107102739
 20
79.8734926936
 11
79.6897615367
 21
79.8734926936
  0
LINE
  8
LED_CHIP_2835_BASE2
 62
7
  6
BYLAYER
 10
52.1133288661
 20
79.9734926936
 11
54.8871429445
 21
79.9734926936
  0
LINE
  8
LED_CHIP_2835_BASE2
 62
7
  6
BYLAYER
 10
65.7133288661
 20
79.9734926936
 11
68.4871429445
 21
79.9734926936
  0
LINE
  8
LED_CHIP_2835_BASE2
 62
7
  6
BYLAYER
 10
79.3133288661
 20
79.9734926936
 11
82.0871429445
 21
79.9734926936
  0
LINE
  8
RES_1206_012
 62
7
  6
BYLAYER
 10
70.5002359053
 20
79.8234926936
 11
70.5002359053
 21
79.2734926936
  0
LINE
  8
LS-12V-72-W6S-2835_PLATE2
 62
7
  6
BYLAYER
 10
72.6762607366
 20
78.9734926936
 11
72.6762607366
 21
79.2734926936
  0
LINE
  8
LS-12V-72-W6S-2835_PLATE2
 62
7
  6
BYLAYER
 10
73.0387838514
 20
78.9734926936
 11
73.0387838514
 21
79.2734926936
  0
LINE
  8
LS-12V-72-W6S-2835_PLATE2
 62
7
  6
BYLAYER
 10
74.2939281182
 20
79.2734926936
 11
74.2939281182
 21
78.9734926936
  0
LINE
  8
LS-12V-72-W6S-2835_PLATE2
 62
7
  6
BYLAYER
 10
76.1065436923
 20
79.2734926936
 11
76.1065436923
 21
78.9734926936
  0
LINE
  8
LS-12V-72-W6S-2835_PLATE2
 62
7
  6
BYLAYER
 10
77.3616879591
 20
79.2734926936
 11
77.3616879591
 21
78.9734926936
  0
LINE
  8
LS-12V-72-W6S-2835_PLATE2
 62
7
  6
BYLAYER
 10
77.724211074
 20
79.2734926936
 11
77.724211074
 21
78.9734926936
  0
LINE
  8
LED_CHIP_2835_BASE2
 62
7
  6
BYLAYER
 10
79.3002359053
 20
79.4734926936
 11
79.3054730896
 21
79.2734926936
  0
LINE
  8
LED_CHIP_2835_BASE2
 62
7
  6
BYLAYER
 10
79.6871429445
 20
79.9734926936
 11
79.6897615367
 21
79.8734926936
  0
LINE
  8
LED_CHIP_2835_ELETRODE_12
 62
7
  6
BYLAYER
 10
79.6502359053
 20
79.4734926936
 11
79.6502359053
 21
79.2734926936
  0
LINE
  8
LED_CHIP_2835_ELETRODE_12
 62
7
  6
BYLAYER
 10
80.1202359053
 20
79.4734926936
 11
80.1202359053
 21
79.2734926936
  0
LINE
  8
LED_CHIP_2835_ELETRODE_12
 62
7
  6
BYLAYER
 10
80.2202359053
 20
79.2734926936
 11
80.2202359053
 21
79.4734926936
  0
LINE
  8
LED_CHIP_2835_BASE2
 62
7
  6
BYLAYER
 10
79.3002359053
 20
79.4734926936
 11
79.3133288661
 21
79.9734926936
  0
LINE
  8
LED_CHIP_2835_ELETRODE_12
 62
7
  6
BYLAYER
 10
81.1802359053
 20
79.4734926936
 11
81.1802359053
 21
79.2734926936
  0
LINE
  8
LED_CHIP_2835_ELETRODE_12
 62
7
  6
BYLAYER
 10
81.2802359053
 20
79.4734926936
 11
81.2802359053
 21
79.2734926936
  0
LINE
  8
LED_CHIP_2835_ELETRODE_12
 62
7
  6
BYLAYER
 10
81.7502359053
 20
79.4734926936
 11
81.7502359053
 21
79.2734926936
  0
LINE
  8
0
 62
7
  6
BYLAYER
 10
81.9152359053
 20
80.8797741106
 11
81.9152359053
 21
80.8794677187
  0
LINE
  8
LED_CHIP_2835_BASE2
 62
7
  6
BYLAYER
 10
82.1002359053
 20
79.4734926936
 11
82.0871429445
 21
79.9734926936
  0
LINE
  8
LS-12V-72-W6S-2835_PLATE2
 62
7
  6
BYLAYER
 10
82.3310888409
 20
78.9734926936
 11
82.3310888409
 21
79.2734926936
  0
LINE
  8
LS-12V-72-W6S-2835_PLATE2
 62
7
  6
BYLAYER
 10
82.7310888409
 20
78.9734926936
 11
82.7310888409
 21
79.2734926936
  0
LINE
  8
LED_CHIP_2835_BASE2
 62
7
  6
BYLAYER
 10
82.094998721
 20
79.2734926936
 11
82.1002359053
 21
79.4734926936
  0
LINE
  8
LS-12V-72-W6S-2835_PLATE2
 62
7
  6
BYLAYER
 10
84.2664542341
 20
79.2734926936
 11
84.2664542341
 21
78.9734926936
  0
LINE
  8
LS-12V-72-W6S-2835_PLATE2
 62
7
  6
BYLAYER
 10
84.6648705122
 20
79.2734926936
 11
84.6648705122
 21
78.9734926936
  0
LINE
  8
LS-12V-72-W6S-2835_PLATE2
 62
7
  6
BYLAYER
 10
86.1356012984
 20
79.2734926936
 11
86.1356012984
 21
78.9734926936
  0
LINE
  8
LS-12V-72-W6S-2835_PLATE2
 62
7
  6
BYLAYER
 10
86.5340175765
 20
79.2734926936
 11
86.5340175765
 21
78.9734926936
  0
LINE
  8
LS-12V-72-W6S-2835_PLATE2
 62
7
  6
BYLAYER
 10
88.0693829696
 20
79.2734926936
 11
88.0693829696
 21
78.9734926936
  0
LINE
  8
LS-12V-72-W6S-2835_PLATE2
 62
7
  6
BYLAYER
 10
88.4693829696
 20
79.2734926936
 11
88.4693829696
 21
78.9734926936
  0
LINE
  8
LS-12V-72-W6S-2835_PLATE2
 62
7
  6
BYLAYER
 10
90.1002359053
 20
79.2734926936
 11
90.1002359053
 21
78.9734926936
  0
CIRCLE
  8
LS-12V-72-W6S-28359
 62
3
  6
BYLAYER
 10
135.3468152832
 20
24.8882054838
 40
1.25
  0
CIRCLE
  8
LS-12V-72-W6S-28359
 62
3
  6
BYLAYER
 10
135.3468152832
 20
24.8882054838
 40
0.625
  0
ARC
  8
LS-12V-72-W6S-2835_PLATE2
 62
7
  6
BYLAYER
 10
54.7156754858
 20
48.3840918041
 40
0.4
 50
270.0
 51
360.0
  0
ARC
  8
LS-12V-72-W6S-2835_PLATE2
 62
7
  6
BYLAYER
 10
57.0117764236
 20
50.4840918041
 40
1.0
 50
25.0
 51
155.0
  0
ARC
  8
LS-12V-72-W6S-2835_PADS2
 62
7
  6
BYLAYER
 10
49.5002359053
 20
50.2840918041
 40
0.8
 50
270.0
 51
90.0
  0
ARC
  8
LS-12V-72-W6S-2835_PLATE2
 62
7
  6
BYLAYER
 10
49.5002359053
 20
50.2840918041
 40
0.8
 50
270.0
 51
90.0
  0
ARC
  8
LS-12V-72-W6S-2835_PADS2
 62
7
  6
BYLAYER
 10
52.8002359053
 20
49.9340918041
 40
0.3
 50
200.5889751424
 51
270.0
  0
ARC
  8
LS-12V-72-W6S-2835_PADS2
 62
7
  6
BYLAYER
 10
54.2002359053
 20
49.9340918041
 40
0.3
 50
270.0
 51
339.4110248576
  0
ARC
  8
LS-12V-72-W6S-2835_PLATE2
 62
7
  6
BYLAYER
 10
52.8002359053
 20
49.9340918041
 40
0.3
 50
199.5506432241
 51
270.0
  0
ARC
  8
LS-12V-72-W6S-2835_PLATE2
 62
7
  6
BYLAYER
 10
54.2002359053
 20
49.9340918041
 40
0.3
 50
270.0
 51
340.4493567759
  0
ARC
  8
LED_CHIP_2835_BASE2
 62
7
  6
BYLAYER
 10
52.4502359053
 20
50.2108775184
 40
0.2
 50
180.0
 51
270.0
  0
ARC
  8
LED_CHIP_2835_BASE2
 62
7
  6
BYLAYER
 10
54.5502359053
 20
50.2108775184
 40
0.2
 50
270.0
 51
360.0
  0
ARC
  8
LED_CHIP_2835_SLICONE2
 62
7
  6
BYLAYER
 10
54.5502359053
 20
50.2108775184
 40
0.1860316922
 50
270.0
 51
360.0
  0
ARC
  8
LED_CHIP_2835_SLICONE2
 62
7
  6
BYLAYER
 10
52.4502359053
 20
50.2108775184
 40
0.1860316922
 50
180.0
 51
270.0
  0
ARC
  8
LS-12V-72-W6S-2835_PLATE2
 62
7
  6
BYLAYER
 10
65.8847963248
 20
48.3840918041
 40
0.4
 50
180.0
 51
270.0
  0
ARC
  8
LS-12V-72-W6S-2835_PLATE2
 62
7
  6
BYLAYER
 10
60.3002359053
 20
49.5840918041
 40
1.6
 50
205.0
 51
335.0
  0
ARC
  8
LS-12V-72-W6S-2835_PLATE2
 62
7
  6
BYLAYER
 10
63.5886953869
 20
50.4840918041
 40
1.0
 50
25.0
 51
155.0
  0
ARC
  8
LS-12V-72-W6S-2835_PADS2
 62
7
  6
BYLAYER
 10
66.4002359053
 20
49.9340918041
 40
0.3
 50
200.5889751424
 51
270.0
  0
ARC
  8
LS-12V-72-W6S-2835_PADS2
 62
7
  6
BYLAYER
 10
67.8002359053
 20
49.9340918041
 40
0.3
 50
270.0
 51
339.4110248576
  0
ARC
  8
LS-12V-72-W6S-2835_PLATE2
 62
7
  6
BYLAYER
 10
66.4002359053
 20
49.9340918041
 40
0.3
 50
199.5506432241
 51
270.0
  0
ARC
  8
LS-12V-72-W6S-2835_PLATE2
 62
7
  6
BYLAYER
 10
67.8002359053
 20
49.9340918041
 40
0.3
 50
270.0
 51
340.4493567759
  0
ARC
  8
LED_CHIP_2835_BASE2
 62
7
  6
BYLAYER
 10
66.0502359053
 20
50.2108775184
 40
0.2
 50
180.0
 51
270.0
  0
ARC
  8
LED_CHIP_2835_BASE2
 62
7
  6
BYLAYER
 10
68.1502359053
 20
50.2108775184
 40
0.2
 50
270.0
 51
360.0
  0
ARC
  8
LED_CHIP_2835_SLICONE2
 62
7
  6
BYLAYER
 10
68.1502359053
 20
50.2108775184
 40
0.1860316922
 50
270.0
 51
360.0
  0
ARC
  8
LED_CHIP_2835_SLICONE2
 62
7
  6
BYLAYER
 10
66.0502359053
 20
50.2108775184
 40
0.1860316922
 50
180.0
 51
270.0
  0
ARC
  8
LS-12V-72-W6S-2835_PADS2
 62
7
  6
BYLAYER
 10
49.5002359053
 20
52.6840918041
 40
0.8
 50
270.0
 51
90.0
  0
ARC
  8
LS-12V-72-W6S-2835_PLATE2
 62
7
  6
BYLAYER
 10
49.5002359053
 20
52.6840918041
 40
0.8
 50
270.0
 51
90.0
  0
ARC
  8
LS-12V-72-W6S-2835_PADS2
 62
7
  6
BYLAYER
 10
52.8002359053
 20
53.0340918041
 40
0.3
 50
90.0
 51
159.4110248576
  0
ARC
  8
LS-12V-72-W6S-2835_PADS2
 62
7
  6
BYLAYER
 10
54.2002359053
 20
53.0340918041
 40
0.3
 50
20.5889751424
 51
90.0
  0
ARC
  8
LS-12V-72-W6S-2835_PLATE2
 62
7
  6
BYLAYER
 10
54.2002359053
 20
53.0340918041
 40
0.3
 50
19.5506432241
 51
90.0
  0
ARC
  8
LS-12V-72-W6S-2835_PLATE2
 62
7
  6
BYLAYER
 10
52.8002359053
 20
53.0340918041
 40
0.3
 50
90.0
 51
160.4493567759
  0
ARC
  8
LED_CHIP_2835_BASE2
 62
7
  6
BYLAYER
 10
52.4502359053
 20
52.7573060898
 40
0.2
 50
90.0
 51
180.0
  0
ARC
  8
LED_CHIP_2835_BASE2
 62
7
  6
BYLAYER
 10
54.5502359053
 20
52.7573060898
 40
0.2
 50
0.0
 51
90.0
  0
ARC
  8
LED_CHIP_2835_SLICONE2
 62
7
  6
BYLAYER
 10
52.4502359053
 20
52.7573060898
 40
0.1860316922
 50
90.0
 51
180.0
  0
ARC
  8
LED_CHIP_2835_SLICONE2
 62
7
  6
BYLAYER
 10
54.5502359053
 20
52.7573060898
 40
0.1860316922
 50
0.0
 51
90.0
  0
ARC
  8
LS-12V-72-W6S-2835_PLATE2
 62
7
  6
BYLAYER
 10
57.7762607366
 20
54.5840918041
 40
0.4
 50
25.0
 51
90.0
  0
ARC
  8
LS-12V-72-W6S-2835_PLATE2
 62
7
  6
BYLAYER
 10
60.3002359053
 20
52.4840918041
 40
1.0
 50
205.0
 51
335.0
  0
ARC
  8
LS-12V-72-W6S-2835_PADS2
 62
7
  6
BYLAYER
 10
66.4002359053
 20
53.0340918041
 40
0.3
 50
90.0
 51
159.4110248576
  0
ARC
  8
LS-12V-72-W6S-2835_PADS2
 62
7
  6
BYLAYER
 10
67.8002359053
 20
53.0340918041
 40
0.3
 50
20.5889751424
 51
90.0
  0
ARC
  8
LS-12V-72-W6S-2835_PLATE2
 62
7
  6
BYLAYER
 10
66.4002359053
 20
53.0340918041
 40
0.3
 50
90.0
 51
160.4493567759
  0
ARC
  8
LS-12V-72-W6S-2835_PLATE2
 62
7
  6
BYLAYER
 10
67.8002359053
 20
53.0340918041
 40
0.3
 50
19.5506432241
 51
90.0
  0
ARC
  8
LED_CHIP_2835_BASE2
 62
7
  6
BYLAYER
 10
66.0502359053
 20
52.7573060898
 40
0.2
 50
90.0
 51
180.0
  0
ARC
  8
LED_CHIP_2835_BASE2
 62
7
  6
BYLAYER
 10
68.1502359053
 20
52.7573060898
 40
0.2
 50
0.0
 51
90.0
  0
ARC
  8
LED_CHIP_2835_SLICONE2
 62
7
  6
BYLAYER
 10
66.0502359053
 20
52.7573060898
 40
0.1860316922
 50
90.0
 51
180.0
  0
ARC
  8
LED_CHIP_2835_SLICONE2
 62
7
  6
BYLAYER
 10
68.1502359053
 20
52.7573060898
 40
0.1860316922
 50
0.0
 51
90.0
  0
ARC
  8
LS-12V-72-W6S-2835_PLATE2
 62
7
  6
BYLAYER
 10
62.824211074
 20
54.5840918041
 40
0.4
 50
90.0
 51
155.0
  0
ARC
  8
LS-12V-72-W6S-2835_PLATE2
 62
7
  6
BYLAYER
 10
77.724211074
 20
48.3840918041
 40
0.4
 50
205.0
 51
270.0
  0
ARC
  8
LS-12V-72-W6S-2835_PLATE2
 62
7
  6
BYLAYER
 10
72.6762607366
 20
48.3840918041
 40
0.4
 50
270.0
 51
335.0
  0
ARC
  8
LS-12V-72-W6S-2835_PLATE2
 62
7
  6
BYLAYER
 10
75.2002359053
 20
50.4840918041
 40
1.0
 50
25.0
 51
155.0
  0
ARC
  8
LS-12V-72-W6S-2835_PADS2
 62
7
  6
BYLAYER
 10
69.7002359053
 20
50.0840918041
 40
0.75
 50
195.5895415087
 51
344.4104584913
  0
ARC
  8
LS-12V-72-W6S-2835_PLATE2
 62
7
  6
BYLAYER
 10
69.7002359053
 20
50.0840918041
 40
0.75
 50
195.5171917597
 51
344.4828082403
  0
ARC
  8
LS-12V-72-W6S-2835_PLATE2
 62
7
  6
BYLAYER
 10
87.2693829696
 20
49.0840918041
 40
0.8
 50
0.0
 51
156.8103870843
  0
ARC
  8
LS-12V-72-W6S-2835_PLATE2
 62
7
  6
BYLAYER
 10
85.4002359053
 20
48.7840918041
 40
0.8
 50
203.1896129157
 51
336.8103870843
  0
ARC
  8
LS-12V-72-W6S-2835_PLATE2
 62
7
  6
BYLAYER
 10
83.5310888409
 20
49.0840918041
 40
0.8
 50
23.1896129157
 51
180.0
  0
ARC
  8
LS-12V-72-W6S-2835_PLATE2
 62
7
  6
BYLAYER
 10
88.4693829696
 20
48.3840918041
 40
0.4
 50
180.0
 51
270.0
  0
ARC
  8
LS-12V-72-W6S-2835_PLATE2
 62
7
  6
BYLAYER
 10
82.3310888409
 20
48.3840918041
 40
0.4
 50
270.0
 51
360.0
  0
ARC
  8
LS-12V-72-W6S-2835_PADS2
 62
7
  6
BYLAYER
 10
89.3002359053
 20
50.2840918041
 40
0.8
 50
90.0
 51
270.0
  0
ARC
  8
LS-12V-72-W6S-2835_PLATE2
 62
7
  6
BYLAYER
 10
89.3002359053
 20
50.2840918041
 40
0.8
 50
90.0
 51
270.0
  0
ARC
  8
LS-12V-72-W6S-2835_PADS2
 62
7
  6
BYLAYER
 10
80.0002359053
 20
49.9340918041
 40
0.3
 50
200.5889751424
 51
270.0
  0
ARC
  8
LS-12V-72-W6S-2835_PADS2
 62
7
  6
BYLAYER
 10
81.4002359053
 20
49.9340918041
 40
0.3
 50
270.0
 51
339.4110248576
  0
ARC
  8
LS-12V-72-W6S-2835_PLATE2
 62
7
  6
BYLAYER
 10
81.4002359053
 20
49.9340918041
 40
0.3
 50
270.0
 51
340.4493567759
  0
ARC
  8
LS-12V-72-W6S-2835_PLATE2
 62
7
  6
BYLAYER
 10
80.0002359053
 20
49.9340918041
 40
0.3
 50
199.5506432241
 51
270.0
  0
ARC
  8
LED_CHIP_2835_BASE2
 62
7
  6
BYLAYER
 10
79.6502359053
 20
50.2108775184
 40
0.2
 50
180.0
 51
270.0
  0
ARC
  8
LED_CHIP_2835_BASE2
 62
7
  6
BYLAYER
 10
81.7502359053
 20
50.2108775184
 40
0.2
 50
270.0
 51
360.0
  0
ARC
  8
LED_CHIP_2835_SLICONE2
 62
7
  6
BYLAYER
 10
81.7502359053
 20
50.2108775184
 40
0.1860316922
 50
270.0
 51
360.0
  0
ARC
  8
LED_CHIP_2835_SLICONE2
 62
7
  6
BYLAYER
 10
79.6502359053
 20
50.2108775184
 40
0.1860316922
 50
180.0
 51
270.0
  0
ARC
  8
LS-12V-72-W6S-2835_PLATE2
 62
7
  6
BYLAYER
 10
75.2002359053
 20
53.4840918041
 40
1.5
 50
25.0
 51
155.0
  0
ARC
  8
LS-12V-72-W6S-2835_PLATE2
 62
7
  6
BYLAYER
 10
71.9754834497
 20
52.4840918041
 40
1.0
 50
180.0
 51
335.0
  0
ARC
  8
LS-12V-72-W6S-2835_PLATE2
 62
7
  6
BYLAYER
 10
78.4249883608
 20
52.4840918041
 40
1.0
 50
205.0
 51
331.6146618845
  0
ARC
  8
LS-12V-72-W6S-2835_PADS2
 62
7
  6
BYLAYER
 10
69.7002359053
 20
52.8840918041
 40
0.75
 50
15.5727254237
 51
164.4272745763
  0
ARC
  8
LS-12V-72-W6S-2835_PLATE2
 62
7
  6
BYLAYER
 10
69.7002359053
 20
52.8840918041
 40
0.75
 50
15.5003897636
 51
164.4996102364
  0
ARC
  8
LS-12V-72-W6S-2835_PLATE2
 62
7
  6
BYLAYER
 10
70.5754834497
 20
54.5840918041
 40
0.4
 50
0.0
 51
90.0
  0
ARC
  8
LS-12V-72-W6S-2835_PLATE2
 62
7
  6
BYLAYER
 10
85.4002359053
 20
52.4840918041
 40
1.0
 50
205.0
 51
335.0
  0
ARC
  8
LS-12V-72-W6S-2835_PADS2
 62
7
  6
BYLAYER
 10
89.3002359053
 20
52.6840918041
 40
0.8
 50
90.0
 51
270.0
  0
ARC
  8
LS-12V-72-W6S-2835_PLATE2
 62
7
  6
BYLAYER
 10
89.3002359053
 20
52.6840918041
 40
0.8
 50
90.0
 51
270.0
  0
ARC
  8
LS-12V-72-W6S-2835_PADS2
 62
7
  6
BYLAYER
 10
80.0002359053
 20
53.0340918041
 40
0.3
 50
90.0
 51
159.4110248576
  0
ARC
  8
LS-12V-72-W6S-2835_PADS2
 62
7
  6
BYLAYER
 10
81.4002359053
 20
53.0340918041
 40
0.3
 50
20.5889751424
 51
90.0
  0
ARC
  8
LS-12V-72-W6S-2835_PLATE2
 62
7
  6
BYLAYER
 10
80.0002359053
 20
53.0340918041
 40
0.3
 50
90.0
 51
160.4493567759
  0
ARC
  8
LS-12V-72-W6S-2835_PLATE2
 62
7
  6
BYLAYER
 10
81.4002359053
 20
53.0340918041
 40
0.3
 50
19.5506432241
 51
90.0
  0
ARC
  8
LED_CHIP_2835_BASE2
 62
7
  6
BYLAYER
 10
79.6502359053
 20
52.7573060898
 40
0.2
 50
90.0
 51
180.0
  0
ARC
  8
LED_CHIP_2835_BASE2
 62
7
  6
BYLAYER
 10
81.7502359053
 20
52.7573060898
 40
0.2
 50
0.0
 51
90.0
  0
ARC
  8
LED_CHIP_2835_SLICONE2
 62
7
  6
BYLAYER
 10
79.6502359053
 20
52.7573060898
 40
0.1860316922
 50
90.0
 51
180.0
  0
ARC
  8
LED_CHIP_2835_SLICONE2
 62
7
  6
BYLAYER
 10
81.7502359053
 20
52.7573060898
 40
0.1860316922
 50
0.0
 51
90.0
  0
ARC
  8
LS-12V-72-W6S-2835_PLATE2
 62
7
  6
BYLAYER
 10
79.8249883608
 20
54.5840918041
 40
0.4
 50
90.0
 51
180.0
  0
ARC
  8
LS-12V-72-W6S-2835_PLATE2
 62
7
  6
BYLAYER
 10
82.8762607366
 20
54.5840918041
 40
0.4
 50
25.0
 51
90.0
  0
ARC
  8
LS-12V-72-W6S-2835_PLATE2
 62
7
  6
BYLAYER
 10
87.924211074
 20
54.5840918041
 40
0.4
 50
90.0
 51
155.0
  0
ENDSEC
  0
EOF
