999
DXF file: E:\PTCStandard\library\LED\LedStrip_V1\LS-12V-90-W6S-2835\ls-12v-90-w6s-2835.dxf
999
Pro/ENGINEER 2011310 by Parametric Technology Corporation
  0
SECTION
  2
HEADER
  9
$EXTMAX
 10
148.5
 20
105.0
 30
0.0
  9
$EXTMIN
 10
0.0
 20
0.0
 30
0.0
  9
$LIMMIN
 10
0.0
 20
0.0
  9
$LIMMAX
 10
148.5
 20
105.0
  9
$VIEWCTR
 10
74.25
 20
52.5
  9
$VIEWSIZE
 40
105.0
  9
$CLAYER
  8
0
  9
$LTSCALE
 40
8.1675
  9
$CELTYPE
  6
BYLAYER
  9
$DIMSCALE
 40
1.0
  9
$DIMASZ
 40
1.75
  9
$DIMEXO
 40
0.928125
  9
$DIMDLI
 40
5.643
  9
$DIMEXE
 40
2.673
  9
$DIMCEN
 40
1.3365
  9
$DIMLFAC
 40
1.0
  9
$DIMBLK
  1
_FILLED
  9
$DIMTXT
 40
3.5
  9
$PDMODE
 70
3
  9
$PDSIZE
 40
8.0
  9
$TILEMODE
 70
1
  0
ENDSEC
  0
SECTION
  2
TABLES
  0
TABLE
  2
LTYPE
 70
6
  0
LTYPE
  2
BYBLOCK
 70
0
  3

 72
65
 73
0
 40
0.0
  0
LTYPE
  2
BYLAYER
 70
0
  3

 72
65
 73
0
 40
0.0
  0
LTYPE
  2
CONTINUOUS
 70
64
  3
Solid line
 72
65
 73
0
 40
0.0
  0
LTYPE
  2
CENTER
 70
64
  3
____ _ ____ _ ____ _ ____ _ ____ _ ____ _ ____
 72
65
 73
4
 40
0.6
 49
0.375
 49
-0.075
 49
0.075
 49
-0.075
  0
LTYPE
  2
HIDDEN
 70
64
  3
- - - - - - - - - - - - - - - - - - - -
 72
65
 73
2
 40
0.2
 49
0.1
 49
-0.1
  0
LTYPE
  2
PHANTOM
 70
64
  3
_____ _ _ _____ _ _ _____ _ _ _____
 72
65
 73
6
 40
0.8
 49
0.45
 49
-0.05
 49
0.1
 49
-0.05
 49
0.1
 49
-0.05
  0
LTYPE
  2
DOT
 70
64
  3
. . . . . . . . . . . . . . . . . . . .
 72
65
 73
2
 40
0.2
 49
0.1
 49
-0.1
  0
LTYPE
  2
DASHED
 70
64
  3
- - - - - - - - - - - - - - - - - - - -
 72
65
 73
2
 40
0.2
 49
0.1
 49
-0.1
  0
ENDTAB
  0
TABLE
  2
LAYER
 70
36
  0
LAYER
  2
0
 70
0
 62
7
  6
CONTINUOUS
  0
LAYER
  2
DEFAULT_1
 70
0
 62
7
  6
CENTER
  0
LAYER
  2
DEFAULT_2
 70
0
 62
8
  6
HIDDEN
  0
LAYER
  2
DEFAULT_3
 70
0
 62
7
  6
PHANTOM
  0
LAYER
  2
01_ALL_DTM_PLN
 70
0
 62
7
  6
CONTINUOUS
  0
LAYER
  2
01__ASM_ALL_DTM_PLN
 70
0
 62
7
  6
CONTINUOUS
  0
LAYER
  2
01__ASM_DEF_DTM_PLN
 70
0
 62
7
  6
CONTINUOUS
  0
LAYER
  2
01___PRT_ALL_DTM_PLN
 70
0
 62
7
  6
CONTINUOUS
  0
LAYER
  2
01___PRT_DEF_DTM_PLN
 70
0
 62
7
  6
CONTINUOUS
  0
LAYER
  2
02_ALL_AXES
 70
0
 62
7
  6
CONTINUOUS
  0
LAYER
  2
02__ASM_ALL_AXES
 70
0
 62
7
  6
CONTINUOUS
  0
LAYER
  2
02___PRT_ALL_AXES
 70
0
 62
7
  6
CONTINUOUS
  0
LAYER
  2
03_ALL_CURVES
 70
0
 62
7
  6
CONTINUOUS
  0
LAYER
  2
03__ASM_ALL_CURVES
 70
0
 62
7
  6
CONTINUOUS
  0
LAYER
  2
03___PRT_ALL_CURVES
 70
0
 62
7
  6
CONTINUOUS
  0
LAYER
  2
04_ALL_DTM_PNT
 70
0
 62
7
  6
CONTINUOUS
  0
LAYER
  2
04__ASM_ALL_DTM_PNT
 70
0
 62
7
  6
CONTINUOUS
  0
LAYER
  2
04___PRT_ALL_DTM_PNT
 70
0
 62
7
  6
CONTINUOUS
  0
LAYER
  2
05_ALL_DTM_CSYS
 70
0
 62
7
  6
CONTINUOUS
  0
LAYER
  2
05__ASM_ALL_DTM_CSYS
 70
0
 62
7
  6
CONTINUOUS
  0
LAYER
  2
05__ASM_DEF_DTM_CSYS
 70
0
 62
7
  6
CONTINUOUS
  0
LAYER
  2
05___PRT_ALL_DTM_CSYS
 70
0
 62
7
  6
CONTINUOUS
  0
LAYER
  2
05___PRT_DEF_DTM_CSYS
 70
0
 62
7
  6
CONTINUOUS
  0
LAYER
  2
06_ALL_SURFS
 70
0
 62
7
  6
CONTINUOUS
  0
LAYER
  2
06__ASM_ALL_SURFS
 70
0
 62
7
  6
CONTINUOUS
  0
LAYER
  2
06___PRT_ALL_SURFS
 70
0
 62
7
  6
CONTINUOUS
  0
LAYER
  2
07__ASM_ALL_SKELETONS
 70
0
 62
7
  6
CONTINUOUS
  0
LAYER
  2
INTF_YELLOW
 70
0
 62
7
  6
CONTINUOUS
  0
LAYER
  2
LAYER_01
 70
0
 62
7
  6
CONTINUOUS
  0
LAYER
  2
LAYER_02
 70
0
 62
7
  6
CONTINUOUS
  0
LAYER
  2
LAYER_02_208
 70
0
 62
7
  6
CONTINUOUS
  0
LAYER
  2
LAYER_04
 70
0
 62
7
  6
CONTINUOUS
  0
LAYER
  2
LAYER_04_210
 70
0
 62
7
  6
CONTINUOUS
  0
LAYER
  2
LS-12V-90-W6S-28359
 70
0
 62
7
  6
CONTINUOUS
  0
LAYER
  2
LS-12V-90-W6S-28354
 70
0
 62
7
  6
CONTINUOUS
  0
LAYER
  2
LS-12V-90-W6S-2835_PLATE2
 70
0
 62
7
  6
CONTINUOUS
  0
LAYER
  2
LS-12V-90-W6S-2835_PADS2
 70
0
 62
7
  6
CONTINUOUS
  0
LAYER
  2
LED_CHIP_2835_BASE2
 70
0
 62
7
  6
CONTINUOUS
  0
LAYER
  2
LED_CHIP_2835_SLICONE2
 70
0
 62
7
  6
CONTINUOUS
  0
LAYER
  2
LED_CHIP_2835_ELETRODE_22
 70
0
 62
7
  6
CONTINUOUS
  0
LAYER
  2
LED_CHIP_2835_ELETRODE_12
 70
0
 62
7
  6
CONTINUOUS
  0
LAYER
  2
RES_1206_032
 70
0
 62
7
  6
CONTINUOUS
  0
LAYER
  2
RES_1206_012
 70
0
 62
7
  6
CONTINUOUS
  0
ENDTAB
  0
TABLE
  2
STYLE
 70
1
  0
STYLE
  2
STANDARD
 70
0
 40
0.0
 41
0.85
 50
0.0
 71
0
 42
0.2
  3
SIMHEI.SHX
  4

  0
STYLE
  2
TEXTSTYLE_1
 70
0
 40
0.0
 41
0.8
 50
0.0
 71
0
 42
0.2
  3
gdt
  4

  0
STYLE
  2
TEXTSTYLE_2
 70
0
 40
0.0
 41
1.0
 50
0.0
 71
0
 42
0.2
  3
TXT.TTF
  4

  0
STYLE
  2
TEXTSTYLE_3
 70
0
 40
0.0
 41
1.0
 50
0.0
 71
0
 42
0.2
  3
TXT.TTF
  4

  0
STYLE
  2
TEXTSTYLE_4
 70
0
 40
0.0
 41
1.0
 50
0.0
 71
0
 42
0.2
  3
TXT.TTF
  4

  0
STYLE
  2
TEXTSTYLE_5
 70
0
 40
0.0
 41
1.0
 50
0.0
 71
0
 42
0.2
  3
TXT.TTF
  4

  0
STYLE
  2
TEXTSTYLE_6
 70
0
 40
0.0
 41
1.0
 50
0.0
 71
0
 42
0.2
  3
TXT.TTF
  4

  0
STYLE
  2
TEXTSTYLE_7
 70
0
 40
0.0
 41
0.75
 50
0.0
 71
0
 42
0.2
  3
SIMHEI.SHX
  4

  0
STYLE
  2
TEXTSTYLE_8
 70
0
 40
0.0
 41
0.55
 50
0.0
 71
0
 42
0.2
  3
gdt
  4

  0
ENDTAB
  0
ENDSEC
  0
SECTION
  2
BLOCKS
  0
BLOCK
  8
LS-12V-90-W6S-28359
 62
7
  6
BYLAYER
  2
SYMBOL_283_BL0
 70
64
 10
93.695333645
 20
8.7160826395
  0
LINE
  8
LS-12V-90-W6S-28359
 62
7
  6
BYLAYER
 10
86.0015496145
 20
10.6267449668
 11
86.0015496145
 21
10.091874674
  0
LINE
  8
LS-12V-90-W6S-28359
 62
7
  6
BYLAYER
 10
86.5038205892
 20
10.091874674
 11
86.5038205892
 21
10.6267449668
  0
LINE
  8
LS-12V-90-W6S-28359
 62
7
  6
BYLAYER
 10
86.8639654364
 20
10.6267449668
 11
86.8639654364
 21
10.091874674
  0
LINE
  8
LS-12V-90-W6S-28359
 62
7
  6
BYLAYER
 10
87.3593370845
 20
10.091874674
 11
87.3593370845
 21
10.6267449668
  0
LINE
  8
LS-12V-90-W6S-28359
 62
7
  6
BYLAYER
 10
87.7312107869
 20
10.6267449668
 11
87.7312107869
 21
10.091874674
  0
LINE
  8
LS-12V-90-W6S-28359
 62
7
  6
BYLAYER
 10
88.232791829
 20
10.091874674
 11
88.232791829
 21
10.6267449668
  0
LINE
  8
LS-12V-90-W6S-28359
 62
7
  6
BYLAYER
 10
91.5867145678
 20
6.6582927847
 11
92.2946994936
 21
6.6582927847
  0
LINE
  8
LS-12V-90-W6S-28359
 62
7
  6
BYLAYER
 10
92.2946994936
 20
6.6582927847
 11
92.2946994936
 21
6.5437120593
  0
LINE
  8
LS-12V-90-W6S-28359
 62
7
  6
BYLAYER
 10
92.2946994936
 20
6.5437120593
 11
91.7674056701
 21
6.5437120593
  0
LINE
  8
LS-12V-90-W6S-28359
 62
7
  6
BYLAYER
 10
91.7674056701
 20
6.5437120593
 11
91.7674056701
 21
6.1457784444
  0
LINE
  8
LS-12V-90-W6S-28359
 62
7
  6
BYLAYER
 10
91.7674056701
 20
6.1457784444
 11
92.2946994936
 21
6.1457784444
  0
LINE
  8
LS-12V-90-W6S-28359
 62
7
  6
BYLAYER
 10
92.2946994936
 20
6.1457784444
 11
92.2946994936
 21
6.0327869108
  0
LINE
  8
LS-12V-90-W6S-28359
 62
7
  6
BYLAYER
 10
92.2946994936
 20
6.0327869108
 11
91.7674056701
 21
6.0327869108
  0
LINE
  8
LS-12V-90-W6S-28359
 62
7
  6
BYLAYER
 10
91.7674056701
 20
6.0327869108
 11
91.7674056701
 21
5.5603202027
  0
LINE
  8
LS-12V-90-W6S-28359
 62
7
  6
BYLAYER
 10
91.7674056701
 20
5.5603202027
 11
92.2946994936
 21
5.5603202027
  0
LINE
  8
LS-12V-90-W6S-28359
 62
7
  6
BYLAYER
 10
92.2946994936
 20
5.5603202027
 11
92.2946994936
 21
5.4520962443
  0
LINE
  8
LS-12V-90-W6S-28359
 62
7
  6
BYLAYER
 10
92.2946994936
 20
5.4520962443
 11
91.5867145678
 21
5.4520962443
  0
LINE
  8
LS-12V-90-W6S-28359
 62
7
  6
BYLAYER
 10
91.5867145678
 20
5.4520962443
 11
91.5867145678
 21
6.6582927847
  0
LINE
  8
LS-12V-90-W6S-28359
 62
7
  6
BYLAYER
 10
97.4745905524
 20
6.0478842324
 11
97.4745905524
 21
6.0442290914
  0
ARC
  8
LS-12V-90-W6S-28359
 62
7
  6
BYLAYER
 10
98.2058312401
 20
6.0328011315
 40
0.7313299813
 50
179.1046442283
 51
200.8922339549
  0
ARC
  8
LS-12V-90-W6S-28359
 62
7
  6
BYLAYER
 10
98.0897963867
 20
6.0115574816
 40
0.6157249835
 50
202.8963230435
 51
250.070082015
  0
ARC
  8
LS-12V-90-W6S-28359
 62
7
  6
BYLAYER
 10
98.1198519264
 20
6.1027621165
 40
0.7117180837
 50
250.2981849841
 51
270.5013647429
  0
LINE
  8
LS-12V-90-W6S-28359
 62
7
  6
BYLAYER
 10
98.1260797114
 20
5.391071281
 11
98.1984673958
 21
5.391071281
  0
LINE
  8
LS-12V-90-W6S-28359
 62
7
  6
BYLAYER
 10
98.1984673958
 20
5.391071281
 11
98.2482090976
 21
5.3928193919
  0
LINE
  8
LS-12V-90-W6S-28359
 62
7
  6
BYLAYER
 10
98.2482090976
 20
5.3928193919
 11
98.2979507995
 21
5.3982226439
  0
LINE
  8
LS-12V-90-W6S-28359
 62
7
  6
BYLAYER
 10
98.2979507995
 20
5.3982226439
 11
98.3486460164
 21
5.4072810369
  0
LINE
  8
LS-12V-90-W6S-28359
 62
7
  6
BYLAYER
 10
98.3486460164
 20
5.4072810369
 11
98.4010893443
 21
5.41824646
  0
LINE
  8
LS-12V-90-W6S-28359
 62
7
  6
BYLAYER
 10
98.4010893443
 20
5.41824646
 11
98.4128493632
 21
5.4217426818
  0
LINE
  8
LS-12V-90-W6S-28359
 62
7
  6
BYLAYER
 10
98.4128493632
 20
5.4217426818
 11
98.4264369527
 21
5.4253978228
  0
LINE
  8
LS-12V-90-W6S-28359
 62
7
  6
BYLAYER
 10
98.4264369527
 20
5.4253978228
 11
98.5024797781
 21
5.4506659717
  0
LINE
  8
LS-12V-90-W6S-28359
 62
7
  6
BYLAYER
 10
98.5024797781
 20
5.4506659717
 11
98.527747927
 21
5.4616313948
  0
LINE
  8
LS-12V-90-W6S-28359
 62
7
  6
BYLAYER
 10
98.527747927
 20
5.4616313948
 11
98.5530955354
 21
5.4743449288
  0
LINE
  8
LS-12V-90-W6S-28359
 62
7
  6
BYLAYER
 10
98.5530955354
 20
5.4743449288
 11
98.5766155734
 21
5.4888065738
  0
LINE
  8
LS-12V-90-W6S-28359
 62
7
  6
BYLAYER
 10
98.5766155734
 20
5.4888065738
 11
98.6019631818
 21
5.5050163297
  0
LINE
  8
LS-12V-90-W6S-28359
 62
7
  6
BYLAYER
 10
98.6019631818
 20
5.5050163297
 11
98.6164248268
 21
5.6172132674
  0
LINE
  8
LS-12V-90-W6S-28359
 62
7
  6
BYLAYER
 10
98.6164248268
 20
5.6172132674
 11
98.5440371424
 21
5.6154651565
  0
ARC
  8
LS-12V-90-W6S-28359
 62
7
  6
BYLAYER
 10
98.1997751558
 20
6.0244869291
 40
0.5346168029
 50
300.1226166813
 51
310.0863647934
  0
ARC
  8
LS-12V-90-W6S-28359
 62
7
  6
BYLAYER
 10
98.1662699568
 20
6.0768391009
 40
0.5967197911
 50
290.9261388757
 51
300.3825747552
  0
ARC
  8
LS-12V-90-W6S-28359
 62
7
  6
BYLAYER
 10
98.1681924007
 20
6.0424805941
 40
0.564038182
 50
282.3564329875
 51
291.9903650689
  0
ARC
  8
LS-12V-90-W6S-28359
 62
7
  6
BYLAYER
 10
98.1467490709
 20
6.1327897292
 40
0.6568460458
 50
274.3560974414
 51
282.4978406016
  0
ARC
  8
LS-12V-90-W6S-28359
 62
7
  6
BYLAYER
 10
98.2279681635
 20
5.9715147744
 40
0.494666667
 50
247.3413638217
 51
266.3689009432
  0
ARC
  8
LS-12V-90-W6S-28359
 62
7
  6
BYLAYER
 10
98.2552115965
 20
6.0277596045
 40
0.5570764052
 50
229.1447438403
 51
246.9841673426
  0
ARC
  8
LS-12V-90-W6S-28359
 62
7
  6
BYLAYER
 10
98.1450740116
 20
5.8994555744
 40
0.3879857516
 50
197.9155448152
 51
229.0523049251
  0
ARC
  8
LS-12V-90-W6S-28359
 62
7
  6
BYLAYER
 10
98.6050833817
 20
6.0490180446
 40
0.8716977164
 50
180.1894261358
 51
197.9684336648
  0
LINE
  8
LS-12V-90-W6S-28359
 62
7
  6
BYLAYER
 10
97.7333904293
 20
6.0461361215
 11
97.7333904293
 21
6.0677491293
  0
ARC
  8
LS-12V-90-W6S-28359
 62
7
  6
BYLAYER
 10
98.3721217673
 20
6.078555534
 40
0.6388227457
 50
160.1190365148
 51
180.9692687312
  0
ARC
  8
LS-12V-90-W6S-28359
 62
7
  6
BYLAYER
 10
98.2252251833
 20
6.1258813725
 40
0.484617705
 50
135.1351303734
 51
159.4747438859
  0
ARC
  8
LS-12V-90-W6S-28359
 62
7
  6
BYLAYER
 10
98.2273086844
 20
6.1289742975
 40
0.4839264247
 50
95.5684905603
 51
135.5687020976
  0
LINE
  8
LS-12V-90-W6S-28359
 62
7
  6
BYLAYER
 10
98.1803506098
 20
6.6106170321
 11
98.1894090028
 21
6.6106170321
  0
LINE
  8
LS-12V-90-W6S-28359
 62
7
  6
BYLAYER
 10
98.1894090028
 20
6.6106170321
 11
98.2092738997
 21
6.6079154061
  0
LINE
  8
LS-12V-90-W6S-28359
 62
7
  6
BYLAYER
 10
98.2092738997
 20
6.6079154061
 11
98.2310458267
 21
6.6052137801
  0
LINE
  8
LS-12V-90-W6S-28359
 62
7
  6
BYLAYER
 10
98.2310458267
 20
6.6052137801
 11
98.3043075665
 21
6.5863023983
  0
ARC
  8
LS-12V-90-W6S-28359
 62
7
  6
BYLAYER
 10
98.1460186064
 20
6.0933956891
 40
0.5176991586
 50
63.4314101522
 51
72.196424709
  0
ARC
  8
LS-12V-90-W6S-28359
 62
7
  6
BYLAYER
 10
98.1430766444
 20
6.0881935314
 40
0.5236679027
 50
54.371244206
 51
63.3980911646
  0
LINE
  8
LS-12V-90-W6S-28359
 62
7
  6
BYLAYER
 10
98.4481294202
 20
6.5138352544
 11
98.5151138525
 21
6.4604384115
  0
LINE
  8
LS-12V-90-W6S-28359
 62
7
  6
BYLAYER
 10
98.5151138525
 20
6.4604384115
 11
98.6019631818
 21
6.4604384115
  0
LINE
  8
LS-12V-90-W6S-28359
 62
7
  6
BYLAYER
 10
98.6019631818
 20
6.4604384115
 11
98.6454275763
 21
6.5998105282
  0
ARC
  8
LS-12V-90-W6S-28359
 62
7
  6
BYLAYER
 10
98.423456959
 20
6.2433503203
 40
0.4199224151
 50
58.0891485033
 51
67.5454670452
  0
ARC
  8
LS-12V-90-W6S-28359
 62
7
  6
BYLAYER
 10
98.3422294992
 20
6.015302615
 40
0.6618144663
 50
68.5873384549
 51
81.3423857767
  0
LINE
  8
LS-12V-90-W6S-28359
 62
7
  6
BYLAYER
 10
98.4418521127
 20
6.6695760461
 11
98.3667628024
 21
6.6776809241
  0
LINE
  8
LS-12V-90-W6S-28359
 62
7
  6
BYLAYER
 10
98.3667628024
 20
6.6776809241
 11
98.2888924065
 21
6.683084176
  0
ARC
  8
LS-12V-90-W6S-28359
 62
7
  6
BYLAYER
 10
98.2798269406
 20
6.8703343037
 40
0.1874694454
 50
261.6918862418
 51
272.7717347723
  0
ARC
  8
LS-12V-90-W6S-28359
 62
7
  6
BYLAYER
 10
98.2436468962
 20
6.857268175
 40
0.1726753862
 50
260.9563938617
 51
273.01803113
  0
LINE
  8
LS-12V-90-W6S-28359
 62
7
  6
BYLAYER
 10
98.2165047222
 20
6.6867393171
 11
98.1441170378
 21
6.684832287
  0
ARC
  8
LS-12V-90-W6S-28359
 62
7
  6
BYLAYER
 10
98.1328960659
 20
5.924774516
 40
0.7601405959
 50
89.1541858308
 51
110.4524797124
  0
ARC
  8
LS-12V-90-W6S-28359
 62
7
  6
BYLAYER
 10
98.0761948205
 20
6.0969043331
 40
0.5790908606
 50
111.1471074556
 51
136.8410387207
  0
ARC
  8
LS-12V-90-W6S-28359
 62
7
  6
BYLAYER
 10
98.1510921533
 20
6.0248361978
 40
0.6830230801
 50
136.728707552
 51
157.5391803557
  0
ARC
  8
LS-12V-90-W6S-28359
 62
7
  6
BYLAYER
 10
98.0994035306
 20
6.0521942239
 40
0.6248278434
 50
158.0467340334
 51
180.395222912
  0
LINE
  8
LS-12V-90-W6S-28359
 62
7
  6
BYLAYER
 10
99.3294157067
 20
6.0478842324
 11
99.3294157067
 21
6.0442290914
  0
ARC
  8
LS-12V-90-W6S-28359
 62
7
  6
BYLAYER
 10
100.0606563944
 20
6.0328011315
 40
0.7313299813
 50
179.1046442283
 51
200.8922339548
  0
ARC
  8
LS-12V-90-W6S-28359
 62
7
  6
BYLAYER
 10
99.944621541
 20
6.0115574816
 40
0.6157249835
 50
202.8963230435
 51
250.0700820149
  0
ARC
  8
LS-12V-90-W6S-28359
 62
7
  6
BYLAYER
 10
99.9746770807
 20
6.1027621165
 40
0.7117180837
 50
250.2981849841
 51
270.5013647429
  0
LINE
  8
LS-12V-90-W6S-28359
 62
7
  6
BYLAYER
 10
99.9809048657
 20
5.391071281
 11
100.0532925501
 21
5.391071281
  0
LINE
  8
LS-12V-90-W6S-28359
 62
7
  6
BYLAYER
 10
100.0532925501
 20
5.391071281
 11
100.103034252
 21
5.3928193919
  0
LINE
  8
LS-12V-90-W6S-28359
 62
7
  6
BYLAYER
 10
100.103034252
 20
5.3928193919
 11
100.1527759538
 21
5.3982226439
  0
LINE
  8
LS-12V-90-W6S-28359
 62
7
  6
BYLAYER
 10
100.1527759538
 20
5.3982226439
 11
100.2034711707
 21
5.4072810369
  0
LINE
  8
LS-12V-90-W6S-28359
 62
7
  6
BYLAYER
 10
100.2034711707
 20
5.4072810369
 11
100.2559144986
 21
5.41824646
  0
LINE
  8
LS-12V-90-W6S-28359
 62
7
  6
BYLAYER
 10
100.2559144986
 20
5.41824646
 11
100.2676745175
 21
5.4217426818
  0
LINE
  8
LS-12V-90-W6S-28359
 62
7
  6
BYLAYER
 10
100.2676745175
 20
5.4217426818
 11
100.281262107
 21
5.4253978228
  0
LINE
  8
LS-12V-90-W6S-28359
 62
7
  6
BYLAYER
 10
100.281262107
 20
5.4253978228
 11
100.3573049324
 21
5.4506659717
  0
LINE
  8
LS-12V-90-W6S-28359
 62
7
  6
BYLAYER
 10
100.3573049324
 20
5.4506659717
 11
100.3825730813
 21
5.4616313948
  0
LINE
  8
LS-12V-90-W6S-28359
 62
7
  6
BYLAYER
 10
100.3825730813
 20
5.4616313948
 11
100.4079206897
 21
5.4743449288
  0
LINE
  8
LS-12V-90-W6S-28359
 62
7
  6
BYLAYER
 10
100.4079206897
 20
5.4743449288
 11
100.4314407277
 21
5.4888065738
  0
LINE
  8
LS-12V-90-W6S-28359
 62
7
  6
BYLAYER
 10
100.4314407277
 20
5.4888065738
 11
100.4567883361
 21
5.5050163297
  0
LINE
  8
LS-12V-90-W6S-28359
 62
7
  6
BYLAYER
 10
100.4567883361
 20
5.5050163297
 11
100.4712499811
 21
5.6172132674
  0
LINE
  8
LS-12V-90-W6S-28359
 62
7
  6
BYLAYER
 10
100.4712499811
 20
5.6172132674
 11
100.3988622967
 21
5.6154651565
  0
ARC
  8
LS-12V-90-W6S-28359
 62
7
  6
BYLAYER
 10
100.0546003101
 20
6.0244869291
 40
0.5346168029
 50
300.1226166814
 51
310.0863647934
  0
ARC
  8
LS-12V-90-W6S-28359
 62
7
  6
BYLAYER
 10
100.0210951111
 20
6.0768391008
 40
0.5967197911
 50
290.9261388756
 51
300.3825747552
  0
ARC
  8
LS-12V-90-W6S-28359
 62
7
  6
BYLAYER
 10
100.023017555
 20
6.0424805941
 40
0.5640381819
 50
282.3564329875
 51
291.990365069
  0
ARC
  8
LS-12V-90-W6S-28359
 62
7
  6
BYLAYER
 10
100.0015742252
 20
6.1327897292
 40
0.6568460458
 50
274.3560974413
 51
282.4978406017
  0
ARC
  8
LS-12V-90-W6S-28359
 62
7
  6
BYLAYER
 10
100.0827933178
 20
5.9715147744
 40
0.494666667
 50
247.3413638216
 51
266.3689009432
  0
ARC
  8
LS-12V-90-W6S-28359
 62
7
  6
BYLAYER
 10
100.1100367508
 20
6.0277596045
 40
0.5570764052
 50
229.1447438403
 51
246.9841673426
  0
ARC
  8
LS-12V-90-W6S-28359
 62
7
  6
BYLAYER
 10
99.9998991659
 20
5.8994555744
 40
0.3879857516
 50
197.9155448152
 51
229.0523049251
  0
ARC
  8
LS-12V-90-W6S-28359
 62
7
  6
BYLAYER
 10
100.459908536
 20
6.0490180446
 40
0.8716977164
 50
180.1894261358
 51
197.9684336648
  0
LINE
  8
LS-12V-90-W6S-28359
 62
7
  6
BYLAYER
 10
99.5882155836
 20
6.0461361215
 11
99.5882155836
 21
6.0677491293
  0
ARC
  8
LS-12V-90-W6S-28359
 62
7
  6
BYLAYER
 10
100.2269469216
 20
6.078555534
 40
0.6388227457
 50
160.1190365147
 51
180.9692687312
  0
ARC
  8
LS-12V-90-W6S-28359
 62
7
  6
BYLAYER
 10
100.0800503376
 20
6.1258813725
 40
0.484617705
 50
135.1351303734
 51
159.4747438859
  0
ARC
  8
LS-12V-90-W6S-28359
 62
7
  6
BYLAYER
 10
100.0821338387
 20
6.1289742975
 40
0.4839264247
 50
95.5684905604
 51
135.5687020976
  0
LINE
  8
LS-12V-90-W6S-28359
 62
7
  6
BYLAYER
 10
100.0351757641
 20
6.6106170321
 11
100.0442341571
 21
6.6106170321
  0
LINE
  8
LS-12V-90-W6S-28359
 62
7
  6
BYLAYER
 10
100.0442341571
 20
6.6106170321
 11
100.064099054
 21
6.6079154061
  0
LINE
  8
LS-12V-90-W6S-28359
 62
7
  6
BYLAYER
 10
100.064099054
 20
6.6079154061
 11
100.085870981
 21
6.6052137801
  0
LINE
  8
LS-12V-90-W6S-28359
 62
7
  6
BYLAYER
 10
100.085870981
 20
6.6052137801
 11
100.1591327208
 21
6.5863023983
  0
ARC
  8
LS-12V-90-W6S-28359
 62
7
  6
BYLAYER
 10
100.0004240368
 20
6.0923698179
 40
0.5188042409
 50
54.3289773468
 51
72.1869316133
  0
LINE
  8
LS-12V-90-W6S-28359
 62
7
  6
BYLAYER
 10
100.3029545745
 20
6.5138352544
 11
100.3699390068
 21
6.4604384115
  0
LINE
  8
LS-12V-90-W6S-28359
 62
7
  6
BYLAYER
 10
100.3699390068
 20
6.4604384115
 11
100.4567883361
 21
6.4604384115
  0
LINE
  8
LS-12V-90-W6S-28359
 62
7
  6
BYLAYER
 10
100.4567883361
 20
6.4604384115
 11
100.5002527306
 21
6.5998105282
  0
ARC
  8
LS-12V-90-W6S-28359
 62
7
  6
BYLAYER
 10
100.2782821133
 20
6.2433503203
 40
0.4199224151
 50
58.0891485032
 51
67.5454670453
  0
ARC
  8
LS-12V-90-W6S-28359
 62
7
  6
BYLAYER
 10
100.1970546535
 20
6.015302615
 40
0.6618144663
 50
68.5873384549
 51
81.3423857767
  0
LINE
  8
LS-12V-90-W6S-28359
 62
7
  6
BYLAYER
 10
100.296677267
 20
6.6695760461
 11
100.2215879567
 21
6.6776809241
  0
LINE
  8
LS-12V-90-W6S-28359
 62
7
  6
BYLAYER
 10
100.2215879567
 20
6.6776809241
 11
100.1437175608
 21
6.683084176
  0
ARC
  8
LS-12V-90-W6S-28359
 62
7
  6
BYLAYER
 10
100.1346520949
 20
6.8703343037
 40
0.1874694454
 50
261.6918862419
 51
272.7717347724
  0
ARC
  8
LS-12V-90-W6S-28359
 62
7
  6
BYLAYER
 10
100.0984720505
 20
6.857268175
 40
0.1726753862
 50
260.9563938617
 51
273.01803113
  0
LINE
  8
LS-12V-90-W6S-28359
 62
7
  6
BYLAYER
 10
100.0713298765
 20
6.6867393171
 11
99.9989421921
 21
6.684832287
  0
ARC
  8
LS-12V-90-W6S-28359
 62
7
  6
BYLAYER
 10
99.9877212202
 20
5.924774516
 40
0.7601405958
 50
89.1541858308
 51
110.4524797125
  0
ARC
  8
LS-12V-90-W6S-28359
 62
7
  6
BYLAYER
 10
99.9310199748
 20
6.0969043331
 40
0.5790908606
 50
111.1471074555
 51
136.8410387208
  0
ARC
  8
LS-12V-90-W6S-28359
 62
7
  6
BYLAYER
 10
100.0059173076
 20
6.0248361978
 40
0.6830230801
 50
136.728707552
 51
157.5391803557
  0
ARC
  8
LS-12V-90-W6S-28359
 62
7
  6
BYLAYER
 10
99.9542286849
 20
6.0521942239
 40
0.6248278433
 50
158.0467340334
 51
180.3952229121
  0
LINE
  8
LS-12V-90-W6S-28359
 62
7
  6
BYLAYER
 10
92.7119417883
 20
6.6724365913
 11
93.4867522274
 21
5.8201530542
  0
LINE
  8
LS-12V-90-W6S-28359
 62
7
  6
BYLAYER
 10
93.4867522274
 20
5.8201530542
 11
93.4867522274
 21
6.6724365913
  0
LINE
  8
LS-12V-90-W6S-28359
 62
7
  6
BYLAYER
 10
93.4867522274
 20
6.6724365913
 11
93.6680790064
 21
6.6724365913
  0
LINE
  8
LS-12V-90-W6S-28359
 62
7
  6
BYLAYER
 10
93.6680790064
 20
6.6724365913
 11
93.6680790064
 21
5.4520962443
  0
LINE
  8
LS-12V-90-W6S-28359
 62
7
  6
BYLAYER
 10
93.6680790064
 20
5.4520962443
 11
93.5289452685
 21
5.4520962443
  0
LINE
  8
LS-12V-90-W6S-28359
 62
7
  6
BYLAYER
 10
93.5289452685
 20
5.4520962443
 11
92.7383223714
 21
6.3306014453
  0
LINE
  8
LS-12V-90-W6S-28359
 62
7
  6
BYLAYER
 10
92.7383223714
 20
6.3306014453
 11
92.7383223714
 21
5.4520962443
  0
LINE
  8
LS-12V-90-W6S-28359
 62
7
  6
BYLAYER
 10
92.7383223714
 20
5.4520962443
 11
92.5569161329
 21
5.4520962443
  0
LINE
  8
LS-12V-90-W6S-28359
 62
7
  6
BYLAYER
 10
92.5569161329
 20
5.4520962443
 11
92.5569161329
 21
6.6724365913
  0
LINE
  8
LS-12V-90-W6S-28359
 62
7
  6
BYLAYER
 10
92.5569161329
 20
6.6724365913
 11
92.7119417883
 21
6.6724365913
  0
LINE
  8
LS-12V-90-W6S-28359
 62
7
  6
BYLAYER
 10
99.1061305117
 20
9.8572975705
 11
99.1061305117
 21
10.1622478051
  0
LINE
  8
LS-12V-90-W6S-28359
 62
7
  6
BYLAYER
 10
99.1061305117
 20
10.1622478051
 11
97.3233445246
 21
10.1622478051
  0
LINE
  8
LS-12V-90-W6S-28359
 62
7
  6
BYLAYER
 10
97.3233445246
 20
10.1622478051
 11
97.3233445246
 21
9.8572975705
  0
LINE
  8
LS-12V-90-W6S-28359
 62
7
  6
BYLAYER
 10
97.3233445246
 20
9.8572975705
 11
99.1061305117
 21
9.8572975705
  0
LINE
  8
LS-12V-90-W6S-28359
 62
7
  6
BYLAYER
 10
97.3233445246
 20
10.4014819541
 11
99.1061305117
 21
10.4014819541
  0
LINE
  8
LS-12V-90-W6S-28359
 62
7
  6
BYLAYER
 10
99.1061305117
 20
10.4014819541
 11
99.1061305117
 21
10.7159187627
  0
LINE
  8
LS-12V-90-W6S-28359
 62
7
  6
BYLAYER
 10
99.1061305117
 20
10.7159187627
 11
97.3233445246
 21
10.7159187627
  0
LINE
  8
LS-12V-90-W6S-28359
 62
7
  6
BYLAYER
 10
97.3233445246
 20
10.7159187627
 11
97.3233445246
 21
10.4014819541
  0
LINE
  8
LS-12V-90-W6S-28359
 62
7
  6
BYLAYER
 10
99.1061305117
 20
11.2414749646
 11
97.3233445246
 21
11.2414749646
  0
LINE
  8
LS-12V-90-W6S-28359
 62
7
  6
BYLAYER
 10
97.3233445246
 20
11.2414749646
 11
97.3233445246
 21
10.9553253949
  0
LINE
  8
LS-12V-90-W6S-28359
 62
7
  6
BYLAYER
 10
97.3233445246
 20
10.9553253949
 11
99.1061305117
 21
10.9553253949
  0
LINE
  8
LS-12V-90-W6S-28359
 62
7
  6
BYLAYER
 10
99.1061305117
 20
10.9553253949
 11
99.1061305117
 21
11.2414749646
  0
LINE
  8
LS-12V-90-W6S-28359
 62
7
  6
BYLAYER
 10
84.4022451603
 20
9.6462865434
 11
84.4022451603
 21
7.7645381503
  0
LINE
  8
LS-12V-90-W6S-28359
 62
7
  6
BYLAYER
 10
84.8327360749
 20
7.7645381503
 11
84.4022451603
 21
7.7645381503
  0
LINE
  8
LS-12V-90-W6S-28359
 62
7
  6
BYLAYER
 10
84.8327360749
 20
7.7661355192
 11
84.8327360749
 21
10.148012198
  0
LINE
  8
LS-12V-90-W6S-28359
 62
7
  6
BYLAYER
 10
84.8327360749
 20
10.148012198
 11
85.3812076412
 21
10.726343248
  0
LINE
  8
LS-12V-90-W6S-28359
 62
7
  6
BYLAYER
 10
84.9542663533
 20
10.9740746125
 11
85.3812076412
 21
10.726343248
  0
LINE
  8
LS-12V-90-W6S-28359
 62
7
  6
BYLAYER
 10
83.7084448482
 20
9.5397946349
 11
83.9547633709
 21
9.1862512028
  0
LINE
  8
LS-12V-90-W6S-28359
 62
7
  6
BYLAYER
 10
83.7621429115
 20
10.7716370178
 11
84.0775670595
 21
10.4654178547
  0
LINE
  8
LS-12V-90-W6S-28359
 62
7
  6
BYLAYER
 10
84.0775670595
 20
10.4654178547
 11
85.3256187955
 21
11.7105872542
  0
LINE
  8
LS-12V-90-W6S-28359
 62
7
  6
BYLAYER
 10
85.3256187955
 20
11.7105872542
 11
84.7758222225
 21
11.9021830296
  0
LINE
  8
LS-12V-90-W6S-28359
 62
7
  6
BYLAYER
 10
85.4349441446
 20
11.5304974872
 11
85.4349441446
 21
11.2118125715
  0
LINE
  8
LS-12V-90-W6S-28359
 62
7
  6
BYLAYER
 10
85.4378875422
 20
11.2118742194
 11
86.7497999129
 21
11.2393515384
  0
LINE
  8
LS-12V-90-W6S-28359
 62
7
  6
BYLAYER
 10
85.4349441446
 20
11.5304974872
 11
86.7925035339
 21
11.5073309447
  0
LINE
  8
LS-12V-90-W6S-28359
 62
7
  6
BYLAYER
 10
86.7937879056
 20
11.976126632
 11
86.7925035339
 21
11.5073309447
  0
LINE
  8
LS-12V-90-W6S-28359
 62
7
  6
BYLAYER
 10
87.3631276771
 20
11.8982169791
 11
87.204247844
 21
11.5083970608
  0
LINE
  8
LS-12V-90-W6S-28359
 62
7
  6
BYLAYER
 10
87.3631276771
 20
11.8982169791
 11
86.7937879056
 21
11.976126632
  0
LINE
  8
LS-12V-90-W6S-28359
 62
7
  6
BYLAYER
 10
87.204247844
 20
11.5083970608
 11
88.8704852742
 21
11.5211240503
  0
LINE
  8
LS-12V-90-W6S-28359
 62
7
  6
BYLAYER
 10
88.8704852742
 20
11.215102744
 11
87.1217398389
 21
11.2378257688
  0
LINE
  8
LS-12V-90-W6S-28359
 62
7
  6
BYLAYER
 10
87.1217398389
 20
11.2378257688
 11
87.0410783005
 21
10.88542447
  0
LINE
  8
LS-12V-90-W6S-28359
 62
7
  6
BYLAYER
 10
86.7505525401
 20
11.2426489397
 11
86.6693698766
 21
10.8869724187
  0
LINE
  8
LS-12V-90-W6S-28359
 62
7
  6
BYLAYER
 10
86.6693698766
 20
10.8869724187
 11
85.6120145571
 21
10.9149016266
  0
LINE
  8
LS-12V-90-W6S-28359
 62
7
  6
BYLAYER
 10
85.6120145571
 20
10.9149016266
 11
85.6073504452
 21
9.8099980596
  0
LINE
  8
LS-12V-90-W6S-28359
 62
7
  6
BYLAYER
 10
85.6073504452
 20
9.8099980596
 11
88.633825922
 21
9.8095424709
  0
LINE
  8
LS-12V-90-W6S-28359
 62
7
  6
BYLAYER
 10
88.6388566216
 20
10.9132779748
 11
88.633825922
 21
9.8095424709
  0
LINE
  8
LS-12V-90-W6S-28359
 62
7
  6
BYLAYER
 10
88.6388566216
 20
10.9132779748
 11
87.0410783005
 21
10.88542447
  0
LINE
  8
LS-12V-90-W6S-28359
 62
7
  6
BYLAYER
 10
86.8639654364
 20
10.6267449668
 11
87.3593370845
 21
10.6267449668
  0
LINE
  8
LS-12V-90-W6S-28359
 62
7
  6
BYLAYER
 10
87.7374201809
 20
10.6267449668
 11
88.232791829
 21
10.6267449668
  0
LINE
  8
LS-12V-90-W6S-28359
 62
7
  6
BYLAYER
 10
86.0084489411
 20
10.6267449668
 11
86.5038205892
 21
10.6267449668
  0
LINE
  8
LS-12V-90-W6S-28359
 62
7
  6
BYLAYER
 10
86.0084489411
 20
10.091874674
 11
86.5038205892
 21
10.091874674
  0
LINE
  8
LS-12V-90-W6S-28359
 62
7
  6
BYLAYER
 10
86.8639654364
 20
10.091874674
 11
87.3593370845
 21
10.091874674
  0
LINE
  8
LS-12V-90-W6S-28359
 62
7
  6
BYLAYER
 10
87.7374201809
 20
10.091874674
 11
88.232791829
 21
10.091874674
  0
LINE
  8
LS-12V-90-W6S-28359
 62
7
  6
BYLAYER
 10
85.2939763404
 20
9.2555604453
 11
88.7882207767
 21
9.261372705
  0
LINE
  8
LS-12V-90-W6S-28359
 62
7
  6
BYLAYER
 10
88.7882207767
 20
9.268539621
 11
88.7882207767
 21
9.5683021581
  0
LINE
  8
LS-12V-90-W6S-28359
 62
7
  6
BYLAYER
 10
88.7882207767
 20
9.5683021581
 11
85.2939763404
 21
9.571937096
  0
LINE
  8
LS-12V-90-W6S-28359
 62
7
  6
BYLAYER
 10
85.2939763404
 20
9.5716566962
 11
85.2939763404
 21
9.2555604453
  0
LINE
  8
LS-12V-90-W6S-28359
 62
7
  6
BYLAYER
 10
85.4968647625
 20
8.9334427079
 11
85.0230116404
 21
8.0515093895
  0
LINE
  8
LS-12V-90-W6S-28359
 62
7
  6
BYLAYER
 10
85.0322939269
 20
8.0487901131
 11
85.5017833974
 21
7.9112516301
  0
LINE
  8
LS-12V-90-W6S-28359
 62
7
  6
BYLAYER
 10
85.888317694
 20
8.877851759
 11
85.5017833974
 21
7.9112516301
  0
LINE
  8
LS-12V-90-W6S-28359
 62
7
  6
BYLAYER
 10
85.888317694
 20
8.877851759
 11
85.4968647625
 21
8.9334427079
  0
LINE
  8
LS-12V-90-W6S-28359
 62
7
  6
BYLAYER
 10
86.1022449963
 20
8.9921325999
 11
86.5038205892
 21
8.9682219921
  0
LINE
  8
LS-12V-90-W6S-28359
 62
7
  6
BYLAYER
 10
86.5039832709
 20
8.9682123057
 11
86.5039832709
 21
8.2519114486
  0
LINE
  8
LS-12V-90-W6S-28359
 62
7
  6
BYLAYER
 10
86.1022449963
 20
8.9921325999
 11
86.1022449963
 21
7.9911262764
  0
LINE
  8
LS-12V-90-W6S-28359
 62
7
  6
BYLAYER
 10
86.1022449963
 20
7.9911262764
 11
86.7775326925
 21
7.8859381856
  0
LINE
  8
LS-12V-90-W6S-28359
 62
7
  6
BYLAYER
 10
86.7775326925
 20
7.8859381856
 11
87.5037365219
 21
7.8941247011
  0
LINE
  8
LS-12V-90-W6S-28359
 62
7
  6
BYLAYER
 10
87.5037365219
 20
7.8941247011
 11
88.0394541118
 21
8.0592527096
  0
LINE
  8
LS-12V-90-W6S-28359
 62
7
  6
BYLAYER
 10
88.0394541118
 20
8.0592527096
 11
88.2440611183
 21
8.399342734
  0
LINE
  8
LS-12V-90-W6S-28359
 62
7
  6
BYLAYER
 10
88.2440611183
 20
8.399342734
 11
87.8084835154
 21
8.572433931
  0
LINE
  8
LS-12V-90-W6S-28359
 62
7
  6
BYLAYER
 10
87.8084835154
 20
8.572433931
 11
87.7543237658
 21
8.3258136423
  0
LINE
  8
LS-12V-90-W6S-28359
 62
7
  6
BYLAYER
 10
87.7543237658
 20
8.3258136423
 11
87.5552516685
 21
8.1986231448
  0
LINE
  8
LS-12V-90-W6S-28359
 62
7
  6
BYLAYER
 10
87.5552516685
 20
8.1986231448
 11
87.1181716073
 21
8.1726659004
  0
LINE
  8
LS-12V-90-W6S-28359
 62
7
  6
BYLAYER
 10
87.1181716073
 20
8.1726659004
 11
86.677297795
 21
8.1892386026
  0
LINE
  8
LS-12V-90-W6S-28359
 62
7
  6
BYLAYER
 10
86.677297795
 20
8.1892386026
 11
86.5039832709
 21
8.2519114486
  0
LINE
  8
LS-12V-90-W6S-28359
 62
7
  6
BYLAYER
 10
87.2762757487
 20
9.1896888277
 11
87.5800443111
 21
8.6060345669
  0
LINE
  8
LS-12V-90-W6S-28359
 62
7
  6
BYLAYER
 10
87.5800443111
 20
8.6060345669
 11
87.1179831104
 21
8.4735505881
  0
LINE
  8
LS-12V-90-W6S-28359
 62
7
  6
BYLAYER
 10
87.1179831104
 20
8.4735505881
 11
86.8346752244
 21
9.0886658312
  0
LINE
  8
LS-12V-90-W6S-28359
 62
7
  6
BYLAYER
 10
86.8346752244
 20
9.0886658312
 11
87.2762757487
 21
9.1896888277
  0
LINE
  8
LS-12V-90-W6S-28359
 62
7
  6
BYLAYER
 10
87.9027039794
 20
8.8835225498
 11
88.2641417202
 21
9.0897681195
  0
LINE
  8
LS-12V-90-W6S-28359
 62
7
  6
BYLAYER
 10
88.2641417202
 20
9.0897681195
 11
89.0984698869
 21
8.3784857273
  0
LINE
  8
LS-12V-90-W6S-28359
 62
7
  6
BYLAYER
 10
89.0984698869
 20
8.3784857273
 11
88.6590723246
 21
8.1089745733
  0
LINE
  8
LS-12V-90-W6S-28359
 62
7
  6
BYLAYER
 10
88.6590723246
 20
8.1089745733
 11
87.9027039794
 21
8.8835225498
  0
LINE
  8
LS-12V-90-W6S-28359
 62
7
  6
BYLAYER
 10
90.1197232214
 20
9.0263080059
 11
89.7050758722
 21
8.0596695484
  0
LINE
  8
LS-12V-90-W6S-28359
 62
7
  6
BYLAYER
 10
89.7050758722
 20
8.0596695484
 11
90.2668404984
 21
7.9705256782
  0
LINE
  8
LS-12V-90-W6S-28359
 62
7
  6
BYLAYER
 10
90.2668404984
 20
7.9705256782
 11
90.6108380197
 21
8.931652831
  0
LINE
  8
LS-12V-90-W6S-28359
 62
7
  6
BYLAYER
 10
90.6126222896
 20
8.9366380711
 11
90.1197232214
 21
9.0263080059
  0
LINE
  8
LS-12V-90-W6S-28359
 62
7
  6
BYLAYER
 10
91.0866625936
 20
9.1115482841
 11
91.0918741556
 21
8.1326432112
  0
LINE
  8
LS-12V-90-W6S-28359
 62
7
  6
BYLAYER
 10
91.0918741556
 20
8.1326432112
 11
91.1970530554
 21
7.9474368876
  0
LINE
  8
LS-12V-90-W6S-28359
 62
7
  6
BYLAYER
 10
91.1970530554
 20
7.9474368876
 11
91.5814199434
 21
7.8458042923
  0
LINE
  8
LS-12V-90-W6S-28359
 62
7
  6
BYLAYER
 10
91.5814199434
 20
7.8458042923
 11
93.1893713974
 21
7.8507960701
  0
LINE
  8
LS-12V-90-W6S-28359
 62
7
  6
BYLAYER
 10
93.1893713974
 20
7.8507960701
 11
93.4952675389
 21
7.9194829322
  0
LINE
  8
LS-12V-90-W6S-28359
 62
7
  6
BYLAYER
 10
93.4952675389
 20
7.9194829322
 11
93.7302804361
 21
8.108771145
  0
LINE
  8
LS-12V-90-W6S-28359
 62
7
  6
BYLAYER
 10
93.7302804361
 20
8.108771145
 11
93.9364861604
 21
8.5139434564
  0
LINE
  8
LS-12V-90-W6S-28359
 62
7
  6
BYLAYER
 10
93.9364861604
 20
8.5139434564
 11
93.3876653876
 21
8.7205793184
  0
LINE
  8
LS-12V-90-W6S-28359
 62
7
  6
BYLAYER
 10
93.3799919631
 20
8.7234684305
 11
93.3195569615
 21
8.4322383443
  0
LINE
  8
LS-12V-90-W6S-28359
 62
7
  6
BYLAYER
 10
93.3195569615
 20
8.4322383443
 11
93.2528668106
 21
8.2912705402
  0
LINE
  8
LS-12V-90-W6S-28359
 62
7
  6
BYLAYER
 10
93.2528668106
 20
8.2912705402
 11
93.1126976909
 21
8.1994218293
  0
LINE
  8
LS-12V-90-W6S-28359
 62
7
  6
BYLAYER
 10
93.1126976909
 20
8.1994218293
 11
92.7700620651
 21
8.1522994472
  0
LINE
  8
LS-12V-90-W6S-28359
 62
7
  6
BYLAYER
 10
92.7700620651
 20
8.1522994472
 11
91.8847203605
 21
8.153896816
  0
LINE
  8
LS-12V-90-W6S-28359
 62
7
  6
BYLAYER
 10
91.8847203605
 20
8.153896816
 11
91.6662801654
 21
8.1944300515
  0
LINE
  8
LS-12V-90-W6S-28359
 62
7
  6
BYLAYER
 10
91.6662801654
 20
8.1944300515
 11
91.5908044856
 21
8.285480078
  0
LINE
  8
LS-12V-90-W6S-28359
 62
7
  6
BYLAYER
 10
91.5908044856
 20
8.285480078
 11
91.5748307968
 21
8.8435608322
  0
LINE
  8
LS-12V-90-W6S-28359
 62
7
  6
BYLAYER
 10
91.5748307968
 20
8.8435608322
 11
91.6739705923
 21
9.0610765029
  0
LINE
  8
LS-12V-90-W6S-28359
 62
7
  6
BYLAYER
 10
91.6739705923
 20
9.0610765029
 11
91.0866625936
 21
9.1115482841
  0
LINE
  8
LS-12V-90-W6S-28359
 62
7
  6
BYLAYER
 10
92.0720626326
 20
9.1540879984
 11
92.5759277261
 21
8.5117836107
  0
LINE
  8
LS-12V-90-W6S-28359
 62
7
  6
BYLAYER
 10
92.5759277261
 20
8.5117836107
 11
93.045565403
 21
8.6943128934
  0
LINE
  8
LS-12V-90-W6S-28359
 62
7
  6
BYLAYER
 10
93.045565403
 20
8.6943128934
 11
92.526559452
 21
9.3042316761
  0
LINE
  8
LS-12V-90-W6S-28359
 62
7
  6
BYLAYER
 10
92.526559452
 20
9.3042316761
 11
92.0720626326
 21
9.1540879984
  0
LINE
  8
LS-12V-90-W6S-28359
 62
7
  6
BYLAYER
 10
93.8015278664
 20
8.9708032739
 11
94.5989482604
 21
8.1762677291
  0
LINE
  8
LS-12V-90-W6S-28359
 62
7
  6
BYLAYER
 10
94.5989482604
 20
8.1762677291
 11
95.0731921642
 21
8.4579846006
  0
LINE
  8
LS-12V-90-W6S-28359
 62
7
  6
BYLAYER
 10
95.0580255701
 20
8.4489751323
 11
94.1708646881
 21
9.1941067266
  0
LINE
  8
LS-12V-90-W6S-28359
 62
7
  6
BYLAYER
 10
94.1708646881
 20
9.1941067266
 11
93.8015278664
 21
8.9708032739
  0
LINE
  8
LS-12V-90-W6S-28359
 62
7
  6
BYLAYER
 10
94.2519483502
 20
11.7549113013
 11
94.252486001
 21
9.3763439444
  0
LINE
  8
LS-12V-90-W6S-28359
 62
7
  6
BYLAYER
 10
94.252486001
 20
9.3763439444
 11
90.3065477024
 21
9.378394611
  0
LINE
  8
LS-12V-90-W6S-28359
 62
7
  6
BYLAYER
 10
90.3065477024
 20
9.378394611
 11
90.3211738709
 21
11.7483529838
  0
LINE
  8
LS-12V-90-W6S-28359
 62
7
  6
BYLAYER
 10
90.3211738709
 20
11.7483529838
 11
94.2519483502
 21
11.7549113013
  0
LINE
  8
LS-12V-90-W6S-28359
 62
7
  6
BYLAYER
 10
90.8124500355
 20
11.4291366475
 11
90.8124500355
 21
9.6930361036
  0
LINE
  8
LS-12V-90-W6S-28359
 62
7
  6
BYLAYER
 10
90.8124500355
 20
9.6930361036
 11
93.746733628
 21
9.6930361036
  0
LINE
  8
LS-12V-90-W6S-28359
 62
7
  6
BYLAYER
 10
93.746733628
 20
9.6930361036
 11
93.746733628
 21
11.4291366475
  0
LINE
  8
LS-12V-90-W6S-28359
 62
7
  6
BYLAYER
 10
93.746733628
 20
11.4291366475
 11
90.8124500355
 21
11.4291366475
  0
LINE
  8
LS-12V-90-W6S-28359
 62
7
  6
BYLAYER
 10
91.2254063531
 20
10.9574788806
 11
92.0434297702
 21
10.9532879823
  0
LINE
  8
LS-12V-90-W6S-28359
 62
7
  6
BYLAYER
 10
92.0656223867
 20
11.2799477242
 11
92.0434297702
 21
10.9532879823
  0
LINE
  8
LS-12V-90-W6S-28359
 62
7
  6
BYLAYER
 10
92.5608067411
 20
11.2102625066
 11
92.4751579645
 21
10.9310300155
  0
LINE
  8
LS-12V-90-W6S-28359
 62
7
  6
BYLAYER
 10
92.4751579645
 20
10.9310300155
 11
93.3922372458
 21
10.9593388439
  0
LINE
  8
LS-12V-90-W6S-28359
 62
7
  6
BYLAYER
 10
93.3922372458
 20
10.9593388439
 11
93.3922372458
 21
10.6463721672
  0
LINE
  8
LS-12V-90-W6S-28359
 62
7
  6
BYLAYER
 10
93.3922372458
 20
10.6463721672
 11
92.4095800127
 21
10.6794382864
  0
LINE
  8
LS-12V-90-W6S-28359
 62
7
  6
BYLAYER
 10
92.4095800127
 20
10.6794382864
 11
92.3434658444
 21
10.515789355
  0
LINE
  8
LS-12V-90-W6S-28359
 62
7
  6
BYLAYER
 10
92.3434658444
 20
10.515789355
 11
93.4849734258
 21
10.1141477986
  0
LINE
  8
LS-12V-90-W6S-28359
 62
7
  6
BYLAYER
 10
92.003287097
 20
10.6795763246
 11
91.2206142465
 21
10.6485876724
  0
LINE
  8
LS-12V-90-W6S-28359
 62
7
  6
BYLAYER
 10
91.1842741044
 20
10.9087591296
 11
91.1842741044
 21
10.6553764902
  0
LINE
  8
LS-12V-90-W6S-28359
 62
7
  6
BYLAYER
 10
92.003287097
 20
10.6795763246
 11
91.8597614717
 21
10.4435254418
  0
LINE
  8
LS-12V-90-W6S-28359
 62
7
  6
BYLAYER
 10
91.8597614717
 20
10.4435254418
 11
91.6305390366
 21
10.2588296644
  0
LINE
  8
LS-12V-90-W6S-28359
 62
7
  6
BYLAYER
 10
91.6305390366
 20
10.2588296644
 11
91.2825122908
 21
10.1238519936
  0
LINE
  8
LS-12V-90-W6S-28359
 62
7
  6
BYLAYER
 10
91.2825122908
 20
10.1238519936
 11
90.9788491367
 21
10.0524479961
  0
LINE
  8
LS-12V-90-W6S-28359
 62
7
  6
BYLAYER
 10
90.9788491367
 20
10.0524479961
 11
91.1754885755
 21
9.9038144297
  0
LINE
  8
LS-12V-90-W6S-28359
 62
7
  6
BYLAYER
 10
91.1754885755
 20
9.9038144297
 11
91.2993724984
 21
9.768142629
  0
LINE
  8
LS-12V-90-W6S-28359
 62
7
  6
BYLAYER
 10
91.2993724984
 20
9.768142629
 11
91.6906400409
 21
9.9201874608
  0
LINE
  8
LS-12V-90-W6S-28359
 62
7
  6
BYLAYER
 10
91.6906400409
 20
9.9201874608
 11
92.013707898
 21
10.1140681092
  0
LINE
  8
LS-12V-90-W6S-28359
 62
7
  6
BYLAYER
 10
92.013707898
 20
10.1140681092
 11
92.188768157
 21
10.2849221149
  0
LINE
  8
LS-12V-90-W6S-28359
 62
7
  6
BYLAYER
 10
92.188768157
 20
10.2849221149
 11
92.4434001281
 21
10.1801592468
  0
LINE
  8
LS-12V-90-W6S-28359
 62
7
  6
BYLAYER
 10
92.4434001281
 20
10.1801592468
 11
92.8383495849
 21
9.9864782695
  0
LINE
  8
LS-12V-90-W6S-28359
 62
7
  6
BYLAYER
 10
92.8383495849
 20
9.9864782695
 11
93.1501850842
 21
9.8013127909
  0
LINE
  8
LS-12V-90-W6S-28359
 62
7
  6
BYLAYER
 10
93.1501850842
 20
9.8013127909
 11
93.4849734258
 21
10.1141477986
  0
LINE
  8
LS-12V-90-W6S-28359
 62
7
  6
BYLAYER
 10
95.9248656132
 20
11.5787775029
 11
96.8844684826
 21
11.5363888301
  0
LINE
  8
LS-12V-90-W6S-28359
 62
7
  6
BYLAYER
 10
96.886481682
 20
11.2428003348
 11
95.9248656132
 21
11.206716301
  0
LINE
  8
LS-12V-90-W6S-28359
 62
7
  6
BYLAYER
 10
95.9248656132
 20
11.5787775029
 11
95.9248656132
 21
11.206716301
  0
LINE
  8
LS-12V-90-W6S-28359
 62
7
  6
BYLAYER
 10
97.322873146
 20
11.5371241147
 11
99.1049918037
 21
11.5371241147
  0
LINE
  8
LS-12V-90-W6S-28359
 62
7
  6
BYLAYER
 10
99.0692699574
 20
11.9904513543
 11
99.1049918037
 21
11.5371241147
  0
LINE
  8
LS-12V-90-W6S-28359
 62
7
  6
BYLAYER
 10
99.5313252136
 20
11.7046322029
 11
99.5313252136
 21
11.5350834558
  0
LINE
  8
LS-12V-90-W6S-28359
 62
7
  6
BYLAYER
 10
99.5313252136
 20
11.5350834558
 11
100.5700143311
 21
11.5768890205
  0
LINE
  8
LS-12V-90-W6S-28359
 62
7
  6
BYLAYER
 10
100.5700143311
 20
11.5768890205
 11
100.5700143311
 21
11.2045433861
  0
LINE
  8
LS-12V-90-W6S-28359
 62
7
  6
BYLAYER
 10
100.5700143311
 20
11.2045433861
 11
99.5313252136
 21
11.2435499517
  0
LINE
  8
LS-12V-90-W6S-28359
 62
7
  6
BYLAYER
 10
96.826262195
 20
11.9392132966
 11
96.8844684826
 21
11.5363888301
  0
LINE
  8
LS-12V-90-W6S-28359
 62
7
  6
BYLAYER
 10
96.826262195
 20
11.9392132966
 11
97.2271205968
 21
11.9029215894
  0
LINE
  8
LS-12V-90-W6S-28359
 62
7
  6
BYLAYER
 10
97.2271205968
 20
11.9029215894
 11
97.462803581
 21
11.8996890298
  0
LINE
  8
LS-12V-90-W6S-28359
 62
7
  6
BYLAYER
 10
97.462803581
 20
11.8996890298
 11
97.3565074765
 21
11.7945001764
  0
LINE
  8
LS-12V-90-W6S-28359
 62
7
  6
BYLAYER
 10
97.3565074765
 20
11.7945001764
 11
97.3253587832
 21
11.6944649499
  0
LINE
  8
LS-12V-90-W6S-28359
 62
7
  6
BYLAYER
 10
97.3253587832
 20
11.6944649499
 11
97.322873146
 21
11.5371241147
  0
LINE
  8
LS-12V-90-W6S-28359
 62
7
  6
BYLAYER
 10
99.0692699574
 20
11.9904513543
 11
99.2461948676
 21
11.968813056
  0
LINE
  8
LS-12V-90-W6S-28359
 62
7
  6
BYLAYER
 10
99.2461948676
 20
11.968813056
 11
99.5203433025
 21
11.9512419982
  0
LINE
  8
LS-12V-90-W6S-28359
 62
7
  6
BYLAYER
 10
99.5203433025
 20
11.9512419982
 11
99.7355549833
 21
11.9464148203
  0
LINE
  8
LS-12V-90-W6S-28359
 62
7
  6
BYLAYER
 10
99.7355549833
 20
11.9464148203
 11
99.5674656846
 21
11.8014886652
  0
LINE
  8
LS-12V-90-W6S-28359
 62
7
  6
BYLAYER
 10
99.5674656846
 20
11.8014886652
 11
99.5313252136
 21
11.7046322029
  0
LINE
  8
LS-12V-90-W6S-28359
 62
7
  6
BYLAYER
 10
96.886481682
 20
11.2428003348
 11
96.886481682
 21
9.8556715737
  0
LINE
  8
LS-12V-90-W6S-28359
 62
7
  6
BYLAYER
 10
96.886481682
 20
9.8556715737
 11
95.7180063426
 21
9.8982260625
  0
LINE
  8
LS-12V-90-W6S-28359
 62
7
  6
BYLAYER
 10
95.7180063426
 20
9.5384011493
 11
97.2223048853
 21
9.5821173811
  0
LINE
  8
LS-12V-90-W6S-28359
 62
7
  6
BYLAYER
 10
95.7180063426
 20
9.8982260625
 11
95.7180063426
 21
9.5384011493
  0
LINE
  8
LS-12V-90-W6S-28359
 62
7
  6
BYLAYER
 10
97.2223048853
 20
9.5821173811
 11
96.4428124742
 21
9.1055293294
  0
LINE
  8
LS-12V-90-W6S-28359
 62
7
  6
BYLAYER
 10
96.4428124742
 20
9.1055293294
 11
95.5738398548
 21
8.7648991544
  0
LINE
  8
LS-12V-90-W6S-28359
 62
7
  6
BYLAYER
 10
95.5738398548
 20
8.7648991544
 11
95.7535478003
 21
8.6666522282
  0
LINE
  8
LS-12V-90-W6S-28359
 62
7
  6
BYLAYER
 10
95.7535478003
 20
8.6666522282
 11
95.9449530482
 21
8.4630175216
  0
LINE
  8
LS-12V-90-W6S-28359
 62
7
  6
BYLAYER
 10
95.9479008164
 20
8.4615719527
 11
96.6963947847
 21
8.8347753033
  0
LINE
  8
LS-12V-90-W6S-28359
 62
7
  6
BYLAYER
 10
96.6963947847
 20
8.8347753033
 11
97.377273272
 21
9.3004083333
  0
LINE
  8
LS-12V-90-W6S-28359
 62
7
  6
BYLAYER
 10
97.377273272
 20
9.3004083333
 11
97.6296537813
 21
9.5456044572
  0
LINE
  8
LS-12V-90-W6S-28359
 62
7
  6
BYLAYER
 10
97.0757698949
 20
8.9414159041
 11
98.0445600679
 21
8.9084667684
  0
LINE
  8
LS-12V-90-W6S-28359
 62
7
  6
BYLAYER
 10
98.0437754393
 20
8.6472361687
 11
97.0757698949
 21
8.6103760948
  0
LINE
  8
LS-12V-90-W6S-28359
 62
7
  6
BYLAYER
 10
97.0757698949
 20
8.9414159041
 11
97.0757698949
 21
8.6103760948
  0
LINE
  8
LS-12V-90-W6S-28359
 62
7
  6
BYLAYER
 10
98.0027969679
 20
9.3869591888
 11
98.0401813593
 21
9.0524168139
  0
LINE
  8
LS-12V-90-W6S-28359
 62
7
  6
BYLAYER
 10
98.0401813593
 20
9.0524168139
 11
98.0445600679
 21
8.9084667684
  0
LINE
  8
LS-12V-90-W6S-28359
 62
7
  6
BYLAYER
 10
98.0027969679
 20
9.3869591888
 11
98.1889363368
 21
9.3702932221
  0
LINE
  8
LS-12V-90-W6S-28359
 62
7
  6
BYLAYER
 10
98.1889363368
 20
9.3702932221
 11
98.4646821405
 21
9.3599103243
  0
LINE
  8
LS-12V-90-W6S-28359
 62
7
  6
BYLAYER
 10
98.4646821405
 20
9.3599103243
 11
98.6273645111
 21
9.3550437577
  0
LINE
  8
LS-12V-90-W6S-28359
 62
7
  6
BYLAYER
 10
98.6273645111
 20
9.3550437577
 11
98.4942334649
 21
9.2349162091
  0
LINE
  8
LS-12V-90-W6S-28359
 62
7
  6
BYLAYER
 10
98.4942334649
 20
9.2349162091
 11
98.4646821405
 21
9.1442655248
  0
LINE
  8
LS-12V-90-W6S-28359
 62
7
  6
BYLAYER
 10
98.4646821405
 20
9.1442655248
 11
98.4628899631
 21
8.9090422386
  0
LINE
  8
LS-12V-90-W6S-28359
 62
7
  6
BYLAYER
 10
98.4628899631
 20
8.9090422386
 11
98.9776372238
 21
8.9196355254
  0
LINE
  8
LS-12V-90-W6S-28359
 62
7
  6
BYLAYER
 10
98.9776372238
 20
8.9196355254
 11
99.4195093916
 21
8.9408996011
  0
LINE
  8
LS-12V-90-W6S-28359
 62
7
  6
BYLAYER
 10
99.4195093916
 20
8.9408996011
 11
99.4195093916
 21
8.6109381127
  0
LINE
  8
LS-12V-90-W6S-28359
 62
7
  6
BYLAYER
 10
99.4195093916
 20
8.6109381127
 11
98.4630847717
 21
8.6457605552
  0
LINE
  8
LS-12V-90-W6S-28359
 62
7
  6
BYLAYER
 10
98.4630847717
 20
8.6457605552
 11
98.4630847717
 21
8.2410352985
  0
LINE
  8
LS-12V-90-W6S-28359
 62
7
  6
BYLAYER
 10
98.0437754393
 20
8.6472361687
 11
98.0437754393
 21
8.2405353296
  0
LINE
  8
LS-12V-90-W6S-28359
 62
7
  6
BYLAYER
 10
98.0437754393
 20
8.2405353296
 11
96.160876866
 21
8.2772907008
  0
LINE
  8
LS-12V-90-W6S-28359
 62
7
  6
BYLAYER
 10
96.160876866
 20
8.2772907008
 11
96.160876866
 21
7.912851705
  0
LINE
  8
LS-12V-90-W6S-28359
 62
7
  6
BYLAYER
 10
96.160876866
 20
7.912851705
 11
98.4247479184
 21
7.9474368876
  0
LINE
  8
LS-12V-90-W6S-28359
 62
7
  6
BYLAYER
 10
98.4247479184
 20
7.9474368876
 11
100.363953745
 21
7.9124981269
  0
LINE
  8
LS-12V-90-W6S-28359
 62
7
  6
BYLAYER
 10
100.363953745
 20
7.9124981269
 11
100.363953745
 21
8.2782377667
  0
LINE
  8
LS-12V-90-W6S-28359
 62
7
  6
BYLAYER
 10
100.363953745
 20
8.2782377667
 11
98.4630847717
 21
8.2410352985
  0
LINE
  8
LS-12V-90-W6S-28359
 62
7
  6
BYLAYER
 10
100.4353206408
 20
8.5307297352
 11
99.7128262532
 21
8.8922805832
  0
LINE
  8
LS-12V-90-W6S-28359
 62
7
  6
BYLAYER
 10
99.7128262532
 20
8.8922805832
 11
99.1703198456
 21
9.3143853111
  0
LINE
  8
LS-12V-90-W6S-28359
 62
7
  6
BYLAYER
 10
99.1703198456
 20
9.3143853111
 11
99.0065895348
 21
9.5456044572
  0
LINE
  8
LS-12V-90-W6S-28359
 62
7
  6
BYLAYER
 10
99.4057724659
 20
9.5824338164
 11
99.7120275687
 21
9.3233705111
  0
LINE
  8
LS-12V-90-W6S-28359
 62
7
  6
BYLAYER
 10
99.7120275687
 20
9.3233705111
 11
100.1495069721
 21
9.106727356
  0
LINE
  8
LS-12V-90-W6S-28359
 62
7
  6
BYLAYER
 10
100.1495069721
 20
9.106727356
 11
100.7335160007
 21
8.9635122198
  0
LINE
  8
LS-12V-90-W6S-28359
 62
7
  6
BYLAYER
 10
100.7335160007
 20
8.9635122198
 11
100.5989666422
 21
8.8407654366
  0
LINE
  8
LS-12V-90-W6S-28359
 62
7
  6
BYLAYER
 10
100.5989666422
 20
8.8407654366
 11
100.4873504913
 21
8.675437757
  0
LINE
  8
LS-12V-90-W6S-28359
 62
7
  6
BYLAYER
 10
100.4873504913
 20
8.675437757
 11
100.4353206408
 21
8.5307297352
  0
LINE
  8
LS-12V-90-W6S-28359
 62
7
  6
BYLAYER
 10
100.7241604286
 20
9.5341790936
 11
99.4057724659
 21
9.5824338164
  0
LINE
  8
LS-12V-90-W6S-28359
 62
7
  6
BYLAYER
 10
100.7241604286
 20
9.8979979999
 11
99.5313252136
 21
9.8555160734
  0
LINE
  8
LS-12V-90-W6S-28359
 62
7
  6
BYLAYER
 10
100.7241604286
 20
9.8979979999
 11
100.7241604286
 21
9.5341790936
  0
LINE
  8
LS-12V-90-W6S-28359
 62
7
  6
BYLAYER
 10
99.5313252136
 20
11.2435499517
 11
99.5313252136
 21
9.8555160734
  0
LINE
  8
LS-12V-90-W6S-28359
 62
7
  6
BYLAYER
 10
101.4753231468
 20
11.8414228874
 11
101.4753231468
 21
7.9154895099
  0
LINE
  8
LS-12V-90-W6S-28359
 62
7
  6
BYLAYER
 10
101.6749942574
 20
7.7158183993
 11
103.5087737376
 21
7.7158183993
  0
LINE
  8
LS-12V-90-W6S-28359
 62
7
  6
BYLAYER
 10
103.7084448482
 20
7.9154895099
 11
103.7084448482
 21
11.8414228874
  0
LINE
  8
LS-12V-90-W6S-28359
 62
7
  6
BYLAYER
 10
103.5087737376
 20
12.041093998
 11
101.6749942574
 21
12.041093998
  0
LINE
  8
LS-12V-90-W6S-28359
 62
7
  6
BYLAYER
 10
102.4921740569
 20
11.4548596172
 11
101.7692390217
 21
11.4548596172
  0
LINE
  8
LS-12V-90-W6S-28359
 62
7
  6
BYLAYER
 10
101.7692390217
 20
11.4548596172
 11
101.7692390217
 21
11.1988812533
  0
LINE
  8
LS-12V-90-W6S-28359
 62
7
  6
BYLAYER
 10
101.7692390217
 20
11.1988812533
 11
102.4647962434
 21
11.1988812533
  0
LINE
  8
LS-12V-90-W6S-28359
 62
7
  6
BYLAYER
 10
102.6126919678
 20
11.1988812533
 11
103.4145289733
 21
11.1988812533
  0
LINE
  8
LS-12V-90-W6S-28359
 62
7
  6
BYLAYER
 10
103.4145289733
 20
11.1988812533
 11
103.4145289733
 21
11.4548596172
  0
LINE
  8
LS-12V-90-W6S-28359
 62
7
  6
BYLAYER
 10
103.4145289733
 20
11.4548596172
 11
102.6394089799
 21
11.4548596172
  0
LINE
  8
LS-12V-90-W6S-28359
 62
7
  6
BYLAYER
 10
102.6394089799
 20
11.4548596172
 11
102.6676976336
 21
11.7828550891
  0
LINE
  8
LS-12V-90-W6S-28359
 62
7
  6
BYLAYER
 10
102.5189353371
 20
11.8266087057
 11
102.6676976336
 21
11.7828550891
  0
LINE
  8
LS-12V-90-W6S-28359
 62
7
  6
BYLAYER
 10
102.5189353371
 20
11.8266087057
 11
102.4921740569
 21
11.4548596172
  0
LINE
  8
LS-12V-90-W6S-28359
 62
7
  6
BYLAYER
 10
102.4647962434
 20
11.1988812533
 11
102.4172163624
 21
10.8666285252
  0
LINE
  8
LS-12V-90-W6S-28359
 62
7
  6
BYLAYER
 10
102.6126919678
 20
11.1988812533
 11
102.5688302215
 21
10.8666285252
  0
LINE
  8
LS-12V-90-W6S-28359
 62
7
  6
BYLAYER
 10
102.5688302215
 20
10.8666285252
 11
103.3518322446
 21
10.8666285252
  0
LINE
  8
LS-12V-90-W6S-28359
 62
7
  6
BYLAYER
 10
103.3518322446
 20
10.8666285252
 11
103.3518322446
 21
10.6106501614
  0
LINE
  8
LS-12V-90-W6S-28359
 62
7
  6
BYLAYER
 10
103.3518322446
 20
10.6106501614
 11
102.5265722213
 21
10.6106501614
  0
LINE
  8
LS-12V-90-W6S-28359
 62
7
  6
BYLAYER
 10
102.5265722213
 20
10.6106501614
 11
102.435693955
 21
10.2264829445
  0
LINE
  8
LS-12V-90-W6S-28359
 62
7
  6
BYLAYER
 10
102.3693331522
 20
10.6106501614
 11
102.2623565472
 21
10.2264829445
  0
LINE
  8
LS-12V-90-W6S-28359
 62
7
  6
BYLAYER
 10
102.3693331522
 20
10.6106501614
 11
101.8355298304
 21
10.6106501614
  0
LINE
  8
LS-12V-90-W6S-28359
 62
7
  6
BYLAYER
 10
101.8355298304
 20
10.8666285252
 11
102.4172163624
 21
10.8666285252
  0
LINE
  8
LS-12V-90-W6S-28359
 62
7
  6
BYLAYER
 10
101.8355298304
 20
10.8666285252
 11
101.8355298304
 21
10.6106501614
  0
LINE
  8
LS-12V-90-W6S-28359
 62
7
  6
BYLAYER
 10
102.2623565472
 20
10.2264829445
 11
101.6973574218
 21
10.2264829445
  0
LINE
  8
LS-12V-90-W6S-28359
 62
7
  6
BYLAYER
 10
101.6973574218
 20
10.2264829445
 11
101.6973574218
 21
9.9701052384
  0
LINE
  8
LS-12V-90-W6S-28359
 62
7
  6
BYLAYER
 10
101.6973574218
 20
9.9701052384
 11
102.1779228762
 21
9.9701052384
  0
LINE
  8
LS-12V-90-W6S-28359
 62
7
  6
BYLAYER
 10
102.1779228762
 20
9.9701052384
 11
101.6649820155
 21
9.1741057285
  0
LINE
  8
LS-12V-90-W6S-28359
 62
7
  6
BYLAYER
 10
102.3568066665
 20
9.9701052384
 11
102.1686945931
 21
9.5418612723
  0
LINE
  8
LS-12V-90-W6S-28359
 62
7
  6
BYLAYER
 10
102.3568066665
 20
9.9701052384
 11
102.8199830421
 21
9.9701052384
  0
LINE
  8
LS-12V-90-W6S-28359
 62
7
  6
BYLAYER
 10
102.8199830421
 20
9.9701052384
 11
102.983736312
 21
9.5139981878
  0
LINE
  8
LS-12V-90-W6S-28359
 62
7
  6
BYLAYER
 10
102.9722451758
 20
9.9701052384
 11
103.137784814
 21
9.6394498792
  0
LINE
  8
LS-12V-90-W6S-28359
 62
7
  6
BYLAYER
 10
103.137784814
 20
9.6394498792
 11
103.3288700669
 21
9.406234022
  0
LINE
  8
LS-12V-90-W6S-28359
 62
7
  6
BYLAYER
 10
103.3288700669
 20
9.406234022
 11
103.5206572317
 21
9.2521240082
  0
LINE
  8
LS-12V-90-W6S-28359
 62
7
  6
BYLAYER
 10
102.9722451758
 20
9.9701052384
 11
103.4900046532
 21
9.9701052384
  0
LINE
  8
LS-12V-90-W6S-28359
 62
7
  6
BYLAYER
 10
103.4900046532
 20
10.2264829445
 11
103.4900046532
 21
9.9701052384
  0
LINE
  8
LS-12V-90-W6S-28359
 62
7
  6
BYLAYER
 10
103.4900046532
 20
10.2264829445
 11
102.435693955
 21
10.2264829445
  0
LINE
  8
LS-12V-90-W6S-28359
 62
7
  6
BYLAYER
 10
103.0926663968
 20
9.3309574217
 11
103.2328282627
 21
9.1406714448
  0
LINE
  8
LS-12V-90-W6S-28359
 62
7
  6
BYLAYER
 10
103.2328282627
 20
9.1406714448
 11
103.4297312123
 21
8.9362294183
  0
LINE
  8
LS-12V-90-W6S-28359
 62
7
  6
BYLAYER
 10
103.5206572317
 20
9.2521240082
 11
103.4297312123
 21
8.9362294183
  0
LINE
  8
LS-12V-90-W6S-28359
 62
7
  6
BYLAYER
 10
103.0926663968
 20
9.3309574217
 11
102.8217242602
 21
8.9959050332
  0
LINE
  8
LS-12V-90-W6S-28359
 62
7
  6
BYLAYER
 10
102.7461529484
 20
9.2313387353
 11
102.8217242602
 21
8.9959050332
  0
LINE
  8
LS-12V-90-W6S-28359
 62
7
  6
BYLAYER
 10
102.983736312
 20
9.5139981878
 11
102.7461529484
 21
9.2313387353
  0
LINE
  8
LS-12V-90-W6S-28359
 62
7
  6
BYLAYER
 10
102.6785412595
 20
9.7704341278
 11
102.6785412595
 21
8.2853725627
  0
LINE
  8
LS-12V-90-W6S-28359
 62
7
  6
BYLAYER
 10
102.6785412595
 20
9.7704341278
 11
102.5351774021
 21
9.7704341278
  0
LINE
  8
LS-12V-90-W6S-28359
 62
7
  6
BYLAYER
 10
102.5351774021
 20
9.7704341278
 11
102.5351774021
 21
8.4530041398
  0
LINE
  8
LS-12V-90-W6S-28359
 62
7
  6
BYLAYER
 10
102.5351774021
 20
8.4530041398
 11
102.5215997666
 21
8.325214629
  0
LINE
  8
LS-12V-90-W6S-28359
 62
7
  6
BYLAYER
 10
102.5215997666
 20
8.325214629
 11
102.4912497577
 21
8.2645146113
  0
LINE
  8
LS-12V-90-W6S-28359
 62
7
  6
BYLAYER
 10
102.4912497577
 20
8.2645146113
 11
102.4319474379
 21
8.2377586825
  0
LINE
  8
LS-12V-90-W6S-28359
 62
7
  6
BYLAYER
 10
102.4319474379
 20
8.2377586825
 11
102.207653634
 21
8.268489708
  0
LINE
  8
LS-12V-90-W6S-28359
 62
7
  6
BYLAYER
 10
102.207653634
 20
8.268489708
 11
102.2299291581
 21
7.9368628421
  0
LINE
  8
LS-12V-90-W6S-28359
 62
7
  6
BYLAYER
 10
102.2299291581
 20
7.9368628421
 11
102.5091707274
 21
7.9288051251
  0
LINE
  8
LS-12V-90-W6S-28359
 62
7
  6
BYLAYER
 10
102.5091707274
 20
7.9288051251
 11
102.6184402552
 21
8.0396849408
  0
LINE
  8
LS-12V-90-W6S-28359
 62
7
  6
BYLAYER
 10
102.6184402552
 20
8.0396849408
 11
102.6785412595
 21
8.2853725627
  0
LINE
  8
LS-12V-90-W6S-28359
 62
7
  6
BYLAYER
 10
102.7044444097
 20
8.6998922794
 11
103.3225773959
 21
8.1917351863
  0
LINE
  8
LS-12V-90-W6S-28359
 62
7
  6
BYLAYER
 10
103.3225773959
 20
8.1917351863
 11
103.3896052755
 21
8.4917647428
  0
LINE
  8
LS-12V-90-W6S-28359
 62
7
  6
BYLAYER
 10
103.3896052755
 20
8.4917647428
 11
102.7618167668
 21
8.9445305886
  0
LINE
  8
LS-12V-90-W6S-28359
 62
7
  6
BYLAYER
 10
102.7618167668
 20
8.9445305886
 11
102.7044444097
 21
8.6998922794
  0
LINE
  8
LS-12V-90-W6S-28359
 62
7
  6
BYLAYER
 10
102.4527330685
 20
8.94086609
 11
102.4838372819
 21
8.6739919389
  0
LINE
  8
LS-12V-90-W6S-28359
 62
7
  6
BYLAYER
 10
102.4838372819
 20
8.6739919389
 11
101.8496668843
 21
8.2548697505
  0
LINE
  8
LS-12V-90-W6S-28359
 62
7
  6
BYLAYER
 10
101.8041532757
 20
8.5402601138
 11
101.8496668843
 21
8.2548697505
  0
LINE
  8
LS-12V-90-W6S-28359
 62
7
  6
BYLAYER
 10
101.8041532757
 20
8.5402601138
 11
102.4527330685
 21
8.94086609
  0
LINE
  8
LS-12V-90-W6S-28359
 62
7
  6
BYLAYER
 10
102.4197413483
 20
9.2116252721
 11
102.3313075721
 21
8.9680204287
  0
LINE
  8
LS-12V-90-W6S-28359
 62
7
  6
BYLAYER
 10
102.3313075721
 20
8.9680204287
 11
102.0687401076
 21
9.348179457
  0
LINE
  8
LS-12V-90-W6S-28359
 62
7
  6
BYLAYER
 10
102.0687401076
 20
9.348179457
 11
101.7510200037
 21
8.9021754447
  0
LINE
  8
LS-12V-90-W6S-28359
 62
7
  6
BYLAYER
 10
101.6649820155
 20
9.1741057285
 11
101.7510200037
 21
8.9021754447
  0
LINE
  8
LS-12V-90-W6S-28359
 62
7
  6
BYLAYER
 10
102.1686945931
 20
9.5418612723
 11
102.4197413483
 21
9.2116252721
  0
LINE
  8
LS-12V-90-W6S-28359
 62
7
  6
BYLAYER
 10
83.6820747892
 20
6.674025783
 11
83.9028532535
 21
6.6713241571
  0
LINE
  8
LS-12V-90-W6S-28359
 62
7
  6
BYLAYER
 10
83.9390470957
 20
6.6722776721
 11
84.21953944
 21
5.7457788802
  0
LINE
  8
LS-12V-90-W6S-28359
 62
7
  6
BYLAYER
 10
84.21953944
 20
5.7457788802
 11
84.5361858968
 21
6.674025783
  0
LINE
  8
LS-12V-90-W6S-28359
 62
7
  6
BYLAYER
 10
84.5361858968
 20
6.674025783
 11
84.7225980894
 21
6.6722776721
  0
LINE
  8
LS-12V-90-W6S-28359
 62
7
  6
BYLAYER
 10
84.7225980894
 20
6.6722776721
 11
85.0284380422
 21
5.7583334951
  0
LINE
  8
LS-12V-90-W6S-28359
 62
7
  6
BYLAYER
 10
85.0284380422
 20
5.7583334951
 11
85.321564461
 21
6.674025783
  0
LINE
  8
LS-12V-90-W6S-28359
 62
7
  6
BYLAYER
 10
85.321564461
 20
6.674025783
 11
85.5206107281
 21
6.6722776721
  0
LINE
  8
LS-12V-90-W6S-28359
 62
7
  6
BYLAYER
 10
85.5206107281
 20
6.6722776721
 11
85.0935154445
 21
5.4344562158
  0
LINE
  8
LS-12V-90-W6S-28359
 62
7
  6
BYLAYER
 10
85.0935154445
 20
5.4344562158
 11
84.8927210665
 21
5.4344562158
  0
LINE
  8
LS-12V-90-W6S-28359
 62
7
  6
BYLAYER
 10
84.8927210665
 20
5.4344562158
 11
84.6013427586
 21
6.3501485038
  0
LINE
  8
LS-12V-90-W6S-28359
 62
7
  6
BYLAYER
 10
84.6013427586
 20
6.3501485038
 11
84.2955028058
 21
5.4344562158
  0
LINE
  8
LS-12V-90-W6S-28359
 62
7
  6
BYLAYER
 10
84.2955028058
 20
5.4344562158
 11
84.0801673233
 21
5.4344562158
  0
LINE
  8
LS-12V-90-W6S-28359
 62
7
  6
BYLAYER
 10
84.0801673233
 20
5.4344562158
 11
83.6820747892
 21
6.674025783
  0
LINE
  8
LS-12V-90-W6S-28359
 62
7
  6
BYLAYER
 10
85.5639956629
 20
6.674025783
 11
85.962088197
 21
5.4344562158
  0
LINE
  8
LS-12V-90-W6S-28359
 62
7
  6
BYLAYER
 10
85.962088197
 20
5.4344562158
 11
86.1774236795
 21
5.4344562158
  0
LINE
  8
LS-12V-90-W6S-28359
 62
7
  6
BYLAYER
 10
86.1774236795
 20
5.4344562158
 11
86.4832636323
 21
6.3501485038
  0
LINE
  8
LS-12V-90-W6S-28359
 62
7
  6
BYLAYER
 10
86.4832636323
 20
6.3501485038
 11
86.7746419402
 21
5.4344562158
  0
LINE
  8
LS-12V-90-W6S-28359
 62
7
  6
BYLAYER
 10
86.7746419402
 20
5.4344562158
 11
86.9754363182
 21
5.4344562158
  0
LINE
  8
LS-12V-90-W6S-28359
 62
7
  6
BYLAYER
 10
86.9754363182
 20
5.4344562158
 11
87.4025316018
 21
6.6722776721
  0
LINE
  8
LS-12V-90-W6S-28359
 62
7
  6
BYLAYER
 10
87.4025316018
 20
6.6722776721
 11
87.2034853347
 21
6.674025783
  0
LINE
  8
LS-12V-90-W6S-28359
 62
7
  6
BYLAYER
 10
87.2034853347
 20
6.674025783
 11
86.9103589159
 21
5.7583334951
  0
LINE
  8
LS-12V-90-W6S-28359
 62
7
  6
BYLAYER
 10
86.9103589159
 20
5.7583334951
 11
86.6045189631
 21
6.6722776721
  0
LINE
  8
LS-12V-90-W6S-28359
 62
7
  6
BYLAYER
 10
86.6045189631
 20
6.6722776721
 11
86.4175104495
 21
6.6722776721
  0
LINE
  8
LS-12V-90-W6S-28359
 62
7
  6
BYLAYER
 10
86.4175104495
 20
6.6722776721
 11
86.1014603137
 21
5.7457788802
  0
LINE
  8
LS-12V-90-W6S-28359
 62
7
  6
BYLAYER
 10
86.1014603137
 20
5.7457788802
 11
85.8209679693
 21
6.6722776721
  0
LINE
  8
LS-12V-90-W6S-28359
 62
7
  6
BYLAYER
 10
85.8209679693
 20
6.6722776721
 11
85.5639956629
 21
6.674025783
  0
LINE
  8
LS-12V-90-W6S-28359
 62
7
  6
BYLAYER
 10
87.4459959962
 20
6.674025783
 11
87.7029683026
 21
6.6722776721
  0
LINE
  8
LS-12V-90-W6S-28359
 62
7
  6
BYLAYER
 10
87.7029683026
 20
6.6722776721
 11
87.983460647
 21
5.7457788802
  0
LINE
  8
LS-12V-90-W6S-28359
 62
7
  6
BYLAYER
 10
87.983460647
 20
5.7457788802
 11
88.3001071037
 21
6.674025783
  0
LINE
  8
LS-12V-90-W6S-28359
 62
7
  6
BYLAYER
 10
88.3001071037
 20
6.674025783
 11
88.4865192964
 21
6.6722776721
  0
LINE
  8
LS-12V-90-W6S-28359
 62
7
  6
BYLAYER
 10
88.4865192964
 20
6.6722776721
 11
88.7923592492
 21
5.7583334951
  0
LINE
  8
LS-12V-90-W6S-28359
 62
7
  6
BYLAYER
 10
88.7923592492
 20
5.7583334951
 11
89.085485668
 21
6.674025783
  0
LINE
  8
LS-12V-90-W6S-28359
 62
7
  6
BYLAYER
 10
89.085485668
 20
6.674025783
 11
89.284531935
 21
6.6722776721
  0
LINE
  8
LS-12V-90-W6S-28359
 62
7
  6
BYLAYER
 10
89.284531935
 20
6.6722776721
 11
88.8574366515
 21
5.4344562158
  0
LINE
  8
LS-12V-90-W6S-28359
 62
7
  6
BYLAYER
 10
88.8574366515
 20
5.4344562158
 11
88.6566422735
 21
5.4344562158
  0
LINE
  8
LS-12V-90-W6S-28359
 62
7
  6
BYLAYER
 10
88.6566422735
 20
5.4344562158
 11
88.3652639656
 21
6.3501485038
  0
LINE
  8
LS-12V-90-W6S-28359
 62
7
  6
BYLAYER
 10
88.3652639656
 20
6.3501485038
 11
88.0594240128
 21
5.4344562158
  0
LINE
  8
LS-12V-90-W6S-28359
 62
7
  6
BYLAYER
 10
88.0594240128
 20
5.4344562158
 11
87.8440885303
 21
5.4344562158
  0
LINE
  8
LS-12V-90-W6S-28359
 62
7
  6
BYLAYER
 10
87.8440885303
 20
5.4344562158
 11
87.4459959962
 21
6.674025783
  0
LINE
  8
LS-12V-90-W6S-28359
 62
7
  6
BYLAYER
 10
89.5649448198
 20
5.6461365573
 11
89.6463908971
 21
5.6480435874
  0
LINE
  8
LS-12V-90-W6S-28359
 62
7
  6
BYLAYER
 10
89.6463908971
 20
5.6480435874
 11
89.7224337225
 21
5.6100619045
  0
LINE
  8
LS-12V-90-W6S-28359
 62
7
  6
BYLAYER
 10
89.7224337225
 20
5.6100619045
 11
89.7547147538
 21
5.553042408
  0
LINE
  8
LS-12V-90-W6S-28359
 62
7
  6
BYLAYER
 10
89.7547147538
 20
5.553042408
 11
89.7441261899
 21
5.4805427767
  0
LINE
  8
LS-12V-90-W6S-28359
 62
7
  6
BYLAYER
 10
89.7441261899
 20
5.4805427767
 11
89.6816709541
 21
5.4263513379
  0
LINE
  8
LS-12V-90-W6S-28359
 62
7
  6
BYLAYER
 10
89.6816709541
 20
5.4263513379
 11
89.5649448198
 21
5.4199945709
  0
LINE
  8
LS-12V-90-W6S-28359
 62
7
  6
BYLAYER
 10
89.5649448198
 20
5.4199945709
 11
89.494384706
 21
5.4435146088
  0
LINE
  8
LS-12V-90-W6S-28359
 62
7
  6
BYLAYER
 10
89.494384706
 20
5.4435146088
 11
89.4564030231
 21
5.5158228336
  0
LINE
  8
LS-12V-90-W6S-28359
 62
7
  6
BYLAYER
 10
89.4564030231
 20
5.5158228336
 11
89.4779757305
 21
5.596468163
  0
LINE
  8
LS-12V-90-W6S-28359
 62
7
  6
BYLAYER
 10
89.4779757305
 20
5.596468163
 11
89.5647004495
 21
5.6461368822
  0
LINE
  8
LS-12V-90-W6S-28359
 62
7
  6
BYLAYER
 10
90.1551706368
 20
6.6724365913
 11
90.1551706368
 21
5.4520962443
  0
LINE
  8
LS-12V-90-W6S-28359
 62
7
  6
BYLAYER
 10
90.1551706368
 20
5.4520962443
 11
90.7397548231
 21
5.4520962443
  0
LINE
  8
LS-12V-90-W6S-28359
 62
7
  6
BYLAYER
 10
91.2152409955
 20
6.4979433368
 11
91.0255704645
 21
6.6353092973
  0
LINE
  8
LS-12V-90-W6S-28359
 62
7
  6
BYLAYER
 10
91.0255704645
 20
6.6353092973
 11
90.8320091335
 21
6.6738420145
  0
LINE
  8
LS-12V-90-W6S-28359
 62
7
  6
BYLAYER
 10
90.8320091335
 20
6.6738420145
 11
90.1551706368
 21
6.6724365913
  0
LINE
  8
LS-12V-90-W6S-28359
 62
7
  6
BYLAYER
 10
90.392913723
 20
6.5861434791
 11
90.392913723
 21
5.5348931346
  0
LINE
  8
LS-12V-90-W6S-28359
 62
7
  6
BYLAYER
 10
90.392913723
 20
5.5348931346
 11
90.586236136
 21
5.5353948201
  0
LINE
  8
LS-12V-90-W6S-28359
 62
7
  6
BYLAYER
 10
90.9634335623
 20
6.4734697838
 11
90.8520312204
 21
6.5475261195
  0
LINE
  8
LS-12V-90-W6S-28359
 62
7
  6
BYLAYER
 10
90.8520312204
 20
6.5475261195
 11
90.6237867505
 21
6.5824601136
  0
LINE
  8
LS-12V-90-W6S-28359
 62
7
  6
BYLAYER
 10
90.6237867505
 20
6.5824601136
 11
90.392913723
 21
6.5824601136
  0
LINE
  8
LS-12V-90-W6S-28359
 62
7
  6
BYLAYER
 10
96.5770150504
 20
6.6406527562
 11
97.2849999763
 21
6.6406527562
  0
LINE
  8
LS-12V-90-W6S-28359
 62
7
  6
BYLAYER
 10
97.2849999763
 20
6.6406527562
 11
97.2849999763
 21
6.5260720308
  0
LINE
  8
LS-12V-90-W6S-28359
 62
7
  6
BYLAYER
 10
97.2849999763
 20
6.5260720308
 11
96.7577061527
 21
6.5260720308
  0
LINE
  8
LS-12V-90-W6S-28359
 62
7
  6
BYLAYER
 10
96.7577061527
 20
6.5260720308
 11
96.7577061527
 21
6.1281384159
  0
LINE
  8
LS-12V-90-W6S-28359
 62
7
  6
BYLAYER
 10
96.7577061527
 20
6.1281384159
 11
97.2849999763
 21
6.1281384159
  0
LINE
  8
LS-12V-90-W6S-28359
 62
7
  6
BYLAYER
 10
97.2849999763
 20
6.1281384159
 11
97.2849999763
 21
6.0151468823
  0
LINE
  8
LS-12V-90-W6S-28359
 62
7
  6
BYLAYER
 10
97.2849999763
 20
6.0151468823
 11
96.7577061527
 21
6.0151468823
  0
LINE
  8
LS-12V-90-W6S-28359
 62
7
  6
BYLAYER
 10
96.7577061527
 20
6.0151468823
 11
96.7577061527
 21
5.5426801742
  0
LINE
  8
LS-12V-90-W6S-28359
 62
7
  6
BYLAYER
 10
96.7577061527
 20
5.5426801742
 11
97.2849999763
 21
5.5426801742
  0
LINE
  8
LS-12V-90-W6S-28359
 62
7
  6
BYLAYER
 10
97.2849999763
 20
5.5426801742
 11
97.2849999763
 21
5.4344562158
  0
LINE
  8
LS-12V-90-W6S-28359
 62
7
  6
BYLAYER
 10
97.2849999763
 20
5.4344562158
 11
96.5770150504
 21
5.4344562158
  0
LINE
  8
LS-12V-90-W6S-28359
 62
7
  6
BYLAYER
 10
96.5770150504
 20
5.4344562158
 11
96.5770150504
 21
6.6406527562
  0
LINE
  8
LS-12V-90-W6S-28359
 62
7
  6
BYLAYER
 10
95.0359279145
 20
6.436441616
 11
94.7811894627
 21
6.5920836111
  0
LINE
  8
LS-12V-90-W6S-28359
 62
7
  6
BYLAYER
 10
94.7811894627
 20
6.5920836111
 11
94.6259643354
 21
6.6072797294
  0
LINE
  8
LS-12V-90-W6S-28359
 62
7
  6
BYLAYER
 10
94.2227069282
 20
6.2991354485
 11
94.1909255723
 21
6.1760502169
  0
LINE
  8
LS-12V-90-W6S-28359
 62
7
  6
BYLAYER
 10
94.2592029909
 20
5.7391536883
 11
94.3652109208
 21
5.6069597455
  0
LINE
  8
LS-12V-90-W6S-28359
 62
7
  6
BYLAYER
 10
94.7968024489
 20
5.5083536323
 11
94.9164685879
 21
5.559684526
  0
LINE
  8
LS-12V-90-W6S-28359
 62
7
  6
BYLAYER
 10
94.9164685879
 20
5.559684526
 11
94.9164685879
 21
6.0208679726
  0
LINE
  8
LS-12V-90-W6S-28359
 62
7
  6
BYLAYER
 10
94.9164685879
 20
6.0208679726
 11
95.1401473271
 21
6.0208679726
  0
LINE
  8
LS-12V-90-W6S-28359
 62
7
  6
BYLAYER
 10
95.1401473271
 20
6.0208679726
 11
95.1375251607
 21
5.5041422742
  0
LINE
  8
LS-12V-90-W6S-28359
 62
7
  6
BYLAYER
 10
95.1375251607
 20
5.5041422742
 11
94.8989874786
 21
5.4468519115
  0
LINE
  8
LS-12V-90-W6S-28359
 62
7
  6
BYLAYER
 10
94.8989874786
 20
5.4468519115
 11
94.6118999884
 21
5.4239675503
  0
LINE
  8
LS-12V-90-W6S-28359
 62
7
  6
BYLAYER
 10
94.5947367175
 20
6.6944468971
 11
94.8677201308
 21
6.6816539035
  0
LINE
  8
LS-12V-90-W6S-28359
 62
7
  6
BYLAYER
 10
94.8677201308
 20
6.6816539035
 11
95.1542116741
 21
6.5861434791
  0
LINE
  8
LS-12V-90-W6S-28359
 62
7
  6
BYLAYER
 10
95.1542116741
 20
6.5861434791
 11
95.0978748264
 21
6.436441616
  0
LINE
  8
LS-12V-90-W6S-28359
 62
7
  6
BYLAYER
 10
95.0978748264
 20
6.436441616
 11
95.0359279145
 21
6.436441616
  0
LINE
  8
LS-12V-90-W6S-28359
 62
7
  6
BYLAYER
 10
95.3646206622
 20
6.684832287
 11
95.3646206622
 21
6.5581737043
  0
LINE
  8
LS-12V-90-W6S-28359
 62
7
  6
BYLAYER
 10
95.7627926558
 20
6.5965671585
 11
95.7627926558
 21
5.4344562158
  0
LINE
  8
LS-12V-90-W6S-28359
 62
7
  6
BYLAYER
 10
95.7627926558
 20
5.4344562158
 11
95.9925897833
 21
5.4344562158
  0
LINE
  8
LS-12V-90-W6S-28359
 62
7
  6
BYLAYER
 10
95.3646206622
 20
6.684832287
 11
96.3906823174
 21
6.688487428
  0
LINE
  8
LS-12V-90-W6S-28359
 62
7
  6
BYLAYER
 10
96.3906823174
 20
6.688487428
 11
96.3884177191
 21
6.5650072288
  0
LINE
  8
LS-12V-90-W6S-28359
 62
7
  6
BYLAYER
 10
95.9925897833
 20
5.4344562158
 11
95.9925897833
 21
6.597305822
  0
LINE
  8
LS-12V-90-W6S-28359
 62
7
  6
BYLAYER
 10
102.3677119593
 20
6.688487428
 11
102.4961981125
 21
6.688487428
  0
LINE
  8
LS-12V-90-W6S-28359
 62
7
  6
BYLAYER
 10
102.4961981125
 20
6.688487428
 11
102.9594475085
 21
5.8018773491
  0
LINE
  8
LS-12V-90-W6S-28359
 62
7
  6
BYLAYER
 10
102.9594475085
 20
5.8018773491
 11
103.4353309789
 21
6.688487428
  0
LINE
  8
LS-12V-90-W6S-28359
 62
7
  6
BYLAYER
 10
103.4353309789
 20
6.688487428
 11
103.5656447026
 21
6.688487428
  0
LINE
  8
LS-12V-90-W6S-28359
 62
7
  6
BYLAYER
 10
103.5656447026
 20
6.688487428
 11
103.7085925008
 21
5.4344562158
  0
LINE
  8
LS-12V-90-W6S-28359
 62
7
  6
BYLAYER
 10
103.4497926238
 20
5.4344562158
 11
103.3756568285
 21
6.256068352
  0
LINE
  8
LS-12V-90-W6S-28359
 62
7
  6
BYLAYER
 10
103.3756568285
 20
6.256068352
 11
102.9666783309
 21
5.4633795057
  0
LINE
  8
LS-12V-90-W6S-28359
 62
7
  6
BYLAYER
 10
102.9666783309
 20
5.4633795057
 11
102.8652878971
 21
5.4633795057
  0
LINE
  8
LS-12V-90-W6S-28359
 62
7
  6
BYLAYER
 10
102.8652878971
 20
5.4633795057
 11
102.4708505041
 21
6.239699677
  0
LINE
  8
LS-12V-90-W6S-28359
 62
7
  6
BYLAYER
 10
102.4708505041
 20
6.239699677
 11
102.3966352492
 21
5.4344562158
  0
LINE
  8
LS-12V-90-W6S-28359
 62
7
  6
BYLAYER
 10
102.1957614117
 20
5.4344562158
 11
102.3677119593
 21
6.688487428
  0
LINE
  8
LS-12V-90-W6S-28359
 62
7
  6
BYLAYER
 10
102.1957614117
 20
5.4344562158
 11
102.3966352492
 21
5.4344562158
  0
LINE
  8
LS-12V-90-W6S-28359
 62
7
  6
BYLAYER
 10
103.4497926238
 20
5.4344562158
 11
103.7085925008
 21
5.4344562158
  0
LINE
  8
LS-12V-90-W6S-28359
 62
7
  6
BYLAYER
 10
98.9237685202
 20
5.6461368822
 11
99.0054589679
 21
5.6480435874
  0
LINE
  8
LS-12V-90-W6S-28359
 62
7
  6
BYLAYER
 10
99.0054589679
 20
5.6480435874
 11
99.0638446982
 21
5.6240128583
  0
LINE
  8
LS-12V-90-W6S-28359
 62
7
  6
BYLAYER
 10
99.0638446982
 20
5.6240128583
 11
99.1067699421
 21
5.5746229284
  0
LINE
  8
LS-12V-90-W6S-28359
 62
7
  6
BYLAYER
 10
99.1067699421
 20
5.5746229284
 11
99.1158283351
 21
5.5304433977
  0
LINE
  8
LS-12V-90-W6S-28359
 62
7
  6
BYLAYER
 10
99.1158283351
 20
5.5304433977
 11
99.0912155202
 21
5.4616634997
  0
LINE
  8
LS-12V-90-W6S-28359
 62
7
  6
BYLAYER
 10
99.0912155202
 20
5.4616634997
 11
99.0407390248
 21
5.4263513379
  0
LINE
  8
LS-12V-90-W6S-28359
 62
7
  6
BYLAYER
 10
99.0407390248
 20
5.4263513379
 11
99.0022073434
 21
5.4199941332
  0
LINE
  8
LS-12V-90-W6S-28359
 62
7
  6
BYLAYER
 10
99.0022073434
 20
5.4199941332
 11
98.9240128905
 21
5.4199945709
  0
LINE
  8
LS-12V-90-W6S-28359
 62
7
  6
BYLAYER
 10
98.9240128905
 20
5.4199945709
 11
98.8534527767
 21
5.4435146088
  0
LINE
  8
LS-12V-90-W6S-28359
 62
7
  6
BYLAYER
 10
98.8534527767
 20
5.4435146088
 11
98.8201552882
 21
5.494586521
  0
LINE
  8
LS-12V-90-W6S-28359
 62
7
  6
BYLAYER
 10
98.8201552882
 20
5.494586521
 11
98.8272311128
 21
5.5746229284
  0
LINE
  8
LS-12V-90-W6S-28359
 62
7
  6
BYLAYER
 10
98.8272311128
 20
5.5746229284
 11
98.8679841064
 21
5.6280353739
  0
LINE
  8
LS-12V-90-W6S-28359
 62
7
  6
BYLAYER
 10
98.8679841064
 20
5.6280353739
 11
98.9237685202
 21
5.6461368822
  0
LINE
  8
LS-12V-90-W6S-28359
 62
7
  6
BYLAYER
 10
101.727968481
 20
6.4038803918
 11
101.7750228951
 21
6.3031084279
  0
LINE
  8
LS-12V-90-W6S-28359
 62
7
  6
BYLAYER
 10
101.7142889308
 20
5.7132773847
 11
101.5126473367
 21
5.5194779746
  0
LINE
  8
LS-12V-90-W6S-28359
 62
7
  6
BYLAYER
 10
101.5126473367
 20
5.5194779746
 11
101.3434778746
 21
5.4760930398
  0
LINE
  8
LS-12V-90-W6S-28359
 62
7
  6
BYLAYER
 10
101.3434778746
 20
5.4760930398
 11
101.0827184262
 21
5.5657795463
  0
LINE
  8
LS-12V-90-W6S-28359
 62
7
  6
BYLAYER
 10
101.0827184262
 20
5.5657795463
 11
100.9499324542
 21
5.7120601779
  0
LINE
  8
LS-12V-90-W6S-28359
 62
7
  6
BYLAYER
 10
100.9064501426
 20
5.809982227
 11
100.8711700857
 21
6.0569426254
  0
LINE
  8
LS-12V-90-W6S-28359
 62
7
  6
BYLAYER
 10
100.8711700857
 20
6.0569426254
 11
100.929384156
 21
6.3054915094
  0
LINE
  8
LS-12V-90-W6S-28359
 62
7
  6
BYLAYER
 10
100.929384156
 20
6.3054915094
 11
101.0539271373
 21
6.5130406585
  0
LINE
  8
LS-12V-90-W6S-28359
 62
7
  6
BYLAYER
 10
101.3325919111
 20
6.6396992412
 11
101.5247019492
 21
6.5930760122
  0
LINE
  8
LS-12V-90-W6S-28359
 62
7
  6
BYLAYER
 10
101.3325919111
 20
6.6396992412
 11
101.1800423346
 21
6.6054494254
  0
LINE
  8
LS-12V-90-W6S-28359
 62
7
  6
BYLAYER
 10
101.1800423346
 20
6.6054494254
 11
101.0539271373
 21
6.5130406585
  0
LINE
  8
LS-12V-90-W6S-28359
 62
7
  6
BYLAYER
 10
101.8591705984
 20
5.5755764435
 11
102.019479029
 21
5.7879963987
  0
LINE
  8
LS-12V-90-W6S-28359
 62
7
  6
BYLAYER
 10
102.019479029
 20
5.7879963987
 11
102.0680654953
 21
6.0196192633
  0
LINE
  8
LS-12V-90-W6S-28359
 62
7
  6
BYLAYER
 10
102.0680654953
 20
6.0196192633
 11
102.0437552205
 21
6.239699677
  0
LINE
  8
LS-12V-90-W6S-28359
 62
7
  6
BYLAYER
 10
102.0437552205
 20
6.239699677
 11
101.9701596365
 21
6.4223344148
  0
LINE
  8
LS-12V-90-W6S-28359
 62
7
  6
BYLAYER
 10
101.7837152579
 20
6.6219187496
 11
101.5272751974
 21
6.702313241
  0
LINE
  8
LS-12V-90-W6S-28359
 62
7
  6
BYLAYER
 10
101.5272751974
 20
6.702313241
 11
101.2823369372
 21
6.714559009
  0
LINE
  8
LS-12V-90-W6S-28359
 62
7
  6
BYLAYER
 10
100.7362488538
 20
6.4380118542
 11
100.6365232604
 21
6.2346589079
  0
LINE
  8
LS-12V-90-W6S-28359
 62
7
  6
BYLAYER
 10
100.6365232604
 20
6.2346589079
 11
100.6122674568
 21
6.044200302
  0
LINE
  8
LS-12V-90-W6S-28359
 62
7
  6
BYLAYER
 10
100.6122674568
 20
6.044200302
 11
100.6206731704
 21
5.9292535119
  0
LINE
  8
LS-12V-90-W6S-28359
 62
7
  6
BYLAYER
 10
100.6206731704
 20
5.9292535119
 11
100.6494778362
 21
5.8045789751
  0
LINE
  8
LS-12V-90-W6S-28359
 62
7
  6
BYLAYER
 10
100.6494778362
 20
5.8045789751
 11
100.7625488294
 21
5.6208684084
  0
LINE
  8
LS-12V-90-W6S-28359
 62
7
  6
BYLAYER
 10
100.7625488294
 20
5.6208684084
 11
100.8384158502
 21
5.5545101127
  0
LINE
  8
LS-12V-90-W6S-28359
 62
7
  6
BYLAYER
 10
100.8384158502
 20
5.5545101127
 11
101.0059402778
 21
5.4565529338
  0
LINE
  8
LS-12V-90-W6S-28359
 62
7
  6
BYLAYER
 10
101.0059402778
 20
5.4565529338
 11
101.2127271232
 21
5.4087113094
  0
LINE
  8
LS-12V-90-W6S-28359
 62
7
  6
BYLAYER
 10
101.2127271232
 20
5.4087113094
 11
101.3893102515
 21
5.4055211878
  0
LINE
  8
LS-12V-90-W6S-28359
 62
7
  6
BYLAYER
 10
101.3893102515
 20
5.4055211878
 11
101.635730238
 21
5.4471697499
  0
LINE
  8
LS-12V-90-W6S-28359
 62
7
  6
BYLAYER
 10
101.635730238
 20
5.4471697499
 11
101.7531826388
 21
5.5013984653
  0
LINE
  8
LS-12V-90-W6S-28359
 62
7
  6
BYLAYER
 10
101.7531826388
 20
5.5013984653
 11
101.8591705984
 21
5.5755764435
  0
LINE
  8
LS-12V-90-W6S-28359
 62
7
  6
BYLAYER
 10
101.7750228951
 20
6.3031084279
 11
101.8040621898
 21
6.1816592498
  0
LINE
  8
LS-12V-90-W6S-28359
 62
7
  6
BYLAYER
 10
101.8040621898
 20
6.1816592498
 11
101.810302952
 21
6.0569426254
  0
LINE
  8
LS-12V-90-W6S-28359
 62
7
  6
BYLAYER
 10
101.810302952
 20
6.0569426254
 11
101.7596871947
 21
5.8107768229
  0
LINE
  8
LS-12V-90-W6S-28359
 62
7
  6
BYLAYER
 10
101.7596871947
 20
5.8107768229
 11
101.7142889308
 21
5.7132773847
  0
LINE
  8
LS-12V-90-W6S-28359
 62
7
  6
BYLAYER
 10
100.9064501426
 20
5.809982227
 11
100.9499324542
 21
5.7120601779
  0
LINE
  8
LS-12V-90-W6S-28359
 62
7
  6
BYLAYER
 10
83.9547633709
 20
9.1862512028
 11
84.4022451603
 21
9.6462865434
  0
LINE
  8
LS-12V-90-W6S-28359
 62
7
  6
BYLAYER
 10
84.7758222225
 20
11.9021830296
 11
84.5256419067
 21
11.4840115993
  0
LINE
  8
LS-12V-90-W6S-28359
 62
7
  6
BYLAYER
 10
84.5256419067
 20
11.4840115993
 11
84.1644368675
 21
11.0940539202
  0
LINE
  8
LS-12V-90-W6S-28359
 62
7
  6
BYLAYER
 10
84.1644368675
 20
11.0940539202
 11
83.7621429115
 21
10.7716370178
  0
LINE
  8
LS-12V-90-W6S-28359
 62
7
  6
BYLAYER
 10
84.9542663533
 20
10.9740746125
 11
84.497288609
 21
10.2532388733
  0
LINE
  8
LS-12V-90-W6S-28359
 62
7
  6
BYLAYER
 10
84.497288609
 20
10.2532388733
 11
84.0807746722
 21
9.8287380921
  0
LINE
  8
LS-12V-90-W6S-28359
 62
7
  6
BYLAYER
 10
84.0807746722
 20
9.8287380921
 11
83.7084448482
 21
9.5397946349
  0
LINE
  8
LS-12V-90-W6S-28359
 62
7
  6
BYLAYER
 10
91.2152409955
 20
6.4979433368
 11
91.3050303296
 21
6.314073851
  0
LINE
  8
LS-12V-90-W6S-28359
 62
7
  6
BYLAYER
 10
91.3050303296
 20
6.314073851
 11
91.3349744438
 21
6.1044623491
  0
LINE
  8
LS-12V-90-W6S-28359
 62
7
  6
BYLAYER
 10
91.3349744438
 20
6.1044623491
 11
91.2909659826
 21
5.8465336373
  0
LINE
  8
LS-12V-90-W6S-28359
 62
7
  6
BYLAYER
 10
90.586236136
 20
5.5353948201
 11
90.7787694806
 21
5.5528510014
  0
LINE
  8
LS-12V-90-W6S-28359
 62
7
  6
BYLAYER
 10
90.7787694806
 20
5.5528510014
 11
90.9298221567
 21
5.6353300534
  0
LINE
  8
LS-12V-90-W6S-28359
 62
7
  6
BYLAYER
 10
90.9298221567
 20
5.6353300534
 11
91.0365363829
 21
5.8236492761
  0
LINE
  8
LS-12V-90-W6S-28359
 62
7
  6
BYLAYER
 10
91.0365363829
 20
5.8236492761
 11
91.0711727453
 21
6.0622029494
  0
LINE
  8
LS-12V-90-W6S-28359
 62
7
  6
BYLAYER
 10
91.0711727453
 20
6.0622029494
 11
91.0659147142
 21
6.1559764243
  0
LINE
  8
LS-12V-90-W6S-28359
 62
7
  6
BYLAYER
 10
91.0659147142
 20
6.1559764243
 11
91.0276270018
 21
6.3289576734
  0
LINE
  8
LS-12V-90-W6S-28359
 62
7
  6
BYLAYER
 10
91.0276270018
 20
6.3289576734
 11
90.9634335623
 21
6.4734697838
  0
LINE
  8
LS-12V-90-W6S-28359
 62
7
  6
BYLAYER
 10
94.5947367175
 20
6.6944468971
 11
94.4547686539
 21
6.6759328131
  0
LINE
  8
LS-12V-90-W6S-28359
 62
7
  6
BYLAYER
 10
94.4547686539
 20
6.6759328131
 11
94.2783497883
 21
6.6208484909
  0
LINE
  8
LS-12V-90-W6S-28359
 62
7
  6
BYLAYER
 10
94.2783497883
 20
6.6208484909
 11
94.0695088432
 21
6.4629811183
  0
LINE
  8
LS-12V-90-W6S-28359
 62
7
  6
BYLAYER
 10
94.0695088432
 20
6.4629811183
 11
93.9521515118
 21
6.2101283535
  0
LINE
  8
LS-12V-90-W6S-28359
 62
7
  6
BYLAYER
 10
93.9521515118
 20
6.2101283535
 11
93.932202848
 21
6.0349118467
  0
LINE
  8
LS-12V-90-W6S-28359
 62
7
  6
BYLAYER
 10
93.932202848
 20
6.0349118467
 11
94.0031869178
 21
5.7297076519
  0
LINE
  8
LS-12V-90-W6S-28359
 62
7
  6
BYLAYER
 10
94.0031869178
 20
5.7297076519
 11
94.1729279033
 21
5.5356404553
  0
LINE
  8
LS-12V-90-W6S-28359
 62
7
  6
BYLAYER
 10
94.1729279033
 20
5.5356404553
 11
94.4155417768
 21
5.4383523116
  0
LINE
  8
LS-12V-90-W6S-28359
 62
7
  6
BYLAYER
 10
94.4155417768
 20
5.4383523116
 11
94.6118999884
 21
5.4239675503
  0
LINE
  8
LS-12V-90-W6S-28359
 62
7
  6
BYLAYER
 10
94.7968024489
 20
5.5083536323
 11
94.6647406142
 21
5.4908725231
  0
LINE
  8
LS-12V-90-W6S-28359
 62
7
  6
BYLAYER
 10
94.6647406142
 20
5.4908725231
 11
94.5202019864
 21
5.5174378632
  0
LINE
  8
LS-12V-90-W6S-28359
 62
7
  6
BYLAYER
 10
94.5202019864
 20
5.5174378632
 11
94.3652109208
 21
5.6069597455
  0
LINE
  8
LS-12V-90-W6S-28359
 62
7
  6
BYLAYER
 10
94.1909255723
 20
6.1760502169
 11
94.1820119691
 21
6.0548489599
  0
LINE
  8
LS-12V-90-W6S-28359
 62
7
  6
BYLAYER
 10
94.1820119691
 20
6.0548489599
 11
94.2049092518
 21
5.8750443679
  0
LINE
  8
LS-12V-90-W6S-28359
 62
7
  6
BYLAYER
 10
94.2049092518
 20
5.8750443679
 11
94.2592029909
 21
5.7391536883
  0
LINE
  8
LS-12V-90-W6S-28359
 62
7
  6
BYLAYER
 10
94.6259643354
 20
6.6072797294
 11
94.4261234725
 21
6.5378320498
  0
LINE
  8
LS-12V-90-W6S-28359
 62
7
  6
BYLAYER
 10
94.4261234725
 20
6.5378320498
 11
94.2936443485
 21
6.4239300368
  0
LINE
  8
LS-12V-90-W6S-28359
 62
7
  6
BYLAYER
 10
94.2936443485
 20
6.4239300368
 11
94.2227069282
 21
6.2991354485
  0
LINE
  8
LS-12V-90-W6S-28359
 62
7
  6
BYLAYER
 10
95.3646206622
 20
6.5581737043
 11
95.4370083465
 21
6.5564255933
  0
LINE
  8
LS-12V-90-W6S-28359
 62
7
  6
BYLAYER
 10
95.4370083465
 20
6.5564255933
 11
95.7627926558
 21
6.5965671585
  0
LINE
  8
LS-12V-90-W6S-28359
 62
7
  6
BYLAYER
 10
95.9925897833
 20
6.597305822
 11
96.318294633
 21
6.5581737043
  0
LINE
  8
LS-12V-90-W6S-28359
 62
7
  6
BYLAYER
 10
96.318294633
 20
6.5581737043
 11
96.3906823174
 21
6.5564255933
  0
LINE
  8
LS-12V-90-W6S-28359
 62
7
  6
BYLAYER
 10
90.7544785079
 20
5.4524531758
 11
90.9166682079
 21
5.477421143
  0
LINE
  8
LS-12V-90-W6S-28359
 62
7
  6
BYLAYER
 10
90.9166682079
 20
5.477421143
 11
91.1287432249
 21
5.5995779758
  0
LINE
  8
LS-12V-90-W6S-28359
 62
7
  6
BYLAYER
 10
91.1287432249
 20
5.5995779758
 11
91.2909659826
 21
5.8465336373
  0
LINE
  8
LS-12V-90-W6S-28359
 62
7
  6
BYLAYER
 10
100.7438790417
 20
6.4486589327
 11
100.8942424321
 21
6.6016657032
  0
LINE
  8
LS-12V-90-W6S-28359
 62
7
  6
BYLAYER
 10
100.8942424321
 20
6.6016657032
 11
101.0876149678
 21
6.687630384
  0
LINE
  8
LS-12V-90-W6S-28359
 62
7
  6
BYLAYER
 10
101.0876149678
 20
6.687630384
 11
101.2823369372
 21
6.714559009
  0
LINE
  8
LS-12V-90-W6S-28359
 62
7
  6
BYLAYER
 10
101.727968481
 20
6.4038803918
 11
101.6293438767
 21
6.5214799109
  0
LINE
  8
LS-12V-90-W6S-28359
 62
7
  6
BYLAYER
 10
101.6293438767
 20
6.5214799109
 11
101.5247019492
 21
6.5930760122
  0
LINE
  8
LS-12V-90-W6S-28359
 62
7
  6
BYLAYER
 10
101.7837152579
 20
6.6219187496
 11
101.8995536239
 21
6.51613018
  0
LINE
  8
LS-12V-90-W6S-28359
 62
7
  6
BYLAYER
 10
101.8995536239
 20
6.51613018
 11
101.9701596365
 21
6.4223344148
  0
LINE
  8
LS-12V-90-W6S-28359
 62
7
  6
BYLAYER
 10
88.8704852742
 20
11.5211240503
 11
88.8704852742
 21
11.215102744
  0
LINE
  8
LS-12V-90-W6S-28359
 62
7
  6
BYLAYER
 10
99.0065895348
 20
9.5456044572
 11
97.6296537813
 21
9.5456044572
  0
ARC
  8
LS-12V-90-W6S-28359
 62
7
  6
BYLAYER
 10
101.6749942574
 20
11.8414228874
 40
0.1996711106
 50
90.0
 51
180.0
  0
ARC
  8
LS-12V-90-W6S-28359
 62
7
  6
BYLAYER
 10
103.5087737376
 20
11.8414228874
 40
0.1996711106
 50
0.0
 51
90.0
  0
ARC
  8
LS-12V-90-W6S-28359
 62
7
  6
BYLAYER
 10
103.5087737376
 20
7.9154895099
 40
0.1996711106
 50
270.0
 51
360.0
  0
ARC
  8
LS-12V-90-W6S-28359
 62
7
  6
BYLAYER
 10
101.6749942574
 20
7.9154895099
 40
0.1996711106
 50
180.0
 51
270.0
  0
LINE
  8
LS-12V-90-W6S-28359
 62
7
  6
BYLAYER
 10
92.0656223867
 20
11.2799477242
 11
92.5608067411
 21
11.2102625066
  0
ENDBLK
  8
0
  6
BYBLOCK
 62
0
  0
BLOCK
  8
0
  2
_FILLED
 70
64
 10
0.0
 20
0.0
  0
SOLID
  8
0
  6
BYBLOCK
 62
0
 10
0.0
 20
0.0
 11
-1.0
 21
0.2142857143
 12
-1.0
 22
-0.2142857143
 13
-1.0
 23
-0.2142857143
  0
ENDBLK
  8
0
  6
BYBLOCK
 62
0
  0
BLOCK
  8
LS-12V-90-W6S-28354
 62
3
  6
BYLAYER
  2
*D0
 70
65
 10
0.0
 20
0.0
  0
TEXT
  8
LS-12V-90-W6S-28354
 62
3
  6
BYLAYER
 10
66.8385864207
 20
68.4204564913
  7
STANDARD
 40
1.75
  1
33,3
 41
0.85
 72
1
 11
69.8135864207
 21
68.4204564913
  0
LINE
  8
LS-12V-90-W6S-28354
 62
3
  6
BYLAYER
 10
86.4635864207
 20
59.1544730506
 11
86.4635864207
 21
68.7329564913
  0
LINE
  8
LS-12V-90-W6S-28354
 62
3
  6
BYLAYER
 10
53.1635864207
 20
59.1544730506
 11
53.1635864207
 21
68.7329564913
  0
LINE
  8
LS-12V-90-W6S-28354
 62
3
  6
BYLAYER
 10
86.4635864207
 20
67.9829564913
 11
69.8135864207
 21
67.9829564913
  0
LINE
  8
LS-12V-90-W6S-28354
 62
3
  6
BYLAYER
 10
53.1635864207
 20
67.9829564913
 11
69.8135864207
 21
67.9829564913
  0
INSERT
  8
LS-12V-90-W6S-28354
 62
3
  6
BYLAYER
  2
_FILLED
 10
86.4635864207
 20
67.9829564913
 41
1.75
 42
1.75
 43
1.75
  0
INSERT
  8
LS-12V-90-W6S-28354
 62
3
  6
BYLAYER
  2
_FILLED
 10
53.1635864207
 20
67.9829564913
 41
1.75
 42
1.75
 43
1.75
 50
180.0
  0
ENDBLK
  8
0
  6
BYBLOCK
 62
0
  0
BLOCK
  8
LS-12V-90-W6S-28354
 62
3
  6
BYLAYER
  2
*D1
 70
65
 10
0.0
 20
0.0
  0
TEXT
  8
LS-12V-90-W6S-28354
 62
3
  6
BYLAYER
 10
59.6798364207
 20
64.4204564913
  7
STANDARD
 40
1.75
  1
11,11
 41
0.85
 72
1
 11
63.3985864207
 21
64.4204564913
  0
LINE
  8
LS-12V-90-W6S-28354
 62
3
  6
BYLAYER
 10
68.9535864207
 20
58.0044730506
 11
68.9535864207
 21
64.7329564913
  0
LINE
  8
LS-12V-90-W6S-28354
 62
3
  6
BYLAYER
 10
57.8435864207
 20
58.0044730506
 11
57.8435864207
 21
64.7329564913
  0
LINE
  8
LS-12V-90-W6S-28354
 62
3
  6
BYLAYER
 10
68.9535864207
 20
63.9829564913
 11
63.3985864207
 21
63.9829564913
  0
LINE
  8
LS-12V-90-W6S-28354
 62
3
  6
BYLAYER
 10
57.8435864207
 20
63.9829564913
 11
63.3985864207
 21
63.9829564913
  0
INSERT
  8
LS-12V-90-W6S-28354
 62
3
  6
BYLAYER
  2
_FILLED
 10
68.9535864207
 20
63.9829564913
 41
1.75
 42
1.75
 43
1.75
  0
INSERT
  8
LS-12V-90-W6S-28354
 62
3
  6
BYLAYER
  2
_FILLED
 10
57.8435864207
 20
63.9829564913
 41
1.75
 42
1.75
 43
1.75
 50
180.0
  0
ENDBLK
  8
0
  6
BYBLOCK
 62
0
  0
BLOCK
  8
LS-12V-90-W6S-28354
 62
3
  6
BYLAYER
  2
*D2
 70
65
 10
0.0
 20
0.0
  0
TEXT
  8
LS-12V-90-W6S-28354
 62
3
  6
BYLAYER
 10
45.6983303383
 20
64.4204564913
  7
STANDARD
 40
1.75
  1
4,68
 41
0.85
 72
2
 11
51.6483303383
 21
64.4204564913
  0
LINE
  8
LS-12V-90-W6S-28354
 62
3
  6
BYLAYER
 10
53.1635864207
 20
59.1544730506
 11
53.1635864207
 21
64.7329564913
  0
LINE
  8
LS-12V-90-W6S-28354
 62
3
  6
BYLAYER
 10
57.8435864207
 20
58.0044730506
 11
57.8435864207
 21
64.7329564913
  0
LINE
  8
LS-12V-90-W6S-28354
 62
3
  6
BYLAYER
 10
53.1635864207
 20
63.9829564913
 11
55.5035864207
 21
63.9829564913
  0
LINE
  8
LS-12V-90-W6S-28354
 62
3
  6
BYLAYER
 10
55.5035864207
 20
63.9829564913
 11
45.6983303383
 21
63.9829564913
  0
LINE
  8
LS-12V-90-W6S-28354
 62
3
  6
BYLAYER
 10
57.8435864207
 20
63.9829564913
 11
55.5035864207
 21
63.9829564913
  0
INSERT
  8
LS-12V-90-W6S-28354
 62
3
  6
BYLAYER
  2
_FILLED
 10
53.1635864207
 20
63.9829564913
 41
1.75
 42
1.75
 43
1.75
 50
180.0
  0
INSERT
  8
LS-12V-90-W6S-28354
 62
3
  6
BYLAYER
  2
_FILLED
 10
57.8435864207
 20
63.9829564913
 41
1.75
 42
1.75
 43
1.75
  0
ENDBLK
  8
0
  6
BYBLOCK
 62
0
  0
BLOCK
  8
LS-12V-90-W6S-28354
 62
3
  6
BYLAYER
  2
*D3
 70
65
 10
0.0
 20
0.0
  0
TEXT
  8
LS-12V-90-W6S-28354
 62
3
  6
BYLAYER
 10
47.7260864207
 20
54.9107230506
  7
STANDARD
 40
1.75
  1
6
 50
90.0
 41
0.85
 72
1
 11
47.7260864207
 21
55.6544730506
  0
LINE
  8
LS-12V-90-W6S-28354
 62
3
  6
BYLAYER
 10
52.6635864207
 20
58.6544730506
 11
47.4135864207
 21
58.6544730506
  0
LINE
  8
LS-12V-90-W6S-28354
 62
3
  6
BYLAYER
 10
52.6635864207
 20
52.6544730506
 11
47.4135864207
 21
52.6544730506
  0
LINE
  8
LS-12V-90-W6S-28354
 62
3
  6
BYLAYER
 10
48.1635864207
 20
58.6544730506
 11
48.1635864207
 21
61.1544730506
  0
LINE
  8
LS-12V-90-W6S-28354
 62
3
  6
BYLAYER
 10
48.1635864207
 20
61.1544730506
 11
48.1635864207
 21
55.6544730506
  0
LINE
  8
LS-12V-90-W6S-28354
 62
3
  6
BYLAYER
 10
48.1635864207
 20
52.6544730506
 11
48.1635864207
 21
50.1544730506
  0
LINE
  8
LS-12V-90-W6S-28354
 62
3
  6
BYLAYER
 10
48.1635864207
 20
50.1544730506
 11
48.1635864207
 21
55.6544730506
  0
INSERT
  8
LS-12V-90-W6S-28354
 62
3
  6
BYLAYER
  2
_FILLED
 10
48.1635864207
 20
58.6544730506
 41
1.75
 42
1.75
 43
1.75
 50
270.0
  0
INSERT
  8
LS-12V-90-W6S-28354
 62
3
  6
BYLAYER
  2
_FILLED
 10
48.1635864207
 20
52.6544730506
 41
1.75
 42
1.75
 43
1.75
 50
90.0
  0
ENDBLK
  8
0
  6
BYBLOCK
 62
0
  0
BLOCK
  8
LS-12V-90-W6S-28354
 62
3
  6
BYLAYER
  2
*D4
 70
65
 10
0.0
 20
0.0
  0
TEXT
  8
LS-12V-90-W6S-28354
 62
3
  6
BYLAYER
 10
47.7260864207
 20
82.8295312629
  7
STANDARD
 40
1.75
  1
1
 50
90.0
 41
0.85
 72
0
  0
LINE
  8
LS-12V-90-W6S-28354
 62
3
  6
BYLAYER
 10
55.9566793815
 20
79.9734926936
 11
47.4135864207
 21
79.9734926936
  0
LINE
  8
LS-12V-90-W6S-28354
 62
3
  6
BYLAYER
 10
52.6635864207
 20
78.9734926936
 11
47.4135864207
 21
78.9734926936
  0
LINE
  8
LS-12V-90-W6S-28354
 62
3
  6
BYLAYER
 10
48.1635864207
 20
79.9734926936
 11
48.1635864207
 21
84.3170312629
  0
LINE
  8
LS-12V-90-W6S-28354
 62
3
  6
BYLAYER
 10
48.1635864207
 20
84.3170312629
 11
48.1635864207
 21
79.4734926936
  0
LINE
  8
LS-12V-90-W6S-28354
 62
3
  6
BYLAYER
 10
48.1635864207
 20
78.9734926936
 11
48.1635864207
 21
76.4734926936
  0
LINE
  8
LS-12V-90-W6S-28354
 62
3
  6
BYLAYER
 10
48.1635864207
 20
76.4734926936
 11
48.1635864207
 21
79.4734926936
  0
INSERT
  8
LS-12V-90-W6S-28354
 62
3
  6
BYLAYER
  2
_FILLED
 10
48.1635864207
 20
79.9734926936
 41
1.75
 42
1.75
 43
1.75
 50
270.0
  0
INSERT
  8
LS-12V-90-W6S-28354
 62
3
  6
BYLAYER
  2
_FILLED
 10
48.1635864207
 20
78.9734926936
 41
1.75
 42
1.75
 43
1.75
 50
90.0
  0
ENDBLK
  8
0
  6
BYBLOCK
 62
0
  0
ENDSEC
  0
SECTION
  2
ENTITIES
  0
TEXT
  8
LS-12V-90-W6S-28359
 62
7
  6
BYLAYER
 10
143.2499999228
 20
87.4999973883
  7
TEXTSTYLE_2
 40
1.250005
  1
D
 41
0.9047619048
 72
0
  0
TEXT
  8
LS-12V-90-W6S-28359
 62
7
  6
BYLAYER
 10
143.2500001029
 20
63.7499973389
  7
TEXTSTYLE_2
 40
1.250005
  1
C
 50
180.0
 41
0.8333333333
 71
2
 72
2
 11
144.2916709362
 21
63.7499973389
  0
TEXT
  8
LS-12V-90-W6S-28359
 62
7
  6
BYLAYER
 10
143.249999826
 20
39.9999973971
  7
TEXTSTYLE_2
 40
1.250005
  1
B
 41
0.7857142857
 72
0
  0
TEXT
  8
LS-12V-90-W6S-28359
 62
7
  6
BYLAYER
 10
4.6190430952
 20
87.4999975
  7
TEXTSTYLE_2
 40
1.250005
  1
D
 41
0.9047619048
 72
2
 11
5.75
 21
87.4999975
  0
TEXT
  8
LS-12V-90-W6S-28359
 62
7
  6
BYLAYER
 10
4.7083289865
 20
63.7499974506
  7
TEXTSTYLE_2
 40
1.250005
  1
C
 41
0.8333333333
 72
2
 11
5.7499998199
 21
63.7499974506
  0
TEXT
  8
LS-12V-90-W6S-28359
 62
7
  6
BYLAYER
 10
4.6785672621
 20
16.2499975378
  7
TEXTSTYLE_2
 40
1.250005
  1
A
 41
0.8571428571
 72
2
 11
5.7500001192
 21
16.2499975378
  0
TEXT
  8
LS-12V-90-W6S-28359
 62
7
  6
BYLAYER
 10
4.767853311
 20
39.9999975088
  7
TEXTSTYLE_2
 40
1.250005
  1
B
 41
0.7857142857
 72
2
 11
5.7500000967
 21
39.9999975088
  0
TEXT
  8
LS-12V-90-W6S-28359
 62
7
  6
BYLAYER
 10
131.5914672573
 20
99.6646393553
  7
TEXTSTYLE_2
 40
1.250005
  1
1
 41
0.5714285714
 72
0
  0
TEXT
  8
LS-12V-90-W6S-28359
 62
7
  6
BYLAYER
 10
108.2597190597
 20
99.6646393553
  7
TEXTSTYLE_2
 40
1.250005
  1
2
 41
0.7857142857
 72
2
 11
109.2418658454
 21
99.6646393553
  0
TEXT
  8
LS-12V-90-W6S-28359
 62
7
  6
BYLAYER
 10
85.4248005906
 20
99.6646393553
  7
TEXTSTYLE_2
 40
1.250005
  1
3
 41
0.7142857143
 72
0
  0
TEXT
  8
LS-12V-90-W6S-28359
 62
7
  6
BYLAYER
 10
62.093052393
 20
99.6646393553
  7
TEXTSTYLE_2
 40
1.250005
  1
4
 41
0.7857142857
 72
2
 11
63.0751991787
 21
99.6646393553
  0
TEXT
  8
LS-12V-90-W6S-28359
 62
7
  6
BYLAYER
 10
39.2581339239
 20
99.6646393553
  7
TEXTSTYLE_2
 40
1.250005
  1
5
 41
0.7142857143
 72
0
  0
TEXT
  8
LS-12V-90-W6S-28359
 62
7
  6
BYLAYER
 10
15.9263857263
 20
99.6646393553
  7
TEXTSTYLE_2
 40
1.250005
  1
6
 41
0.7857142857
 72
2
 11
16.9085325121
 21
99.6646393553
  0
TEXT
  8
LS-12V-90-W6S-28359
 62
7
  6
BYLAYER
 10
39.2581341613
 20
4.1646390375
  7
TEXTSTYLE_2
 40
1.250005
  1
5
 41
0.7142857143
 72
0
  0
TEXT
  8
LS-12V-90-W6S-28359
 62
7
  6
BYLAYER
 10
15.9263859637
 20
4.1646390375
  7
TEXTSTYLE_2
 40
1.250005
  1
6
 41
0.7857142857
 72
2
 11
16.9085327494
 21
4.1646390375
  0
INSERT
  8
LS-12V-90-W6S-28359
 62
7
  6
BYLAYER
  2
SYMBOL_283_BL0
 10
93.695333645
 20
8.7160826395
  0
DIMENSION
  8
LS-12V-90-W6S-28354
 62
3
  6
BYLAYER
  2
*D0
 10
53.1635864207
 20
67.9829564913
 11
66.8385864207
 21
69.2954564913
 70
128
 13
86.4635864207
 23
59.1544730506
 14
53.1635864207
 24
59.1544730506
 50
180.0
  0
DIMENSION
  8
LS-12V-90-W6S-28354
 62
3
  6
BYLAYER
  2
*D1
 10
57.8435864207
 20
63.9829564913
 11
59.6798364207
 21
65.2954564913
 70
128
 13
68.9535864207
 23
58.0044730506
 14
57.8435864207
 24
58.0044730506
 50
180.0
  0
DIMENSION
  8
LS-12V-90-W6S-28354
 62
3
  6
BYLAYER
  2
*D2
 10
57.8435864207
 20
63.9829564913
 11
42.7233303383
 21
65.2954564913
 70
128
 13
53.1635864207
 23
59.1544730506
 14
57.8435864207
 24
58.0044730506
  0
DIMENSION
  8
LS-12V-90-W6S-28354
 62
3
  6
BYLAYER
  2
*D3
 10
48.1635864207
 20
52.6544730506
 11
47.1843411727
 21
54.989563032
 70
128
 13
52.6635864207
 23
58.6544730506
 14
52.6635864207
 24
52.6544730506
 50
270.0
  0
DIMENSION
  8
LS-12V-90-W6S-28354
 62
3
  6
BYLAYER
  2
*D4
 10
48.1635864207
 20
78.9734926936
 11
46.8510864207
 21
83.5732812629
 70
128
 13
55.9566793815
 23
79.9734926936
 14
52.6635864207
 24
78.9734926936
 50
270.0
  0
LINE
  8
LS-12V-90-W6S-28359
 62
3
  6
BYLAYER
 10
51.3999999228
 20
31.1249997732
 11
144.9999999228
 21
31.1249997732
  0
LINE
  8
LS-12V-90-W6S-28359
 62
3
  6
BYLAYER
 10
51.3999999228
 20
31.1249997732
 11
51.3999999228
 21
3.4999997732
  0
LINE
  8
LS-12V-90-W6S-28359
 62
3
  6
BYLAYER
 10
104.7999999228
 20
26.8749997732
 11
144.9999999228
 21
26.8749997732
  0
LINE
  8
LS-12V-90-W6S-28359
 62
3
  6
BYLAYER
 10
51.3999999228
 20
22.6249997732
 11
144.9999999228
 21
22.6249997732
  0
LINE
  8
LS-12V-90-W6S-28359
 62
3
  6
BYLAYER
 10
51.3999999228
 20
20.4999997732
 11
78.6999999228
 21
20.4999997732
  0
LINE
  8
LS-12V-90-W6S-28359
 62
3
  6
BYLAYER
 10
82.6999999228
 20
20.4999997732
 11
104.7999999228
 21
20.4999997732
  0
LINE
  8
LS-12V-90-W6S-28359
 62
3
  6
BYLAYER
 10
51.3999999228
 20
18.3749997732
 11
78.6999999228
 21
18.3749997732
  0
LINE
  8
LS-12V-90-W6S-28359
 62
3
  6
BYLAYER
 10
82.6999999228
 20
18.3749997732
 11
104.7999999228
 21
18.3749997732
  0
LINE
  8
LS-12V-90-W6S-28359
 62
3
  6
BYLAYER
 10
51.3999999228
 20
16.2499997732
 11
78.6999999228
 21
16.2499997732
  0
LINE
  8
LS-12V-90-W6S-28359
 62
3
  6
BYLAYER
 10
82.6999999228
 20
16.2499997732
 11
144.9999999228
 21
16.2499997732
  0
LINE
  8
LS-12V-90-W6S-28359
 62
3
  6
BYLAYER
 10
51.3999999228
 20
14.1249997732
 11
78.6999999228
 21
14.1249997732
  0
LINE
  8
LS-12V-90-W6S-28359
 62
3
  6
BYLAYER
 10
82.6999999228
 20
14.1249997732
 11
104.7999999228
 21
14.1249997732
  0
LINE
  8
LS-12V-90-W6S-28359
 62
3
  6
BYLAYER
 10
51.3999999228
 20
11.9999997732
 11
78.6999999228
 21
11.9999997732
  0
LINE
  8
LS-12V-90-W6S-28359
 62
3
  6
BYLAYER
 10
104.7999999228
 20
11.9999997732
 11
144.9999999228
 21
11.9999997732
  0
LINE
  8
LS-12V-90-W6S-28359
 62
3
  6
BYLAYER
 10
51.3999999228
 20
9.8749997732
 11
78.6999999228
 21
9.8749997732
  0
LINE
  8
LS-12V-90-W6S-28359
 62
3
  6
BYLAYER
 10
51.3999999228
 20
7.7499997732
 11
78.6999999228
 21
7.7499997732
  0
LINE
  8
LS-12V-90-W6S-28359
 62
3
  6
BYLAYER
 10
104.7999999228
 20
7.7499997732
 11
138.2999999228
 21
7.7499997732
  0
LINE
  8
LS-12V-90-W6S-28359
 62
3
  6
BYLAYER
 10
51.3999999228
 20
5.6249997732
 11
78.6999999228
 21
5.6249997732
  0
LINE
  8
LS-12V-90-W6S-28359
 62
3
  6
BYLAYER
 10
51.3999999228
 20
3.4999997732
 11
144.9999999228
 21
3.4999997732
  0
LINE
  8
LS-12V-90-W6S-28359
 62
3
  6
BYLAYER
 10
55.2999999228
 20
22.6249997732
 11
55.2999999228
 21
3.4999997732
  0
LINE
  8
LS-12V-90-W6S-28359
 62
3
  6
BYLAYER
 10
68.2999999228
 20
22.6249997732
 11
68.2999999228
 21
3.4999997732
  0
LINE
  8
LS-12V-90-W6S-28359
 62
3
  6
BYLAYER
 10
74.7999999228
 20
22.6249997732
 11
74.7999999228
 21
3.4999997732
  0
LINE
  8
LS-12V-90-W6S-28359
 62
3
  6
BYLAYER
 10
78.6999999228
 20
22.6249997732
 11
78.6999999228
 21
3.4999997732
  0
LINE
  8
LS-12V-90-W6S-28359
 62
3
  6
BYLAYER
 10
82.6999999228
 20
31.1249997732
 11
82.6999999228
 21
3.4999997732
  0
LINE
  8
LS-12V-90-W6S-28359
 62
3
  6
BYLAYER
 10
89.6999999228
 20
22.6249997732
 11
89.6999999228
 21
14.1249997732
  0
LINE
  8
LS-12V-90-W6S-28359
 62
3
  6
BYLAYER
 10
97.2999999228
 20
31.1249997732
 11
97.2999999228
 21
14.1249997732
  0
LINE
  8
LS-12V-90-W6S-28359
 62
3
  6
BYLAYER
 10
104.7999999228
 20
31.1249997732
 11
104.7999999228
 21
3.4999997732
  0
LINE
  8
LS-12V-90-W6S-28359
 62
3
  6
BYLAYER
 10
114.7999999228
 20
31.1249997732
 11
114.7999999228
 21
26.8749997732
  0
LINE
  8
LS-12V-90-W6S-28359
 62
3
  6
BYLAYER
 10
132.2999999228
 20
31.1249997732
 11
132.2999999228
 21
22.6249997732
  0
LINE
  8
LS-12V-90-W6S-28359
 62
3
  6
BYLAYER
 10
138.2999999228
 20
16.2499997732
 11
138.2999999228
 21
3.4999997732
  0
LINE
  8
LS-12V-90-W6S-28359
 62
3
  6
BYLAYER
 10
144.9999999228
 20
31.1249997732
 11
144.9999999228
 21
3.4999997732
  0
TEXT
  8
LS-12V-90-W6S-28359
 62
3
  6
BYLAYER
 10
51.8687499228
 20
30.1749997732
  7
TEXTSTYLE_3
 40
0.6
  1
THE TECHNICAL INFORMATION AND DESIGN DATA DISCLOSED ON THIS
 41
0.786117837
 72
0
  0
TEXT
  8
LS-12V-90-W6S-28359
 62
3
  6
BYLAYER
 10
51.8687499228
 20
29.2749997732
  7
TEXTSTYLE_3
 40
0.6
  1
DOCUMENT HEREIN CONSTITUTES TRADE SECRETS AND IS THE PROPERTY
 41
0.7903981265
 72
0
  0
TEXT
  8
LS-12V-90-W6S-28359
 62
3
  6
BYLAYER
 10
51.8687499228
 20
28.3749997732
  7
TEXTSTYLE_3
 40
0.6
  1
OF "DENGTEC" AND ARE TO BE MAINTAINED IN STRICT CONFIDENCE BY
 41
0.7825917252
 72
0
  0
TEXT
  8
LS-12V-90-W6S-28359
 62
3
  6
BYLAYER
 10
51.8687499228
 20
27.4749997732
  7
TEXTSTYLE_3
 40
0.6
  1
THE RECIPIENT HEREOF AND IS LOANED UPON EXPRESS CONDITIONS THAT
 41
0.7792894936
 72
0
  0
TEXT
  8
LS-12V-90-W6S-28359
 62
3
  6
BYLAYER
 10
51.8687499228
 20
26.5749997732
  7
TEXTSTYLE_3
 40
0.6
  1
IT WILL NOT BE USED DIRECTLY OR INDIRECTLY IN ANY MANNER 
 41
0.7848788638
 72
0
  0
TEXT
  8
LS-12V-90-W6S-28359
 62
3
  6
BYLAYER
 10
51.8687499228
 20
25.6749997732
  7
TEXTSTYLE_3
 40
0.6
  1
DETRIMENTAL TO OUR INTRESTS AND SHALL BE USED ONLY IN CONNECTION 
 41
0.7805860806
 72
0
  0
TEXT
  8
LS-12V-90-W6S-28359
 62
3
  6
BYLAYER
 10
51.8687499228
 20
24.7749997732
  7
TEXTSTYLE_3
 40
0.6
  1
WITH MATERIALS AND/OR TECHNICAL INFORMATION AND/OR DESIGN DATA
 41
0.7976190476
 72
0
  0
TEXT
  8
LS-12V-90-W6S-28359
 62
3
  6
BYLAYER
 10
51.8687499228
 20
23.8749997732
  7
TEXTSTYLE_3
 40
0.6
  1
FURNISHED BY "DENGTEC" OR ITS AFFILIATES OR AGENTS. ALL SAID
 41
0.7674603175
 72
0
  0
TEXT
  8
LS-12V-90-W6S-28359
 62
3
  6
BYLAYER
 10
51.8687499228
 20
22.9749997732
  7
TEXTSTYLE_3
 40
0.6
  1
MATERIALS ARE SUBJECT TO RETURN UPON DEMAND.
 41
0.7857142857
 72
0
  0
TEXT
  8
LS-12V-90-W6S-28359
 62
3
  6
BYLAYER
 10
83.1687499228
 20
28.6249997732
  7
TEXTSTYLE_4
 40
1.0
  1
General Tolerance
 41
0.6932773109
 72
0
  0
TEXT
  8
LS-12V-90-W6S-28359
 62
3
  6
BYLAYER
 10
83.1687499228
 20
27.1249997732
  7
TEXTSTYLE_4
 40
1.0
  1
DIN ISO 2768
 41
0.7718253968
 72
0
  0
TEXT
  8
LS-12V-90-W6S-28359
 62
3
  6
BYLAYER
 10
83.1687499228
 20
25.6249997732
  7
TEXTSTYLE_4
 40
1.0
  1
Edges of workpieces
 41
0.7117794486
 72
0
  0
TEXT
  8
LS-12V-90-W6S-28359
 62
3
  6
BYLAYER
 10
83.1687499228
 20
24.1249997732
  7
TEXTSTYLE_4
 40
1.0
  1
DIN 6784
 41
0.7827380952
 72
0
  0
TEXT
  8
LS-12V-90-W6S-28359
 62
3
  6
BYLAYER
 10
98.5321427799
 20
28.2499997732
  7
TEXTSTYLE_5
 40
1.5
  1
Scale
 41
0.6714285714
 72
1
 11
101.0499999228
 21
28.2499997732
  0
TEXT
  8
LS-12V-90-W6S-28359
 62
3
  6
BYLAYER
 10
105.2687499228
 20
29.3124997732
  7
TEXTSTYLE_5
 40
1.25
  1
Drawing
 41
0.7448979592
 72
0
  0
TEXT
  8
LS-12V-90-W6S-28359
 62
3
  6
BYLAYER
 10
105.2687499228
 20
27.4374997732
  7
TEXTSTYLE_5
 40
1.25
  1
Type 
 41
0.7380952381
 72
0
  0
TEXT
  8
LS-12V-90-W6S-28359
 62
3
  6
BYLAYER
 10
115.2687499228
 20
27.9999997732
  7
TEXTSTYLE_5
 40
2.0
  1
ASSEM
 41
0.8
 72
0
  0
TEXT
  8
LS-12V-90-W6S-28359
 62
3
  6
BYLAYER
 10
123.2687499228
 20
27.9999997732
  7
TEXTSTYLE_5
 40
2.0
  1
 
 41
0.7857142857
 72
0
  0
TEXT
  8
LS-12V-90-W6S-28359
 62
3
  6
BYLAYER
 10
132.7687499228
 20
29.4874997732
  7
TEXTSTYLE_5
 40
1.15
  1
Weight 
 41
0.768707483
 72
0
  0
TEXT
  8
LS-12V-90-W6S-28359
 62
3
  6
BYLAYER
 10
137.5491070656
 20
27.3624997732
  7
TEXTSTYLE_5
 40
1.15
  1
0,000
 41
0.7428571429
 72
2
 11
141.820535637
 21
27.3624997732
  0
TEXT
  8
LS-12V-90-W6S-28359
 62
3
  6
BYLAYER
 10
141.820535637
 20
27.3624997732
  7
TEXTSTYLE_5
 40
1.15
  1
 KG
 41
0.7857142857
 72
2
 11
144.5312499228
 21
27.3624997732
  0
TEXT
  8
LS-12V-90-W6S-28359
 62
3
  6
BYLAYER
 10
98.264285637
 20
23.9999997732
  7
TEXTSTYLE_5
 40
1.5
  1
2,000
 41
0.7428571429
 72
1
 11
101.0499999228
 21
23.9999997732
  0
TEXT
  8
LS-12V-90-W6S-28359
 62
3
  6
BYLAYER
 10
105.2687499228
 20
25.2374997732
  7
TEXTSTYLE_5
 40
1.15
  1
Material:
 41
0.6216931217
 72
0
  0
TEXT
  8
LS-12V-90-W6S-28359
 62
3
  6
BYLAYER
 10
105.2687499228
 20
23.1124997732
  7
TEXTSTYLE_5
 40
1.15
  1
Color:
 41
0.626984127
 72
0
  0
TEXT
  8
LS-12V-90-W6S-28359
 62
3
  6
BYLAYER
 10
52.8982142085
 20
20.9874997732
  7
TEXTSTYLE_5
 40
1.15
  1
8
 41
0.7857142857
 72
1
 11
53.3499999228
 21
20.9874997732
  0
TEXT
  8
LS-12V-90-W6S-28359
 62
3
  6
BYLAYER
 10
81.6062499228
 20
6.8720235827
  7
TEXTSTYLE_2
 40
2.5
  1
CAD-A4
 50
90.0
 41
0.8253968254
 72
2
 11
81.6062499228
 21
19.2529759637
  0
TEXT
  8
LS-12V-90-W6S-28359
 62
3
  6
BYLAYER
 10
91.5833332561
 20
20.9874997732
  7
TEXTSTYLE_5
 40
1.15
  1
DATE
 41
0.8333333333
 72
1
 11
93.4999999228
 21
20.9874997732
  0
TEXT
  8
LS-12V-90-W6S-28359
 62
3
  6
BYLAYER
 10
99.201785637
 20
20.9874997732
  7
TEXTSTYLE_5
 40
1.15
  1
NAME
 41
0.8035714286
 72
1
 11
101.0499999228
 21
20.9874997732
  0
TEXT
  8
LS-12V-90-W6S-28359
 62
3
  6
BYLAYER
 10
105.2687499228
 20
20.9874997732
  7
TEXTSTYLE_5
 40
1.15
  1
Part Name:
 41
0.7
 72
0
  0
TEXT
  8
LS-12V-90-W6S-28359
 62
3
  6
BYLAYER
 10
52.8982142085
 20
18.8624997732
  7
TEXTSTYLE_5
 40
1.15
  1
7
 41
0.7857142857
 72
1
 11
53.3499999228
 21
18.8624997732
  0
TEXT
  8
LS-12V-90-W6S-28359
 62
3
  6
BYLAYER
 10
83.1687499228
 20
18.9124997732
  7
TEXTSTYLE_6
 40
1.05
  1
DESIGNER
 41
0.7648809524
 72
0
  0
TEXT
  8
LS-12V-90-W6S-28359
 62
3
  6
BYLAYER
 10
89.8857142085
 20
18.8874997732
  7
TEXTSTYLE_5
 40
1.1
  1
15-Aug-20
 41
0.7301587302
 72
1
 11
93.4999999228
 21
18.8874997732
  0
TEXT
  8
LS-12V-90-W6S-28359
 62
3
  6
BYLAYER
 10
97.2440475418
 20
18.8624997732
  7
TEXTSTYLE_5
 40
1.15
  1
David Cao
 41
0.7354497354
 72
1
 11
101.0499999228
 21
18.8624997732
  0
TEXT
  8
LS-12V-90-W6S-28359
 62
3
  6
BYLAYER
 10
110.9238094466
 20
17.3749997732
  7
TEXTSTYLE_5
 40
2.0
  1
LS-12V-90-W6S-2835
 41
0.7764550265
 72
1
 11
124.8999999228
 21
17.3749997732
  0
TEXT
  8
LS-12V-90-W6S-28359
 62
3
  6
BYLAYER
 10
52.8982142085
 20
16.7374997732
  7
TEXTSTYLE_5
 40
1.15
  1
6
 41
0.7857142857
 72
1
 11
53.3499999228
 21
16.7374997732
  0
TEXT
  8
LS-12V-90-W6S-28359
 62
3
  6
BYLAYER
 10
83.1687499228
 20
16.7874997732
  7
TEXTSTYLE_6
 40
1.05
  1
CHECKER
 41
0.7789115646
 72
0
  0
TEXT
  8
LS-12V-90-W6S-28359
 62
3
  6
BYLAYER
 10
52.939285637
 20
14.6124997732
  7
TEXTSTYLE_5
 40
1.15
  1
5
 41
0.7142857143
 72
1
 11
53.3499999228
 21
14.6124997732
  0
TEXT
  8
LS-12V-90-W6S-28359
 62
3
  6
BYLAYER
 10
83.1687499228
 20
14.6624997732
  7
TEXTSTYLE_6
 40
1.05
  1
APPROVER
 41
0.7916666667
 72
0
  0
TEXT
  8
LS-12V-90-W6S-28359
 62
3
  6
BYLAYER
 10
105.2687499228
 20
14.6124997732
  7
TEXTSTYLE_5
 40
1.15
  1
Drawing Number:
 41
0.7238095238
 72
0
  0
TEXT
  8
LS-12V-90-W6S-28359
 62
3
  6
BYLAYER
 10
138.7687499228
 20
14.6124997732
  7
TEXTSTYLE_5
 40
1.15
  1
Rev:
 41
0.6428571429
 72
0
  0
TEXT
  8
LS-12V-90-W6S-28359
 62
3
  6
BYLAYER
 10
52.8982142085
 20
12.4874997732
  7
TEXTSTYLE_5
 40
1.15
  1
4
 41
0.7857142857
 72
1
 11
53.3499999228
 21
12.4874997732
  0
TEXT
  8
LS-12V-90-W6S-28359
 62
3
  6
BYLAYER
 10
109.9785713513
 20
12.3124997732
  7
TEXTSTYLE_5
 40
1.5
  1
ls-12v-60-w8-2835.asm
 41
0.7346938776
 72
1
 11
121.5499999228
 21
12.3124997732
  0
TEXT
  8
LS-12V-90-W6S-28359
 62
3
  6
BYLAYER
 10
142.2860118275
 20
12.4874997732
  7
TEXTSTYLE_8
 40
1.15
  1
A
 41
1.0
 72
2
 11
143.6276784942
 21
12.4874997732
  0
TEXT
  8
LS-12V-90-W6S-28359
 62
3
  6
BYLAYER
 10
143.6276784942
 20
12.4874997732
  7
TEXTSTYLE_5
 40
1.15
  1
0
 41
0.7857142857
 72
2
 11
144.5312499228
 21
12.4874997732
  0
TEXT
  8
LS-12V-90-W6S-28359
 62
3
  6
BYLAYER
 10
52.939285637
 20
10.3624997732
  7
TEXTSTYLE_5
 40
1.15
  1
3
 41
0.7142857143
 72
1
 11
53.3499999228
 21
10.3624997732
  0
TEXT
  8
LS-12V-90-W6S-28359
 62
3
  6
BYLAYER
 10
105.2687499228
 20
10.3624997732
  7
TEXTSTYLE_5
 40
1.15
  1
Part Number / CSG:
 41
0.7275132275
 72
0
  0
TEXT
  8
LS-12V-90-W6S-28359
 62
3
  6
BYLAYER
 10
138.7687499228
 20
10.3624997732
  7
TEXTSTYLE_5
 40
1.15
  1
Sheet:
 41
0.6428571429
 72
0
  0
TEXT
  8
LS-12V-90-W6S-28359
 62
3
  6
BYLAYER
 10
52.8982142085
 20
8.2374997732
  7
TEXTSTYLE_5
 40
1.15
  1
2
 41
0.7857142857
 72
1
 11
53.3499999228
 21
8.2374997732
  0
TEXT
  8
LS-12V-90-W6S-28359
 62
3
  6
BYLAYER
 10
141.2928570656
 20
8.1874997732
  7
TEXTSTYLE_5
 40
1.25
  1
1
 41
0.5714285714
 72
1
 11
141.6499999228
 21
8.1874997732
  0
TEXT
  8
LS-12V-90-W6S-28359
 62
3
  6
BYLAYER
 10
53.0214284942
 20
6.1124997732
  7
TEXTSTYLE_5
 40
1.15
  1
1
 41
0.5714285714
 72
1
 11
53.3499999228
 21
6.1124997732
  0
TEXT
  8
LS-12V-90-W6S-28359
 62
3
  6
BYLAYER
 10
105.2687499228
 20
6.1124997732
  7
TEXTSTYLE_5
 40
1.15
  1
Project Number:
 41
0.680952381
 72
0
  0
TEXT
  8
LS-12V-90-W6S-28359
 62
3
  6
BYLAYER
 10
140.7874999228
 20
6.1124997732
  7
TEXTSTYLE_5
 40
1.15
  1
OF
 41
0.75
 72
1
 11
141.6499999228
 21
6.1124997732
  0
TEXT
  8
LS-12V-90-W6S-28359
 62
3
  6
BYLAYER
 10
52.1589284942
 20
3.9874997732
  7
TEXTSTYLE_5
 40
1.15
  1
No.
 41
0.6904761905
 72
1
 11
53.3499999228
 21
3.9874997732
  0
TEXT
  8
LS-12V-90-W6S-28359
 62
3
  6
BYLAYER
 10
58.1172618275
 20
3.9874997732
  7
TEXTSTYLE_5
 40
1.15
  1
CONTENTS
 41
0.8005952381
 72
1
 11
61.7999999228
 21
3.9874997732
  0
TEXT
  8
LS-12V-90-W6S-28359
 62
3
  6
BYLAYER
 10
69.6333332561
 20
3.9874997732
  7
TEXTSTYLE_5
 40
1.15
  1
DATE
 41
0.8333333333
 72
1
 11
71.5499999228
 21
3.9874997732
  0
TEXT
  8
LS-12V-90-W6S-28359
 62
3
  6
BYLAYER
 10
74.901785637
 20
3.9874997732
  7
TEXTSTYLE_5
 40
1.15
  1
NAME
 41
0.8035714286
 72
1
 11
76.7499999228
 21
3.9874997732
  0
TEXT
  8
LS-12V-90-W6S-28359
 62
3
  6
BYLAYER
 10
141.2928570656
 20
3.9374997732
  7
TEXTSTYLE_5
 40
1.25
  1
1
 41
0.5714285714
 72
1
 11
141.6499999228
 21
3.9374997732
  0
LINE
  8
LS-12V-90-W6S-28359
 62
7
  6
BYLAYER
 10
3.5000001517
 20
3.4999997732
 11
3.5000001517
 21
101.500000091
  0
LINE
  8
LS-12V-90-W6S-28359
 62
7
  6
BYLAYER
 10
6.0000001517
 20
5.9999997732
 11
6.0000001517
 21
99.000000091
  0
LINE
  8
LS-12V-90-W6S-28359
 62
7
  6
BYLAYER
 10
28.0833334553
 20
5.9999997732
 11
28.0833334553
 21
3.4999997732
  0
LINE
  8
LS-12V-90-W6S-28359
 62
7
  6
BYLAYER
 10
28.083333218
 20
99.000000091
 11
28.083333218
 21
101.500000091
  0
LINE
  8
LS-12V-90-W6S-28359
 62
7
  6
BYLAYER
 10
3.5000001517
 20
3.4999997732
 11
144.9999999228
 21
3.4999997732
  0
LINE
  8
LS-12V-90-W6S-28359
 62
7
  6
BYLAYER
 10
6.0000001517
 20
5.9999997732
 11
51.3999999228
 21
5.9999997732
  0
LINE
  8
LS-12V-90-W6S-28359
 62
3
  6
BYLAYER
 10
139.7483438918
 20
25.5306031055
 11
142.2483438918
 21
26.1556031055
  0
LINE
  8
LS-12V-90-W6S-28359
 62
3
  6
BYLAYER
 10
142.6509996526
 20
24.8882054838
 11
139.3253784253
 21
24.8882054838
  0
LINE
  8
LS-12V-90-W6S-28359
 62
3
  6
BYLAYER
 10
137.1082976071
 20
24.8882054838
 11
133.681899979
 21
24.8882054838
  0
LINE
  8
LS-12V-90-W6S-28359
 62
7
  6
BYLAYER
 10
51.1666667887
 20
5.9999997732
 11
51.1666667887
 21
3.4999997732
  0
LINE
  8
LS-12V-90-W6S-28359
 62
7
  6
BYLAYER
 10
51.1666665513
 20
99.000000091
 11
51.1666665513
 21
101.500000091
  0
LINE
  8
LS-12V-90-W6S-28359
 62
7
  6
BYLAYER
 10
6.0000001517
 20
28.7500001573
 11
3.5000001517
 21
28.7500001573
  0
LINE
  8
LS-12V-90-W6S-28359
 62
3
  6
BYLAYER
 10
139.7483438918
 20
24.2806031055
 11
142.2483438918
 21
23.6556031055
  0
LINE
  8
LS-12V-90-W6S-28359
 62
7
  6
BYLAYER
 10
74.2499998847
 20
99.000000091
 11
74.2499998847
 21
101.500000091
  0
LINE
  8
LS-12V-90-W6S-28359
 62
7
  6
BYLAYER
 10
142.4999999228
 20
52.4999998883
 11
144.9999999228
 21
52.4999998883
  0
LINE
  8
LS-12V-90-W6S-28359
 62
7
  6
BYLAYER
 10
6.0000001517
 20
52.5000001573
 11
3.5000001517
 21
52.5000001573
  0
LINE
  8
LS-12V-90-W6S-28359
 62
7
  6
BYLAYER
 10
97.3333332527
 20
101.5000000697
 11
97.3333332527
 21
99.0000000697
  0
LINE
  8
LS-12V-90-W6S-28359
 62
7
  6
BYLAYER
 10
6.0000001517
 20
76.2500001573
 11
3.5000001517
 21
76.2500001573
  0
LINE
  8
LS-12V-90-W6S-28359
 62
7
  6
BYLAYER
 10
142.4999999228
 20
76.2499998883
 11
144.9999999228
 21
76.2499998883
  0
LINE
  8
LS-12V-90-W6S-28359
 62
7
  6
BYLAYER
 10
120.4166665513
 20
99.000000091
 11
120.4166665513
 21
101.500000091
  0
LINE
  8
LS-12V-90-W6S-28359
 62
7
  6
BYLAYER
 10
6.0000001517
 20
99.000000091
 11
142.4999999228
 21
99.000000091
  0
LINE
  8
LS-12V-90-W6S-28359
 62
7
  6
BYLAYER
 10
3.5000001517
 20
101.500000091
 11
144.9999999228
 21
101.500000091
  0
LINE
  8
LS-12V-90-W6S-28359
 62
3
  6
BYLAYER
 10
135.3575501584
 20
23.2063112243
 11
135.349656007
 21
26.4902782059
  0
LINE
  8
LS-12V-90-W6S-28359
 62
3
  6
BYLAYER
 10
139.7483438918
 20
25.5306031055
 11
139.7483438918
 21
24.2806031055
  0
LINE
  8
LS-12V-90-W6S-28359
 62
3
  6
BYLAYER
 10
142.2483438918
 20
26.1556031055
 11
142.2483438918
 21
23.6556031055
  0
LINE
  8
LS-12V-90-W6S-28359
 62
7
  6
BYLAYER
 10
142.4999999228
 20
31.1249997732
 11
142.4999999228
 21
99.000000091
  0
LINE
  8
LS-12V-90-W6S-28359
 62
7
  6
BYLAYER
 10
144.9999999228
 20
3.4999997732
 11
144.9999999228
 21
101.500000091
  0
LINE
  8
LS-12V-90-W6S-2835_PLATE2
 62
7
  6
BYLAYER
 10
53.1635864207
 20
58.6544730506
 11
53.1635864207
 21
57.6544730506
  0
LINE
  8
LS-12V-90-W6S-2835_PADS2
 62
7
  6
BYLAYER
 10
53.1635864207
 20
57.6544730506
 11
53.1635864207
 21
56.0544730506
  0
LINE
  8
LS-12V-90-W6S-2835_PLATE2
 62
7
  6
BYLAYER
 10
53.1635864207
 20
56.0544730506
 11
53.1635864207
 21
55.2544730506
  0
LINE
  8
LS-12V-90-W6S-2835_PADS2
 62
7
  6
BYLAYER
 10
53.1635864207
 20
55.2544730506
 11
53.1635864207
 21
53.6544730506
  0
LINE
  8
LS-12V-90-W6S-2835_PLATE2
 62
7
  6
BYLAYER
 10
53.1635864207
 20
53.6544730506
 11
53.1635864207
 21
52.6544730506
  0
LINE
  8
LS-12V-90-W6S-2835_PLATE2
 62
7
  6
BYLAYER
 10
55.0635864207
 20
57.6544730506
 11
55.0635864207
 21
57.2544730506
  0
LINE
  8
LED_CHIP_2835_BASE2
 62
7
  6
BYLAYER
 10
56.4435864207
 20
57.3044730506
 11
56.4435864207
 21
54.0044730506
  0
LINE
  8
LED_CHIP_2835_BASE2
 62
7
  6
BYLAYER
 10
56.4540607894
 20
54.0149474192
 11
56.4540607894
 21
54.393998682
  0
LINE
  8
LED_CHIP_2835_BASE2
 62
7
  6
BYLAYER
 10
56.4566793815
 20
57.2913800898
 11
56.4566793815
 21
54.3913800898
  0
LINE
  8
LS-12V-90-W6S-2835_PLATE2
 62
7
  6
BYLAYER
 10
55.0997708483
 20
53.6880312708
 11
54.9630715033
 21
53.3124529073
  0
LINE
  8
LS-12V-90-W6S-2835_PLATE2
 62
7
  6
BYLAYER
 10
56.3641013382
 20
53.3124529073
 11
56.2274019932
 21
53.6880312708
  0
LINE
  8
LED_CHIP_2835_BASE2
 62
7
  6
BYLAYER
 10
56.5935864207
 20
56.9276873363
 11
56.5935864207
 21
54.3812587649
  0
LINE
  8
LED_CHIP_2835_SLICONE2
 62
7
  6
BYLAYER
 10
56.6075547285
 20
56.9276873363
 11
56.6075547285
 21
54.3812587649
  0
LINE
  8
LED_CHIP_2835_BASE2
 62
7
  6
BYLAYER
 10
56.7935864207
 20
57.1276873363
 11
56.7935864207
 21
57.1137190285
  0
LINE
  8
LED_CHIP_2835_BASE2
 62
7
  6
BYLAYER
 10
56.7935864207
 20
54.1812587649
 11
56.7935864207
 21
54.1952270727
  0
LINE
  8
LED_CHIP_2835_BASE2
 62
7
  6
BYLAYER
 10
58.8935864207
 20
57.1276873363
 11
58.8935864207
 21
57.1137190285
  0
LINE
  8
LED_CHIP_2835_BASE2
 62
7
  6
BYLAYER
 10
58.8935864207
 20
54.1812587649
 11
58.8935864207
 21
54.1952270727
  0
LINE
  8
0
 62
7
  6
BYLAYER
 10
59.0585864207
 20
54.77671656
 11
59.0585864207
 21
54.7767525325
  0
LINE
  8
LED_CHIP_2835_SLICONE2
 62
7
  6
BYLAYER
 10
59.079618113
 20
54.3812587649
 11
59.079618113
 21
56.9276873363
  0
LINE
  8
LED_CHIP_2835_BASE2
 62
7
  6
BYLAYER
 10
59.0935864207
 20
54.3812587649
 11
59.0935864207
 21
56.9276873363
  0
LINE
  8
LED_CHIP_2835_BASE2
 62
7
  6
BYLAYER
 10
59.23049346
 20
54.0175660114
 11
59.23049346
 21
57.2913800898
  0
LINE
  8
LED_CHIP_2835_BASE2
 62
7
  6
BYLAYER
 10
59.2435864207
 20
54.0044730506
 11
59.2435864207
 21
57.3044730506
  0
LINE
  8
LED_CHIP_2835_ELETRODE_22
 62
7
  6
BYLAYER
 10
57.3635864207
 20
57.4044730506
 11
57.2635864207
 21
57.3044730506
  0
LINE
  8
LED_CHIP_2835_BASE2
 62
7
  6
BYLAYER
 10
56.8331120521
 20
54.0149474192
 11
56.4540607894
 21
54.393998682
  0
LINE
  8
LED_CHIP_2835_ELETRODE_12
 62
7
  6
BYLAYER
 10
57.2635864207
 20
54.0044730506
 11
57.3635864207
 21
53.9044730506
  0
LINE
  8
LED_CHIP_2835_BASE2
 62
7
  6
BYLAYER
 10
59.2435864207
 20
57.3044730506
 11
59.23049346
 21
57.2913800898
  0
LINE
  8
LED_CHIP_2835_BASE2
 62
7
  6
BYLAYER
 10
56.4435864207
 20
54.0044730506
 11
56.4540607894
 21
54.0149474192
  0
LINE
  8
LED_CHIP_2835_ELETRODE_12
 62
7
  6
BYLAYER
 10
58.3235864207
 20
53.9044730506
 11
58.4235864207
 21
54.0044730506
  0
LINE
  8
LED_CHIP_2835_BASE2
 62
7
  6
BYLAYER
 10
59.2435864207
 20
54.0044730506
 11
59.23049346
 21
54.0175660114
  0
LINE
  8
LED_CHIP_2835_BASE2
 62
7
  6
BYLAYER
 10
56.4435864207
 20
57.3044730506
 11
56.4566793815
 21
57.2913800898
  0
LINE
  8
LS-12V-90-W6S-2835_PLATE2
 62
7
  6
BYLAYER
 10
61.2592945426
 20
57.8281212283
 11
61.6287786677
 21
55.7326726266
  0
LINE
  8
LS-12V-90-W6S-2835_PLATE2
 62
7
  6
BYLAYER
 10
63.5983941738
 20
55.7326726266
 11
63.9678782989
 21
57.8281212283
  0
LINE
  8
LED_CHIP_2835_ELETRODE_22
 62
7
  6
BYLAYER
 10
58.4235864207
 20
57.3044730506
 11
58.3235864207
 21
57.4044730506
  0
POLYLINE
  8
RES_1206_032
 62
7
  6
BYLAYER
 66
1
 70
0
  0
VERTEX
  8
RES_1206_032
 62
7
  6
BYLAYER
 10
66.2183623931
 20
55.6886889166
  0
VERTEX
  8
RES_1206_032
 62
7
  6
BYLAYER
 10
66.2232831071
 20
55.6357065442
  0
VERTEX
  8
RES_1206_032
 62
7
  6
BYLAYER
 10
66.2371603241
 20
55.5899619791
  0
VERTEX
  8
RES_1206_032
 62
7
  6
BYLAYER
 10
66.2588955972
 20
55.5505369929
  0
VERTEX
  8
RES_1206_032
 62
7
  6
BYLAYER
 10
66.2891045282
 20
55.5152740474
  0
VERTEX
  8
RES_1206_032
 62
7
  6
BYLAYER
 10
66.3295748524
 20
55.4832042791
  0
SEQEND
  0
LINE
  8
RES_1206_032
 62
7
  6
BYLAYER
 10
65.8085864207
 20
56.8544730506
 11
65.8085864207
 21
54.4544730506
  0
LINE
  8
RES_1206_012
 62
7
  6
BYLAYER
 10
65.8085864207
 20
54.4544730562
 11
65.8085864207
 21
54.054253139
  0
LINE
  8
RES_1206_012
 62
7
  6
BYLAYER
 10
65.8085864207
 20
56.8542531334
 11
65.8085864207
 21
57.2544730506
  0
LINE
  8
RES_1206_032
 62
7
  6
BYLAYER
 10
66.2357418678
 20
56.3746359534
 11
66.2357418678
 21
56.2920833296
  0
LINE
  8
RES_1206_032
 62
7
  6
BYLAYER
 10
66.2357418678
 20
55.1439502901
 11
66.2357418678
 21
55.0613976902
  0
POLYLINE
  8
RES_1206_032
 62
7
  6
BYLAYER
 66
1
 70
0
  0
VERTEX
  8
RES_1206_032
 62
7
  6
BYLAYER
 10
66.3161220691
 20
55.6772836394
  0
VERTEX
  8
RES_1206_032
 62
7
  6
BYLAYER
 10
66.3189530569
 20
55.7077820583
  0
VERTEX
  8
RES_1206_032
 62
7
  6
BYLAYER
 10
66.3267243109
 20
55.7329240486
  0
VERTEX
  8
RES_1206_032
 62
7
  6
BYLAYER
 10
66.3386253221
 20
55.7536981132
  0
VERTEX
  8
RES_1206_032
 62
7
  6
BYLAYER
 10
66.35472569
 20
55.7713681866
  0
VERTEX
  8
RES_1206_032
 62
7
  6
BYLAYER
 10
66.3750549425
 20
55.7861614168
  0
VERTEX
  8
RES_1206_032
 62
7
  6
BYLAYER
 10
66.4005949607
 20
55.7985263204
  0
VERTEX
  8
RES_1206_032
 62
7
  6
BYLAYER
 10
66.4318043372
 20
55.8081729597
  0
SEQEND
  0
POLYLINE
  8
RES_1206_032
 62
7
  6
BYLAYER
 66
1
 70
0
  0
VERTEX
  8
RES_1206_032
 62
7
  6
BYLAYER
 10
66.241172976
 20
55.7978539269
  0
VERTEX
  8
RES_1206_032
 62
7
  6
BYLAYER
 10
66.2289415405
 20
55.7662175518
  0
VERTEX
  8
RES_1206_032
 62
7
  6
BYLAYER
 10
66.2211313261
 20
55.7300519411
  0
VERTEX
  8
RES_1206_032
 62
7
  6
BYLAYER
 10
66.2183623931
 20
55.6886889166
  0
SEQEND
  0
POLYLINE
  8
RES_1206_032
 62
7
  6
BYLAYER
 66
1
 70
0
  0
VERTEX
  8
RES_1206_032
 62
7
  6
BYLAYER
 10
66.5056672237
 20
55.6876026816
  0
VERTEX
  8
RES_1206_032
 62
7
  6
BYLAYER
 10
66.5094280313
 20
55.6430913939
  0
VERTEX
  8
RES_1206_032
 62
7
  6
BYLAYER
 10
66.5202633888
 20
55.6029012952
  0
VERTEX
  8
RES_1206_032
 62
7
  6
BYLAYER
 10
66.5376282268
 20
55.5666087517
  0
VERTEX
  8
RES_1206_032
 62
7
  6
BYLAYER
 10
66.5619931679
 20
55.5328519572
  0
VERTEX
  8
RES_1206_032
 62
7
  6
BYLAYER
 10
66.5947371146
 20
55.5007731146
  0
SEQEND
  0
POLYLINE
  8
RES_1206_032
 62
7
  6
BYLAYER
 66
1
 70
0
  0
VERTEX
  8
RES_1206_032
 62
7
  6
BYLAYER
 10
67.0254228092
 20
55.6751111693
  0
VERTEX
  8
RES_1206_032
 62
7
  6
BYLAYER
 10
67.0217503476
 20
55.7239347138
  0
VERTEX
  8
RES_1206_032
 62
7
  6
BYLAYER
 10
67.0114243516
 20
55.7660225864
  0
VERTEX
  8
RES_1206_032
 62
7
  6
BYLAYER
 10
66.9955031308
 20
55.8019149545
  0
VERTEX
  8
RES_1206_032
 62
7
  6
BYLAYER
 10
66.97430939
 20
55.8330941842
  0
VERTEX
  8
RES_1206_032
 62
7
  6
BYLAYER
 10
66.9472150698
 20
55.8608545958
  0
SEQEND
  0
LINE
  8
RES_1206_032
 62
7
  6
BYLAYER
 10
66.4318043372
 20
55.8081729597
 11
66.4318043372
 21
55.9140792555
  0
LINE
  8
RES_1206_032
 62
7
  6
BYLAYER
 10
66.4595029018
 20
54.8544730491
 11
66.4595029018
 21
55.0380439944
  0
LINE
  8
RES_1206_032
 62
7
  6
BYLAYER
 10
66.4595029018
 20
56.0851587004
 11
66.4595029018
 21
56.2687296576
  0
LINE
  8
RES_1206_032
 62
7
  6
BYLAYER
 10
67.0085864207
 20
55.0380439944
 11
67.0085864207
 21
55.1439502901
  0
LINE
  8
RES_1206_032
 62
7
  6
BYLAYER
 10
67.0085864207
 20
56.2687296576
 11
67.0085864207
 21
56.3746359534
  0
LINE
  8
RES_1206_032
 62
7
  6
BYLAYER
 10
67.4085864207
 20
56.8544730506
 11
67.4085864207
 21
54.4544730506
  0
LINE
  8
RES_1206_012
 62
7
  6
BYLAYER
 10
67.4085864207
 20
54.4544730562
 11
67.4085864207
 21
54.054253139
  0
LINE
  8
RES_1206_012
 62
7
  6
BYLAYER
 10
67.4085864207
 20
56.8542531334
 11
67.4085864207
 21
57.2544730506
  0
POLYLINE
  8
RES_1206_032
 62
7
  6
BYLAYER
 66
1
 70
0
  0
VERTEX
  8
RES_1206_032
 62
7
  6
BYLAYER
 10
66.9276631376
 20
55.6707663245
  0
VERTEX
  8
RES_1206_032
 62
7
  6
BYLAYER
 10
66.9243056232
 20
55.6353826039
  0
VERTEX
  8
RES_1206_032
 62
7
  6
BYLAYER
 10
66.9150070308
 20
55.6056660632
  0
VERTEX
  8
RES_1206_032
 62
7
  6
BYLAYER
 10
66.9005475175
 20
55.5805132574
  0
VERTEX
  8
RES_1206_032
 62
7
  6
BYLAYER
 10
66.8804126402
 20
55.5583427006
  0
SEQEND
  0
POLYLINE
  8
RES_1206_032
 62
7
  6
BYLAYER
 66
1
 70
0
  0
VERTEX
  8
RES_1206_032
 62
7
  6
BYLAYER
 10
66.6034268996
 20
55.6734819121
  0
VERTEX
  8
RES_1206_032
 62
7
  6
BYLAYER
 10
66.606575462
 20
55.7065507776
  0
VERTEX
  8
RES_1206_032
 62
7
  6
BYLAYER
 10
66.6153087537
 20
55.7347475991
  0
VERTEX
  8
RES_1206_032
 62
7
  6
BYLAYER
 10
66.6289684604
 20
55.7590622222
  0
VERTEX
  8
RES_1206_032
 62
7
  6
BYLAYER
 10
66.6480883405
 20
55.7808817653
  0
SEQEND
  0
POLYLINE
  8
RES_1206_032
 62
7
  6
BYLAYER
 66
1
 70
0
  0
VERTEX
  8
RES_1206_032
 62
7
  6
BYLAYER
 10
66.5747780255
 20
55.8623442819
  0
VERTEX
  8
RES_1206_032
 62
7
  6
BYLAYER
 10
66.5501419966
 20
55.8342235493
  0
VERTEX
  8
RES_1206_032
 62
7
  6
BYLAYER
 10
66.5311337824
 20
55.8033553504
  0
VERTEX
  8
RES_1206_032
 62
7
  6
BYLAYER
 10
66.5174085457
 20
55.7694510736
  0
VERTEX
  8
RES_1206_032
 62
7
  6
BYLAYER
 10
66.5087427279
 20
55.7312087882
  0
VERTEX
  8
RES_1206_032
 62
7
  6
BYLAYER
 10
66.5056672237
 20
55.6876026816
  0
SEQEND
  0
LINE
  8
LED_CHIP_2835_ELETRODE_22
 62
7
  6
BYLAYER
 10
68.4735864207
 20
57.4044730506
 11
68.3735864207
 21
57.3044730506
  0
POLYLINE
  8
RES_1206_032
 62
7
  6
BYLAYER
 66
1
 70
0
  0
VERTEX
  8
RES_1206_032
 62
7
  6
BYLAYER
 10
66.307017495
 20
55.8747939459
  0
VERTEX
  8
RES_1206_032
 62
7
  6
BYLAYER
 10
66.2799148271
 20
55.852205936
  0
VERTEX
  8
RES_1206_032
 62
7
  6
BYLAYER
 10
66.2582420916
 20
55.8267392007
  0
VERTEX
  8
RES_1206_032
 62
7
  6
BYLAYER
 10
66.241172976
 20
55.7978539269
  0
SEQEND
  0
POLYLINE
  8
RES_1206_032
 62
7
  6
BYLAYER
 66
1
 70
0
  0
VERTEX
  8
RES_1206_032
 62
7
  6
BYLAYER
 10
66.6480883405
 20
55.7808817653
  0
VERTEX
  8
RES_1206_032
 62
7
  6
BYLAYER
 10
66.6714919666
 20
55.7989029258
  0
VERTEX
  8
RES_1206_032
 62
7
  6
BYLAYER
 10
66.6975840337
 20
55.8118310412
  0
VERTEX
  8
RES_1206_032
 62
7
  6
BYLAYER
 10
66.7271672747
 20
55.8199320725
  0
VERTEX
  8
RES_1206_032
 62
7
  6
BYLAYER
 10
66.7614716909
 20
55.8228369421
  0
SEQEND
  0
LINE
  8
LS-12V-90-W6S-2835_PLATE2
 62
7
  6
BYLAYER
 10
53.1635864207
 20
52.6544730506
 11
54.0233788825
 21
52.6544730506
  0
LINE
  8
LS-12V-90-W6S-2835_PLATE2
 62
7
  6
BYLAYER
 10
57.303793959
 20
52.6544730506
 11
58.2057611137
 21
52.6544730506
  0
LINE
  8
LS-12V-90-W6S-2835_PLATE2
 62
7
  6
BYLAYER
 10
67.0214117278
 20
52.6544730506
 11
72.1694867896
 21
52.6544730506
  0
LINE
  8
LS-12V-90-W6S-2835_PLATE2
 62
7
  6
BYLAYER
 10
76.8476860519
 20
52.6544730506
 11
80.9862361516
 21
52.6544730506
  0
LINE
  8
LS-12V-90-W6S-2835_PLATE2
 62
7
  6
BYLAYER
 10
85.1409366899
 20
52.6544730506
 11
86.4635864207
 21
52.6544730506
  0
POLYLINE
  8
RES_1206_032
 62
7
  6
BYLAYER
 66
1
 70
0
  0
VERTEX
  8
RES_1206_032
 62
7
  6
BYLAYER
 10
66.3427344196
 20
55.0011125669
  0
VERTEX
  8
RES_1206_032
 62
7
  6
BYLAYER
 10
66.35450782
 20
54.9804902736
  0
VERTEX
  8
RES_1206_032
 62
7
  6
BYLAYER
 10
66.3634467693
 20
54.9549524947
  0
VERTEX
  8
RES_1206_032
 62
7
  6
BYLAYER
 10
66.3700192955
 20
54.9252776002
  0
VERTEX
  8
RES_1206_032
 62
7
  6
BYLAYER
 10
66.374615034
 20
54.8917689522
  0
VERTEX
  8
RES_1206_032
 62
7
  6
BYLAYER
 10
66.3774933955
 20
54.8544730491
  0
SEQEND
  0
POLYLINE
  8
RES_1206_032
 62
7
  6
BYLAYER
 66
1
 70
0
  0
VERTEX
  8
RES_1206_032
 62
7
  6
BYLAYER
 10
66.3427344138
 20
56.2317982497
  0
VERTEX
  8
RES_1206_032
 62
7
  6
BYLAYER
 10
66.3545078177
 20
56.2111759477
  0
VERTEX
  8
RES_1206_032
 62
7
  6
BYLAYER
 10
66.36344677
 20
56.1856381618
  0
VERTEX
  8
RES_1206_032
 62
7
  6
BYLAYER
 10
66.3700192971
 20
56.1559632607
  0
VERTEX
  8
RES_1206_032
 62
7
  6
BYLAYER
 10
66.3746150351
 20
56.1224546073
  0
VERTEX
  8
RES_1206_032
 62
7
  6
BYLAYER
 10
66.3774933955
 20
56.0851587004
  0
SEQEND
  0
POLYLINE
  8
RES_1206_032
 62
7
  6
BYLAYER
 66
1
 70
0
  0
VERTEX
  8
RES_1206_032
 62
7
  6
BYLAYER
 10
66.3415210648
 20
55.6000730191
  0
VERTEX
  8
RES_1206_032
 62
7
  6
BYLAYER
 10
66.326963005
 20
55.625956358
  0
VERTEX
  8
RES_1206_032
 62
7
  6
BYLAYER
 10
66.3187683798
 20
55.6515865616
  0
VERTEX
  8
RES_1206_032
 62
7
  6
BYLAYER
 10
66.3161220691
 20
55.6772836394
  0
SEQEND
  0
LINE
  8
LED_CHIP_2835_BASE2
 62
7
  6
BYLAYER
 10
67.5535864207
 20
57.3044730506
 11
67.5535864207
 21
54.0044730506
  0
LINE
  8
LED_CHIP_2835_BASE2
 62
7
  6
BYLAYER
 10
67.5640607894
 20
54.0149474192
 11
67.5640607894
 21
54.393998682
  0
LINE
  8
LED_CHIP_2835_BASE2
 62
7
  6
BYLAYER
 10
67.5666793815
 20
57.2913800898
 11
67.5666793815
 21
54.3913800898
  0
LINE
  8
LED_CHIP_2835_BASE2
 62
7
  6
BYLAYER
 10
67.7035864207
 20
56.9276873363
 11
67.7035864207
 21
54.3812587649
  0
LINE
  8
LED_CHIP_2835_SLICONE2
 62
7
  6
BYLAYER
 10
67.7175547285
 20
56.9276873363
 11
67.7175547285
 21
54.3812587649
  0
LINE
  8
LED_CHIP_2835_BASE2
 62
7
  6
BYLAYER
 10
67.9035864207
 20
57.1276873363
 11
67.9035864207
 21
57.1137190285
  0
LINE
  8
LED_CHIP_2835_BASE2
 62
7
  6
BYLAYER
 10
67.9035864207
 20
54.1812587649
 11
67.9035864207
 21
54.1952270727
  0
LINE
  8
LED_CHIP_2835_BASE2
 62
7
  6
BYLAYER
 10
70.3535864207
 20
57.3044730506
 11
70.34049346
 21
57.2913800898
  0
POLYLINE
  8
RES_1206_032
 62
7
  6
BYLAYER
 66
1
 70
0
  0
VERTEX
  8
RES_1206_032
 62
7
  6
BYLAYER
 10
66.9298355825
 20
55.4790487327
  0
VERTEX
  8
RES_1206_032
 62
7
  6
BYLAYER
 10
66.9648136606
 20
55.5092207315
  0
VERTEX
  8
RES_1206_032
 62
7
  6
BYLAYER
 10
66.9911253746
 20
55.5431456829
  0
VERTEX
  8
RES_1206_032
 62
7
  6
BYLAYER
 10
67.0096604172
 20
55.5808544299
  0
VERTEX
  8
RES_1206_032
 62
7
  6
BYLAYER
 10
67.0212875229
 20
55.6242911269
  0
VERTEX
  8
RES_1206_032
 62
7
  6
BYLAYER
 10
67.0254228092
 20
55.6751111693
  0
SEQEND
  0
POLYLINE
  8
RES_1206_032
 62
7
  6
BYLAYER
 66
1
 70
0
  0
VERTEX
  8
RES_1206_032
 62
7
  6
BYLAYER
 10
66.8804126402
 20
55.5583427006
  0
VERTEX
  8
RES_1206_032
 62
7
  6
BYLAYER
 10
66.8559943996
 20
55.540276689
  0
VERTEX
  8
RES_1206_032
 62
7
  6
BYLAYER
 10
66.8289681153
 20
55.5274079356
  0
VERTEX
  8
RES_1206_032
 62
7
  6
BYLAYER
 10
66.7982510528
 20
55.5193761698
  0
VERTEX
  8
RES_1206_032
 62
7
  6
BYLAYER
 10
66.7625579021
 20
55.5165232844
  0
SEQEND
  0
LINE
  8
LS-12V-90-W6S-2835_PLATE2
 62
7
  6
BYLAYER
 10
86.4635864207
 20
53.6544730506
 11
85.6635864207
 21
53.6544730506
  0
LINE
  8
LS-12V-90-W6S-2835_PADS2
 62
7
  6
BYLAYER
 10
53.1635864207
 20
53.6544730506
 11
53.9635864207
 21
53.6544730506
  0
LINE
  8
LS-12V-90-W6S-2835_PLATE2
 62
7
  6
BYLAYER
 10
53.1635864207
 20
53.6544730506
 11
53.9635864207
 21
53.6544730506
  0
LINE
  8
LS-12V-90-W6S-2835_PADS2
 62
7
  6
BYLAYER
 10
85.6635864207
 20
53.6544730506
 11
86.4635864207
 21
53.6544730506
  0
LINE
  8
LS-12V-90-W6S-2835_PADS2
 62
7
  6
BYLAYER
 10
57.1435864207
 20
53.8044730506
 11
58.5435864207
 21
53.8044730506
  0
LINE
  8
LS-12V-90-W6S-2835_PLATE2
 62
7
  6
BYLAYER
 10
57.1435864207
 20
53.8044730506
 11
58.5435864207
 21
53.8044730506
  0
LINE
  8
LS-12V-90-W6S-2835_PADS2
 62
7
  6
BYLAYER
 10
68.2535864207
 20
53.8044730506
 11
69.6535864207
 21
53.8044730506
  0
LINE
  8
LS-12V-90-W6S-2835_PLATE2
 62
7
  6
BYLAYER
 10
68.2535864207
 20
53.8044730506
 11
69.6535864207
 21
53.8044730506
  0
LINE
  8
LS-12V-90-W6S-2835_PADS2
 62
7
  6
BYLAYER
 10
79.3635864207
 20
53.8044730506
 11
80.7635864207
 21
53.8044730506
  0
LINE
  8
LS-12V-90-W6S-2835_PLATE2
 62
7
  6
BYLAYER
 10
79.3635864207
 20
53.8044730506
 11
80.7635864207
 21
53.8044730506
  0
LINE
  8
LED_CHIP_2835_ELETRODE_12
 62
7
  6
BYLAYER
 10
80.5435864207
 20
53.9044730506
 11
79.5835864207
 21
53.9044730506
  0
LINE
  8
LED_CHIP_2835_ELETRODE_12
 62
7
  6
BYLAYER
 10
69.4335864207
 20
53.9044730506
 11
68.4735864207
 21
53.9044730506
  0
LINE
  8
LED_CHIP_2835_ELETRODE_12
 62
7
  6
BYLAYER
 10
58.3235864207
 20
53.9044730506
 11
57.3635864207
 21
53.9044730506
  0
POLYLINE
  8
RES_1206_032
 62
7
  6
BYLAYER
 66
1
 70
0
  0
VERTEX
  8
RES_1206_032
 62
7
  6
BYLAYER
 10
66.2357418678
 20
55.0613976902
  0
VERTEX
  8
RES_1206_032
 62
7
  6
BYLAYER
 10
66.2710254287
 20
55.049951759
  0
VERTEX
  8
RES_1206_032
 62
7
  6
BYLAYER
 10
66.3009533082
 20
55.0360199254
  0
VERTEX
  8
RES_1206_032
 62
7
  6
BYLAYER
 10
66.3250356506
 20
55.0195986138
  0
VERTEX
  8
RES_1206_032
 62
7
  6
BYLAYER
 10
66.3427344196
 20
55.0011125669
  0
SEQEND
  0
POLYLINE
  8
RES_1206_032
 62
7
  6
BYLAYER
 66
1
 70
0
  0
VERTEX
  8
RES_1206_032
 62
7
  6
BYLAYER
 10
66.3295748524
 20
55.4832042791
  0
VERTEX
  8
RES_1206_032
 62
7
  6
BYLAYER
 10
66.3765352852
 20
55.4576883937
  0
VERTEX
  8
RES_1206_032
 62
7
  6
BYLAYER
 10
66.4327209278
 20
55.4373263201
  0
VERTEX
  8
RES_1206_032
 62
7
  6
BYLAYER
 10
66.4982376072
 20
55.4225310152
  0
VERTEX
  8
RES_1206_032
 62
7
  6
BYLAYER
 10
66.572756536
 20
55.4135992114
  0
VERTEX
  8
RES_1206_032
 62
7
  6
BYLAYER
 10
66.6561084888
 20
55.4106169886
  0
SEQEND
  0
POLYLINE
  8
RES_1206_032
 62
7
  6
BYLAYER
 66
1
 70
0
  0
VERTEX
  8
RES_1206_032
 62
7
  6
BYLAYER
 10
66.413390844
 20
55.5410700016
  0
VERTEX
  8
RES_1206_032
 62
7
  6
BYLAYER
 10
66.3834427414
 20
55.5585722084
  0
VERTEX
  8
RES_1206_032
 62
7
  6
BYLAYER
 10
66.359737701
 20
55.5783625456
  0
VERTEX
  8
RES_1206_032
 62
7
  6
BYLAYER
 10
66.3415210648
 20
55.6000730191
  0
SEQEND
  0
LINE
  8
LED_CHIP_2835_BASE2
 62
7
  6
BYLAYER
 10
67.5640607894
 20
54.393998682
 11
67.9431120521
 21
54.0149474192
  0
LINE
  8
LED_CHIP_2835_ELETRODE_12
 62
7
  6
BYLAYER
 10
68.3735864207
 20
54.0044730506
 11
68.4735864207
 21
53.9044730506
  0
POLYLINE
  8
RES_1206_032
 62
7
  6
BYLAYER
 66
1
 70
0
  0
VERTEX
  8
RES_1206_032
 62
7
  6
BYLAYER
 10
66.8810775906
 20
55.7806097726
  0
VERTEX
  8
RES_1206_032
 62
7
  6
BYLAYER
 10
66.9016990407
 20
55.7576687456
  0
VERTEX
  8
RES_1206_032
 62
7
  6
BYLAYER
 10
66.9159091191
 20
55.7324876361
  0
VERTEX
  8
RES_1206_032
 62
7
  6
BYLAYER
 10
66.9245789173
 20
55.7040915787
  0
VERTEX
  8
RES_1206_032
 62
7
  6
BYLAYER
 10
66.9276631376
 20
55.6707663245
  0
SEQEND
  0
POLYLINE
  8
RES_1206_032
 62
7
  6
BYLAYER
 66
1
 70
0
  0
VERTEX
  8
RES_1206_032
 62
7
  6
BYLAYER
 10
66.6485049508
 20
55.5588858187
  0
VERTEX
  8
RES_1206_032
 62
7
  6
BYLAYER
 10
66.6290885204
 20
55.5815724062
  0
VERTEX
  8
RES_1206_032
 62
7
  6
BYLAYER
 10
66.6152368418
 20
55.6074672958
  0
VERTEX
  8
RES_1206_032
 62
7
  6
BYLAYER
 10
66.6065288756
 20
55.6377123313
  0
VERTEX
  8
RES_1206_032
 62
7
  6
BYLAYER
 10
66.6034268996
 20
55.6734819121
  0
SEQEND
  0
LINE
  8
LED_CHIP_2835_BASE2
 62
7
  6
BYLAYER
 10
67.5535864207
 20
54.0044730506
 11
67.5640607894
 21
54.0149474192
  0
LINE
  8
LED_CHIP_2835_ELETRODE_12
 62
7
  6
BYLAYER
 10
81.1135864207
 20
54.0044730506
 11
80.6435864207
 21
54.0044730506
  0
LINE
  8
LED_CHIP_2835_ELETRODE_12
 62
7
  6
BYLAYER
 10
79.4835864207
 20
54.0044730506
 11
79.0135864207
 21
54.0044730506
  0
LINE
  8
LED_CHIP_2835_ELETRODE_12
 62
7
  6
BYLAYER
 10
70.0035864207
 20
54.0044730506
 11
69.5335864207
 21
54.0044730506
  0
LINE
  8
LED_CHIP_2835_ELETRODE_12
 62
7
  6
BYLAYER
 10
68.3735864207
 20
54.0044730506
 11
67.9035864207
 21
54.0044730506
  0
LINE
  8
LED_CHIP_2835_ELETRODE_12
 62
7
  6
BYLAYER
 10
58.8935864207
 20
54.0044730506
 11
58.4235864207
 21
54.0044730506
  0
LINE
  8
LED_CHIP_2835_ELETRODE_12
 62
7
  6
BYLAYER
 10
57.2635864207
 20
54.0044730506
 11
56.7935864207
 21
54.0044730506
  0
LINE
  8
LED_CHIP_2835_BASE2
 62
7
  6
BYLAYER
 10
56.4435864207
 20
54.0044730506
 11
59.2435864207
 21
54.0044730506
  0
LINE
  8
LED_CHIP_2835_BASE2
 62
7
  6
BYLAYER
 10
67.5535864207
 20
54.0044730506
 11
70.3535864207
 21
54.0044730506
  0
LINE
  8
LED_CHIP_2835_BASE2
 62
7
  6
BYLAYER
 10
78.6635864207
 20
54.0044730506
 11
81.4635864207
 21
54.0044730506
  0
LINE
  8
LED_CHIP_2835_BASE2
 62
7
  6
BYLAYER
 10
56.4540607894
 20
54.0149474192
 11
56.8331120521
 21
54.0149474192
  0
LINE
  8
LED_CHIP_2835_BASE2
 62
7
  6
BYLAYER
 10
67.5640607894
 20
54.0149474192
 11
67.9431120521
 21
54.0149474192
  0
LINE
  8
LED_CHIP_2835_BASE2
 62
7
  6
BYLAYER
 10
78.6740607894
 20
54.0149474192
 11
79.0531120521
 21
54.0149474192
  0
LINE
  8
LED_CHIP_2835_BASE2
 62
7
  6
BYLAYER
 10
81.45049346
 20
54.0175660114
 11
79.05049346
 21
54.0175660114
  0
LINE
  8
LED_CHIP_2835_BASE2
 62
7
  6
BYLAYER
 10
70.34049346
 20
54.0175660114
 11
67.94049346
 21
54.0175660114
  0
LINE
  8
LED_CHIP_2835_BASE2
 62
7
  6
BYLAYER
 10
59.23049346
 20
54.0175660114
 11
56.83049346
 21
54.0175660114
  0
LINE
  8
RES_1206_012
 62
7
  6
BYLAYER
 10
67.4085864207
 20
54.054253139
 11
65.8085864207
 21
54.054253139
  0
LINE
  8
LED_CHIP_2835_BASE2
 62
7
  6
BYLAYER
 10
56.7935864207
 20
54.1812587649
 11
58.8935864207
 21
54.1812587649
  0
LINE
  8
LED_CHIP_2835_BASE2
 62
7
  6
BYLAYER
 10
67.9035864207
 20
54.1812587649
 11
70.0035864207
 21
54.1812587649
  0
LINE
  8
LED_CHIP_2835_BASE2
 62
7
  6
BYLAYER
 10
79.0135864207
 20
54.1812587649
 11
81.1135864207
 21
54.1812587649
  0
LINE
  8
LED_CHIP_2835_SLICONE2
 62
7
  6
BYLAYER
 10
56.7935864207
 20
54.1952270727
 11
58.8935864207
 21
54.1952270727
  0
LINE
  8
LED_CHIP_2835_SLICONE2
 62
7
  6
BYLAYER
 10
67.9035864207
 20
54.1952270727
 11
70.0035864207
 21
54.1952270727
  0
LINE
  8
LED_CHIP_2835_SLICONE2
 62
7
  6
BYLAYER
 10
79.0135864207
 20
54.1952270727
 11
81.1135864207
 21
54.1952270727
  0
LINE
  8
LED_CHIP_2835_BASE2
 62
7
  6
BYLAYER
 10
81.3135864207
 20
54.3812587649
 11
81.299618113
 21
54.3812587649
  0
LINE
  8
LED_CHIP_2835_BASE2
 62
7
  6
BYLAYER
 10
70.2035864207
 20
54.3812587649
 11
70.189618113
 21
54.3812587649
  0
LINE
  8
LED_CHIP_2835_BASE2
 62
7
  6
BYLAYER
 10
59.0935864207
 20
54.3812587649
 11
59.079618113
 21
54.3812587649
  0
LINE
  8
LED_CHIP_2835_BASE2
 62
7
  6
BYLAYER
 10
56.5935864207
 20
54.3812587649
 11
56.6075547285
 21
54.3812587649
  0
LINE
  8
LED_CHIP_2835_BASE2
 62
7
  6
BYLAYER
 10
67.7035864207
 20
54.3812587649
 11
67.7175547285
 21
54.3812587649
  0
LINE
  8
LED_CHIP_2835_BASE2
 62
7
  6
BYLAYER
 10
78.8135864207
 20
54.3812587649
 11
78.8275547285
 21
54.3812587649
  0
LINE
  8
RES_1206_012
 62
7
  6
BYLAYER
 10
67.4085864207
 20
54.4544730562
 11
65.8085864207
 21
54.4544730562
  0
LINE
  8
RES_1206_032
 62
7
  6
BYLAYER
 10
67.4085864207
 20
54.4544730506
 11
65.8085864207
 21
54.4544730506
  0
LINE
  8
RES_1206_032
 62
7
  6
BYLAYER
 10
66.3774933955
 20
54.8544730491
 11
66.4595029018
 21
54.8544730491
  0
LINE
  8
RES_1206_032
 62
7
  6
BYLAYER
 10
66.4595029018
 20
55.0380439944
 11
67.0085864207
 21
55.0380439944
  0
LINE
  8
RES_1206_032
 62
7
  6
BYLAYER
 10
67.0085864207
 20
55.1439502901
 11
66.2357418678
 21
55.1439502901
  0
POLYLINE
  8
RES_1206_032
 62
7
  6
BYLAYER
 66
1
 70
0
  0
VERTEX
  8
RES_1206_032
 62
7
  6
BYLAYER
 10
66.5947371146
 20
55.5007731146
  0
VERTEX
  8
RES_1206_032
 62
7
  6
BYLAYER
 10
66.5511647222
 20
55.5068385261
  0
VERTEX
  8
RES_1206_032
 62
7
  6
BYLAYER
 10
66.5112359544
 20
55.5135589593
  0
VERTEX
  8
RES_1206_032
 62
7
  6
BYLAYER
 10
66.4747857509
 20
55.5211652867
  0
VERTEX
  8
RES_1206_032
 62
7
  6
BYLAYER
 10
66.4419002407
 20
55.5300717068
  0
VERTEX
  8
RES_1206_032
 62
7
  6
BYLAYER
 10
66.413390844
 20
55.5410700016
  0
SEQEND
  0
POLYLINE
  8
RES_1206_032
 62
7
  6
BYLAYER
 66
1
 70
0
  0
VERTEX
  8
RES_1206_032
 62
7
  6
BYLAYER
 10
66.2357418678
 20
56.2920833296
  0
VERTEX
  8
RES_1206_032
 62
7
  6
BYLAYER
 10
66.2710254396
 20
56.2806374312
  0
VERTEX
  8
RES_1206_032
 62
7
  6
BYLAYER
 10
66.3009533188
 20
56.2667056085
  0
VERTEX
  8
RES_1206_032
 62
7
  6
BYLAYER
 10
66.3250356536
 20
56.2502842971
  0
VERTEX
  8
RES_1206_032
 62
7
  6
BYLAYER
 10
66.3427344138
 20
56.2317982497
  0
SEQEND
  0
POLYLINE
  8
RES_1206_032
 62
7
  6
BYLAYER
 66
1
 70
0
  0
VERTEX
  8
RES_1206_032
 62
7
  6
BYLAYER
 10
66.9472150698
 20
55.8608545958
  0
VERTEX
  8
RES_1206_032
 62
7
  6
BYLAYER
 10
66.9066786015
 20
55.8898261525
  0
VERTEX
  8
RES_1206_032
 62
7
  6
BYLAYER
 10
66.8615355444
 20
55.910707709
  0
VERTEX
  8
RES_1206_032
 62
7
  6
BYLAYER
 10
66.8098125399
 20
55.9239478566
  0
VERTEX
  8
RES_1206_032
 62
7
  6
BYLAYER
 10
66.7489801786
 20
55.9287432379
  0
SEQEND
  0
LINE
  8
LED_CHIP_2835_BASE2
 62
7
  6
BYLAYER
 10
70.3535864207
 20
54.0044730506
 11
70.34049346
 21
54.0175660114
  0
LINE
  8
LED_CHIP_2835_BASE2
 62
7
  6
BYLAYER
 10
67.5535864207
 20
57.3044730506
 11
67.5666793815
 21
57.2913800898
  0
LINE
  8
LED_CHIP_2835_BASE2
 62
7
  6
BYLAYER
 10
70.0035864207
 20
57.1276873363
 11
70.0035864207
 21
57.1137190285
  0
LINE
  8
LED_CHIP_2835_BASE2
 62
7
  6
BYLAYER
 10
70.0035864207
 20
54.1812587649
 11
70.0035864207
 21
54.1952270727
  0
LINE
  8
0
 62
7
  6
BYLAYER
 10
70.1685864207
 20
54.77671656
 11
70.1685864207
 21
54.7767525325
  0
LINE
  8
LED_CHIP_2835_SLICONE2
 62
7
  6
BYLAYER
 10
70.189618113
 20
54.3812587649
 11
70.189618113
 21
56.9276873363
  0
LINE
  8
LED_CHIP_2835_BASE2
 62
7
  6
BYLAYER
 10
70.2035864207
 20
54.3812587649
 11
70.2035864207
 21
56.9276873363
  0
LINE
  8
LED_CHIP_2835_BASE2
 62
7
  6
BYLAYER
 10
70.34049346
 20
54.0175660114
 11
70.34049346
 21
57.2913800898
  0
LINE
  8
LED_CHIP_2835_BASE2
 62
7
  6
BYLAYER
 10
70.3535864207
 20
54.0044730506
 11
70.3535864207
 21
57.3044730506
  0
LINE
  8
LED_CHIP_2835_ELETRODE_12
 62
7
  6
BYLAYER
 10
69.4335864207
 20
53.9044730506
 11
69.5335864207
 21
54.0044730506
  0
POLYLINE
  8
RES_1206_032
 62
7
  6
BYLAYER
 66
1
 70
0
  0
VERTEX
  8
RES_1206_032
 62
7
  6
BYLAYER
 10
66.4318043372
 20
55.9140792555
  0
VERTEX
  8
RES_1206_032
 62
7
  6
BYLAYER
 10
66.3940058666
 20
55.9081452859
  0
VERTEX
  8
RES_1206_032
 62
7
  6
BYLAYER
 10
66.3603868224
 20
55.899705749
  0
VERTEX
  8
RES_1206_032
 62
7
  6
BYLAYER
 10
66.3312265763
 20
55.888604775
  0
VERTEX
  8
RES_1206_032
 62
7
  6
BYLAYER
 10
66.307017495
 20
55.8747939459
  0
SEQEND
  0
POLYLINE
  8
RES_1206_032
 62
7
  6
BYLAYER
 66
1
 70
0
  0
VERTEX
  8
RES_1206_032
 62
7
  6
BYLAYER
 10
66.7489801786
 20
55.9287432379
  0
VERTEX
  8
RES_1206_032
 62
7
  6
BYLAYER
 10
66.6949750794
 20
55.923965374
  0
VERTEX
  8
RES_1206_032
 62
7
  6
BYLAYER
 10
66.6491502169
 20
55.9108007382
  0
VERTEX
  8
RES_1206_032
 62
7
  6
BYLAYER
 10
66.6098291861
 20
55.8904145606
  0
VERTEX
  8
RES_1206_032
 62
7
  6
BYLAYER
 10
66.5747780255
 20
55.8623442819
  0
SEQEND
  0
POLYLINE
  8
RES_1206_032
 62
7
  6
BYLAYER
 66
1
 70
0
  0
VERTEX
  8
RES_1206_032
 62
7
  6
BYLAYER
 10
66.6561084888
 20
55.4106169886
  0
VERTEX
  8
RES_1206_032
 62
7
  6
BYLAYER
 10
66.725866811
 20
55.4135249517
  0
VERTEX
  8
RES_1206_032
 62
7
  6
BYLAYER
 10
66.7883827945
 20
55.4221865282
  0
VERTEX
  8
RES_1206_032
 62
7
  6
BYLAYER
 10
66.8434513363
 20
55.4364044574
  0
VERTEX
  8
RES_1206_032
 62
7
  6
BYLAYER
 10
66.8906817569
 20
55.4556725263
  0
VERTEX
  8
RES_1206_032
 62
7
  6
BYLAYER
 10
66.9298355825
 20
55.4790487327
  0
SEQEND
  0
LINE
  8
LS-12V-90-W6S-2835_PADS2
 62
7
  6
BYLAYER
 10
86.4635864207
 20
55.2544730506
 11
85.6635864207
 21
55.2544730506
  0
LINE
  8
LS-12V-90-W6S-2835_PLATE2
 62
7
  6
BYLAYER
 10
86.4635864207
 20
55.2544730506
 11
85.6635864207
 21
55.2544730506
  0
LINE
  8
LS-12V-90-W6S-2835_PADS2
 62
7
  6
BYLAYER
 10
53.9635864207
 20
55.2544730506
 11
53.1635864207
 21
55.2544730506
  0
LINE
  8
LS-12V-90-W6S-2835_PLATE2
 62
7
  6
BYLAYER
 10
53.1635864207
 20
55.2544730506
 11
53.9635864207
 21
55.2544730506
  0
LINE
  8
LS-12V-90-W6S-2835_PLATE2
 62
7
  6
BYLAYER
 10
86.4635864207
 20
56.0544730506
 11
85.6635864207
 21
56.0544730506
  0
LINE
  8
LS-12V-90-W6S-2835_PADS2
 62
7
  6
BYLAYER
 10
53.1635864207
 20
56.0544730506
 11
53.9635864207
 21
56.0544730506
  0
LINE
  8
LS-12V-90-W6S-2835_PLATE2
 62
7
  6
BYLAYER
 10
53.1635864207
 20
56.0544730506
 11
53.9635864207
 21
56.0544730506
  0
LINE
  8
LS-12V-90-W6S-2835_PADS2
 62
7
  6
BYLAYER
 10
85.6635864207
 20
56.0544730506
 11
86.4635864207
 21
56.0544730506
  0
LINE
  8
RES_1206_032
 62
7
  6
BYLAYER
 10
66.3774933955
 20
56.0851587004
 11
66.4595029018
 21
56.0851587004
  0
LINE
  8
RES_1206_032
 62
7
  6
BYLAYER
 10
66.4595029018
 20
56.2687296576
 11
67.0085864207
 21
56.2687296576
  0
LINE
  8
RES_1206_032
 62
7
  6
BYLAYER
 10
67.0085864207
 20
56.3746359534
 11
66.2357418678
 21
56.3746359534
  0
POLYLINE
  8
RES_1206_032
 62
7
  6
BYLAYER
 66
1
 70
0
  0
VERTEX
  8
RES_1206_032
 62
7
  6
BYLAYER
 10
66.7614716909
 20
55.8228369421
  0
VERTEX
  8
RES_1206_032
 62
7
  6
BYLAYER
 10
66.7986169014
 20
55.8198273311
  0
VERTEX
  8
RES_1206_032
 62
7
  6
BYLAYER
 10
66.8303888175
 20
55.8113785599
  0
VERTEX
  8
RES_1206_032
 62
7
  6
BYLAYER
 10
66.8573777324
 20
55.7983263537
  0
VERTEX
  8
RES_1206_032
 62
7
  6
BYLAYER
 10
66.8810775906
 20
55.7806097726
  0
SEQEND
  0
POLYLINE
  8
RES_1206_032
 62
7
  6
BYLAYER
 66
1
 70
0
  0
VERTEX
  8
RES_1206_032
 62
7
  6
BYLAYER
 10
66.7625579021
 20
55.5165232844
  0
VERTEX
  8
RES_1206_032
 62
7
  6
BYLAYER
 10
66.7273276262
 20
55.519542366
  0
VERTEX
  8
RES_1206_032
 62
7
  6
BYLAYER
 10
66.6972361811
 20
55.5279446409
  0
VERTEX
  8
RES_1206_032
 62
7
  6
BYLAYER
 10
66.6714211955
 20
55.5409910217
  0
VERTEX
  8
RES_1206_032
 62
7
  6
BYLAYER
 10
66.6485049508
 20
55.5588858187
  0
SEQEND
  0
LINE
  8
RES_1206_012
 62
7
  6
BYLAYER
 10
65.8085864207
 20
56.8542531334
 11
67.4085864207
 21
56.8542531334
  0
LINE
  8
RES_1206_032
 62
7
  6
BYLAYER
 10
65.8085864207
 20
56.8544730506
 11
67.4085864207
 21
56.8544730506
  0
LINE
  8
LED_CHIP_2835_BASE2
 62
7
  6
BYLAYER
 10
81.3135864207
 20
56.9276873363
 11
81.299618113
 21
56.9276873363
  0
LINE
  8
LED_CHIP_2835_BASE2
 62
7
  6
BYLAYER
 10
70.2035864207
 20
56.9276873363
 11
70.189618113
 21
56.9276873363
  0
LINE
  8
LED_CHIP_2835_BASE2
 62
7
  6
BYLAYER
 10
59.0935864207
 20
56.9276873363
 11
59.079618113
 21
56.9276873363
  0
LINE
  8
LED_CHIP_2835_BASE2
 62
7
  6
BYLAYER
 10
56.5935864207
 20
56.9276873363
 11
56.6075547285
 21
56.9276873363
  0
LINE
  8
LED_CHIP_2835_BASE2
 62
7
  6
BYLAYER
 10
67.7035864207
 20
56.9276873363
 11
67.7175547285
 21
56.9276873363
  0
LINE
  8
LED_CHIP_2835_BASE2
 62
7
  6
BYLAYER
 10
78.8135864207
 20
56.9276873363
 11
78.8275547285
 21
56.9276873363
  0
LINE
  8
LED_CHIP_2835_SLICONE2
 62
7
  6
BYLAYER
 10
81.1135864207
 20
57.1137190285
 11
79.0135864207
 21
57.1137190285
  0
LINE
  8
LED_CHIP_2835_SLICONE2
 62
7
  6
BYLAYER
 10
70.0035864207
 20
57.1137190285
 11
67.9035864207
 21
57.1137190285
  0
LINE
  8
LED_CHIP_2835_SLICONE2
 62
7
  6
BYLAYER
 10
58.8935864207
 20
57.1137190285
 11
56.7935864207
 21
57.1137190285
  0
LINE
  8
LED_CHIP_2835_BASE2
 62
7
  6
BYLAYER
 10
81.1135864207
 20
57.1276873363
 11
79.0135864207
 21
57.1276873363
  0
LINE
  8
LED_CHIP_2835_BASE2
 62
7
  6
BYLAYER
 10
70.0035864207
 20
57.1276873363
 11
67.9035864207
 21
57.1276873363
  0
LINE
  8
LED_CHIP_2835_BASE2
 62
7
  6
BYLAYER
 10
58.8935864207
 20
57.1276873363
 11
56.7935864207
 21
57.1276873363
  0
LINE
  8
RES_1206_012
 62
7
  6
BYLAYER
 10
65.8085864207
 20
57.2544730506
 11
67.4085864207
 21
57.2544730506
  0
LINE
  8
LED_CHIP_2835_BASE2
 62
7
  6
BYLAYER
 10
56.4566793815
 20
57.2913800898
 11
59.23049346
 21
57.2913800898
  0
LINE
  8
LED_CHIP_2835_BASE2
 62
7
  6
BYLAYER
 10
67.5666793815
 20
57.2913800898
 11
70.34049346
 21
57.2913800898
  0
LINE
  8
LED_CHIP_2835_BASE2
 62
7
  6
BYLAYER
 10
78.6766793815
 20
57.2913800898
 11
81.45049346
 21
57.2913800898
  0
LINE
  8
LED_CHIP_2835_ELETRODE_22
 62
7
  6
BYLAYER
 10
56.7935864207
 20
57.3044730506
 11
57.2635864207
 21
57.3044730506
  0
LINE
  8
LED_CHIP_2835_ELETRODE_22
 62
7
  6
BYLAYER
 10
58.4235864207
 20
57.3044730506
 11
58.8935864207
 21
57.3044730506
  0
LINE
  8
LED_CHIP_2835_BASE2
 62
7
  6
BYLAYER
 10
56.4435864207
 20
57.3044730506
 11
59.2435864207
 21
57.3044730506
  0
LINE
  8
LED_CHIP_2835_ELETRODE_22
 62
7
  6
BYLAYER
 10
67.9035864207
 20
57.3044730506
 11
68.3735864207
 21
57.3044730506
  0
LINE
  8
LED_CHIP_2835_ELETRODE_22
 62
7
  6
BYLAYER
 10
69.5335864207
 20
57.3044730506
 11
70.0035864207
 21
57.3044730506
  0
LINE
  8
LED_CHIP_2835_BASE2
 62
7
  6
BYLAYER
 10
67.5535864207
 20
57.3044730506
 11
70.3535864207
 21
57.3044730506
  0
LINE
  8
LED_CHIP_2835_ELETRODE_22
 62
7
  6
BYLAYER
 10
79.0135864207
 20
57.3044730506
 11
79.4835864207
 21
57.3044730506
  0
LINE
  8
LED_CHIP_2835_ELETRODE_22
 62
7
  6
BYLAYER
 10
80.6435864207
 20
57.3044730506
 11
81.1135864207
 21
57.3044730506
  0
LINE
  8
LED_CHIP_2835_BASE2
 62
7
  6
BYLAYER
 10
78.6635864207
 20
57.3044730506
 11
81.4635864207
 21
57.3044730506
  0
LINE
  8
LED_CHIP_2835_ELETRODE_22
 62
7
  6
BYLAYER
 10
57.3635864207
 20
57.4044730506
 11
58.3235864207
 21
57.4044730506
  0
LINE
  8
LED_CHIP_2835_ELETRODE_22
 62
7
  6
BYLAYER
 10
68.4735864207
 20
57.4044730506
 11
69.4335864207
 21
57.4044730506
  0
LINE
  8
LED_CHIP_2835_ELETRODE_22
 62
7
  6
BYLAYER
 10
79.5835864207
 20
57.4044730506
 11
80.5435864207
 21
57.4044730506
  0
LINE
  8
LS-12V-90-W6S-2835_PADS2
 62
7
  6
BYLAYER
 10
80.7635864207
 20
57.5044730506
 11
79.3635864207
 21
57.5044730506
  0
LINE
  8
LS-12V-90-W6S-2835_PLATE2
 62
7
  6
BYLAYER
 10
80.7635864207
 20
57.5044730506
 11
79.3635864207
 21
57.5044730506
  0
LINE
  8
LS-12V-90-W6S-2835_PADS2
 62
7
  6
BYLAYER
 10
69.6535864207
 20
57.5044730506
 11
68.2535864207
 21
57.5044730506
  0
LINE
  8
LS-12V-90-W6S-2835_PLATE2
 62
7
  6
BYLAYER
 10
69.6535864207
 20
57.5044730506
 11
68.2535864207
 21
57.5044730506
  0
LINE
  8
LS-12V-90-W6S-2835_PADS2
 62
7
  6
BYLAYER
 10
58.5435864207
 20
57.5044730506
 11
57.1435864207
 21
57.5044730506
  0
LINE
  8
LS-12V-90-W6S-2835_PLATE2
 62
7
  6
BYLAYER
 10
58.5435864207
 20
57.5044730506
 11
57.1435864207
 21
57.5044730506
  0
LINE
  8
LED_CHIP_2835_ELETRODE_22
 62
7
  6
BYLAYER
 10
69.5335864207
 20
57.3044730506
 11
69.4335864207
 21
57.4044730506
  0
LINE
  8
LS-12V-90-W6S-2835_PLATE2
 62
7
  6
BYLAYER
 10
73.5237786677
 20
55.5762734745
 11
73.1542945426
 21
53.4808248729
  0
LINE
  8
LS-12V-90-W6S-2835_PADS2
 62
7
  6
BYLAYER
 10
86.4635864207
 20
57.6544730506
 11
85.6635864207
 21
57.6544730506
  0
LINE
  8
LS-12V-90-W6S-2835_PLATE2
 62
7
  6
BYLAYER
 10
86.4635864207
 20
57.6544730506
 11
85.6635864207
 21
57.6544730506
  0
LINE
  8
LS-12V-90-W6S-2835_PADS2
 62
7
  6
BYLAYER
 10
53.9635864207
 20
57.6544730506
 11
53.1635864207
 21
57.6544730506
  0
LINE
  8
LS-12V-90-W6S-2835_PLATE2
 62
7
  6
BYLAYER
 10
53.1635864207
 20
57.6544730506
 11
53.9635864207
 21
57.6544730506
  0
LINE
  8
LS-12V-90-W6S-2835_PLATE2
 62
7
  6
BYLAYER
 10
86.4635864207
 20
58.6544730506
 11
85.0824628869
 21
58.6544730506
  0
LINE
  8
LS-12V-90-W6S-2835_PLATE2
 62
7
  6
BYLAYER
 10
80.5635864207
 20
58.6544730506
 11
79.3181443003
 21
58.6544730506
  0
LINE
  8
LS-12V-90-W6S-2835_PLATE2
 62
7
  6
BYLAYER
 10
69.6990285412
 20
58.6544730506
 11
64.9526860519
 21
58.6544730506
  0
LINE
  8
LS-12V-90-W6S-2835_PLATE2
 62
7
  6
BYLAYER
 10
60.2744867896
 20
58.6544730506
 11
57.7164761401
 21
58.6544730506
  0
LINE
  8
LS-12V-90-W6S-2835_PLATE2
 62
7
  6
BYLAYER
 10
54.0635864207
 20
58.6544730506
 11
53.1635864207
 21
58.6544730506
  0
LINE
  8
LED_CHIP_2835_ELETRODE_22
 62
7
  6
BYLAYER
 10
79.5835864207
 20
57.4044730506
 11
79.4835864207
 21
57.3044730506
  0
LINE
  8
LED_CHIP_2835_BASE2
 62
7
  6
BYLAYER
 10
78.6740607894
 20
54.393998682
 11
79.0531120521
 21
54.0149474192
  0
LINE
  8
LED_CHIP_2835_ELETRODE_12
 62
7
  6
BYLAYER
 10
79.4835864207
 20
54.0044730506
 11
79.5835864207
 21
53.9044730506
  0
LINE
  8
LS-12V-90-W6S-2835_PLATE2
 62
7
  6
BYLAYER
 10
75.8628782989
 20
53.4808248729
 11
75.4933941738
 21
55.5762734745
  0
LINE
  8
LED_CHIP_2835_BASE2
 62
7
  6
BYLAYER
 10
81.4635864207
 20
57.3044730506
 11
81.45049346
 21
57.2913800898
  0
LINE
  8
LED_CHIP_2835_BASE2
 62
7
  6
BYLAYER
 10
78.6635864207
 20
54.0044730506
 11
78.6740607894
 21
54.0149474192
  0
LINE
  8
LED_CHIP_2835_ELETRODE_12
 62
7
  6
BYLAYER
 10
80.5435864207
 20
53.9044730506
 11
80.6435864207
 21
54.0044730506
  0
LINE
  8
LED_CHIP_2835_BASE2
 62
7
  6
BYLAYER
 10
81.4635864207
 20
54.0044730506
 11
81.45049346
 21
54.0175660114
  0
LINE
  8
LED_CHIP_2835_BASE2
 62
7
  6
BYLAYER
 10
78.6635864207
 20
57.3044730506
 11
78.6766793815
 21
57.2913800898
  0
LINE
  8
LED_CHIP_2835_BASE2
 62
7
  6
BYLAYER
 10
78.6635864207
 20
57.3044730506
 11
78.6635864207
 21
54.0044730506
  0
LINE
  8
LED_CHIP_2835_BASE2
 62
7
  6
BYLAYER
 10
78.6740607894
 20
54.0149474192
 11
78.6740607894
 21
54.393998682
  0
LINE
  8
LED_CHIP_2835_BASE2
 62
7
  6
BYLAYER
 10
78.6766793815
 20
57.2913800898
 11
78.6766793815
 21
54.3913800898
  0
LINE
  8
LED_CHIP_2835_BASE2
 62
7
  6
BYLAYER
 10
78.8135864207
 20
56.9276873363
 11
78.8135864207
 21
54.3812587649
  0
LINE
  8
LED_CHIP_2835_SLICONE2
 62
7
  6
BYLAYER
 10
78.8275547285
 20
56.9276873363
 11
78.8275547285
 21
54.3812587649
  0
LINE
  8
LED_CHIP_2835_BASE2
 62
7
  6
BYLAYER
 10
79.0135864207
 20
57.1276873363
 11
79.0135864207
 21
57.1137190285
  0
LINE
  8
LED_CHIP_2835_BASE2
 62
7
  6
BYLAYER
 10
79.0135864207
 20
54.1812587649
 11
79.0135864207
 21
54.1952270727
  0
LINE
  8
LED_CHIP_2835_ELETRODE_22
 62
7
  6
BYLAYER
 10
80.6435864207
 20
57.3044730506
 11
80.5435864207
 21
57.4044730506
  0
LINE
  8
LED_CHIP_2835_BASE2
 62
7
  6
BYLAYER
 10
81.1135864207
 20
57.1276873363
 11
81.1135864207
 21
57.1137190285
  0
LINE
  8
LED_CHIP_2835_BASE2
 62
7
  6
BYLAYER
 10
81.1135864207
 20
54.1812587649
 11
81.1135864207
 21
54.1952270727
  0
LINE
  8
0
 62
7
  6
BYLAYER
 10
81.2785864207
 20
54.77671656
 11
81.2785864207
 21
54.7767525325
  0
LINE
  8
LED_CHIP_2835_SLICONE2
 62
7
  6
BYLAYER
 10
81.299618113
 20
54.3812587649
 11
81.299618113
 21
56.9276873363
  0
LINE
  8
LED_CHIP_2835_BASE2
 62
7
  6
BYLAYER
 10
81.3135864207
 20
54.3812587649
 11
81.3135864207
 21
56.9276873363
  0
LINE
  8
LED_CHIP_2835_BASE2
 62
7
  6
BYLAYER
 10
81.45049346
 20
54.0175660114
 11
81.45049346
 21
57.2913800898
  0
LINE
  8
LED_CHIP_2835_BASE2
 62
7
  6
BYLAYER
 10
81.4635864207
 20
54.0044730506
 11
81.4635864207
 21
57.3044730506
  0
LINE
  8
LS-12V-90-W6S-2835_PLATE2
 62
7
  6
BYLAYER
 10
81.5635864207
 20
57.6544730506
 11
81.5635864207
 21
56.4544730506
  0
LINE
  8
LS-12V-90-W6S-2835_PLATE2
 62
7
  6
BYLAYER
 10
82.3707660977
 20
54.0525492619
 11
81.8522615553
 21
53.1544730506
  0
LINE
  8
LS-12V-90-W6S-2835_PLATE2
 62
7
  6
BYLAYER
 10
84.2749112862
 20
53.1544730506
 11
83.7564067438
 21
54.0525492619
  0
LINE
  8
LS-12V-90-W6S-2835_PLATE2
 62
7
  6
BYLAYER
 10
86.4635864207
 20
52.6544730506
 11
86.4635864207
 21
53.6544730506
  0
LINE
  8
LS-12V-90-W6S-2835_PADS2
 62
7
  6
BYLAYER
 10
86.4635864207
 20
53.6544730506
 11
86.4635864207
 21
55.2544730506
  0
LINE
  8
LS-12V-90-W6S-2835_PLATE2
 62
7
  6
BYLAYER
 10
86.4635864207
 20
55.2544730506
 11
86.4635864207
 21
56.0544730506
  0
LINE
  8
LS-12V-90-W6S-2835_PADS2
 62
7
  6
BYLAYER
 10
86.4635864207
 20
56.0544730506
 11
86.4635864207
 21
57.6544730506
  0
LINE
  8
LS-12V-90-W6S-2835_PLATE2
 62
7
  6
BYLAYER
 10
86.4635864207
 20
57.6544730506
 11
86.4635864207
 21
58.6544730506
  0
LINE
  8
LS-12V-90-W6S-2835_PLATE2
 62
7
  6
BYLAYER
 10
53.1635864207
 20
79.2734926936
 11
53.1635864207
 21
78.9734926936
  0
LINE
  8
LS-12V-90-W6S-2835_PLATE2
 62
7
  6
BYLAYER
 10
54.0233788825
 20
78.9734926936
 11
54.0233788825
 21
79.2734926936
  0
LINE
  8
LS-12V-90-W6S-2835_PLATE2
 62
7
  6
BYLAYER
 10
54.9630715033
 20
78.9734926936
 11
54.9630715033
 21
79.2734926936
  0
LINE
  8
LS-12V-90-W6S-2835_PLATE2
 62
7
  6
BYLAYER
 10
55.0997708483
 20
79.2734926936
 11
55.0997708483
 21
78.9734926936
  0
LINE
  8
LED_CHIP_2835_BASE2
 62
7
  6
BYLAYER
 10
56.4435864207
 20
79.4734926936
 11
56.4488236051
 21
79.2734926936
  0
LINE
  8
LS-12V-90-W6S-2835_PLATE2
 62
7
  6
BYLAYER
 10
56.2274019932
 20
79.2734926936
 11
56.2274019932
 21
78.9734926936
  0
LINE
  8
LS-12V-90-W6S-2835_PLATE2
 62
7
  6
BYLAYER
 10
56.3641013382
 20
79.2734926936
 11
56.3641013382
 21
78.9734926936
  0
LINE
  8
LED_CHIP_2835_BASE2
 62
7
  6
BYLAYER
 10
56.4435864207
 20
79.4734926936
 11
56.4566793815
 21
79.9734926936
  0
LINE
  8
LED_CHIP_2835_BASE2
 62
7
  6
BYLAYER
 10
56.83049346
 20
79.9734926936
 11
56.8331120521
 21
79.8734926936
  0
LINE
  8
LED_CHIP_2835_ELETRODE_12
 62
7
  6
BYLAYER
 10
56.7935864207
 20
79.4734926936
 11
56.7935864207
 21
79.2734926936
  0
LINE
  8
LED_CHIP_2835_ELETRODE_12
 62
7
  6
BYLAYER
 10
57.2635864207
 20
79.4734926936
 11
57.2635864207
 21
79.2734926936
  0
LINE
  8
LS-12V-90-W6S-2835_PLATE2
 62
7
  6
BYLAYER
 10
57.303793959
 20
79.2734926936
 11
57.303793959
 21
78.9734926936
  0
LINE
  8
LED_CHIP_2835_ELETRODE_12
 62
7
  6
BYLAYER
 10
57.3635864207
 20
79.2734926936
 11
57.3635864207
 21
79.4734926936
  0
LINE
  8
LS-12V-90-W6S-2835_PLATE2
 62
7
  6
BYLAYER
 10
58.2057611137
 20
78.9734926936
 11
58.2057611137
 21
79.2734926936
  0
LINE
  8
LED_CHIP_2835_ELETRODE_12
 62
7
  6
BYLAYER
 10
58.3235864207
 20
79.4734926936
 11
58.3235864207
 21
79.2734926936
  0
LINE
  8
LED_CHIP_2835_ELETRODE_12
 62
7
  6
BYLAYER
 10
58.4235864207
 20
79.4734926936
 11
58.4235864207
 21
79.2734926936
  0
LINE
  8
LED_CHIP_2835_BASE2
 62
7
  6
BYLAYER
 10
59.2435864207
 20
79.4734926936
 11
59.23049346
 21
79.9734926936
  0
LINE
  8
LED_CHIP_2835_ELETRODE_12
 62
7
  6
BYLAYER
 10
58.8935864207
 20
79.4734926936
 11
58.8935864207
 21
79.2734926936
  0
LINE
  8
0
 62
7
  6
BYLAYER
 10
59.0585864207
 20
80.8797741106
 11
59.0585864207
 21
80.8794677187
  0
LINE
  8
LS-12V-90-W6S-2835_PLATE2
 62
7
  6
BYLAYER
 10
59.0973025658
 20
78.9734926936
 11
59.0973025658
 21
79.2734926936
  0
LINE
  8
LS-12V-90-W6S-2835_PLATE2
 62
7
  6
BYLAYER
 10
59.7282597431
 20
79.2734926936
 11
59.7282597431
 21
78.9734926936
  0
LINE
  8
LED_CHIP_2835_BASE2
 62
7
  6
BYLAYER
 10
59.2383492364
 20
79.2734926936
 11
59.2435864207
 21
79.4734926936
  0
LINE
  8
LS-12V-90-W6S-2835_PLATE2
 62
7
  6
BYLAYER
 10
60.3635864207
 20
79.2734926936
 11
60.3635864207
 21
78.9734926936
  0
LINE
  8
LS-12V-90-W6S-2835_PLATE2
 62
7
  6
BYLAYER
 10
64.8635864207
 20
79.2734926936
 11
64.8635864207
 21
78.9734926936
  0
LINE
  8
LS-12V-90-W6S-2835_PLATE2
 62
7
  6
BYLAYER
 10
65.4989130984
 20
79.2734926936
 11
65.4989130984
 21
78.9734926936
  0
LINE
  8
RES_1206_012
 62
7
  6
BYLAYER
 10
65.8085864207
 20
79.8234926936
 11
65.8085864207
 21
79.2734926936
  0
LINE
  8
LS-12V-90-W6S-2835_PLATE2
 62
7
  6
BYLAYER
 10
66.1298702757
 20
79.2734926936
 11
66.1298702757
 21
78.9734926936
  0
LINE
  8
LED_CHIP_2835_BASE2
 62
7
  6
BYLAYER
 10
67.5535864207
 20
79.4734926936
 11
67.5588236051
 21
79.2734926936
  0
LINE
  8
LS-12V-90-W6S-2835_PLATE2
 62
7
  6
BYLAYER
 10
67.0214117278
 20
79.2734926936
 11
67.0214117278
 21
78.9734926936
  0
LINE
  8
RES_1206_012
 62
7
  6
BYLAYER
 10
67.4085864207
 20
79.8234926936
 11
67.4085864207
 21
79.2734926936
  0
LINE
  8
LED_CHIP_2835_BASE2
 62
7
  6
BYLAYER
 10
67.5535864207
 20
79.4734926936
 11
67.5666793815
 21
79.9734926936
  0
LINE
  8
LED_CHIP_2835_BASE2
 62
7
  6
BYLAYER
 10
67.94049346
 20
79.9734926936
 11
67.9431120521
 21
79.8734926936
  0
LINE
  8
LED_CHIP_2835_ELETRODE_12
 62
7
  6
BYLAYER
 10
67.9035864207
 20
79.4734926936
 11
67.9035864207
 21
79.2734926936
  0
LINE
  8
LED_CHIP_2835_ELETRODE_12
 62
7
  6
BYLAYER
 10
68.3735864207
 20
79.4734926936
 11
68.3735864207
 21
79.2734926936
  0
LINE
  8
LED_CHIP_2835_ELETRODE_12
 62
7
  6
BYLAYER
 10
68.4735864207
 20
79.2734926936
 11
68.4735864207
 21
79.4734926936
  0
LINE
  8
LED_CHIP_2835_ELETRODE_12
 62
7
  6
BYLAYER
 10
69.4335864207
 20
79.4734926936
 11
69.4335864207
 21
79.2734926936
  0
LINE
  8
LED_CHIP_2835_ELETRODE_12
 62
7
  6
BYLAYER
 10
69.5335864207
 20
79.4734926936
 11
69.5335864207
 21
79.2734926936
  0
LINE
  8
LS-12V-90-W6S-2835_PLATE2
 62
7
  6
BYLAYER
 10
53.1635864207
 20
78.9734926936
 11
86.4635864207
 21
78.9734926936
  0
LINE
  8
LS-12V-90-W6S-2835_PLATE2
 62
7
  6
BYLAYER
 10
53.1635864207
 20
79.2734926936
 11
86.4635864207
 21
79.2734926936
  0
LINE
  8
LED_CHIP_2835_BASE2
 62
7
  6
BYLAYER
 10
56.4435864207
 20
79.4734926936
 11
57.2635864207
 21
79.4734926936
  0
LINE
  8
LED_CHIP_2835_ELETRODE_12
 62
7
  6
BYLAYER
 10
56.7935864207
 20
79.4734926936
 11
58.8935864207
 21
79.4734926936
  0
LINE
  8
LED_CHIP_2835_BASE2
 62
7
  6
BYLAYER
 10
58.4235864207
 20
79.4734926936
 11
59.2435864207
 21
79.4734926936
  0
LINE
  8
LED_CHIP_2835_BASE2
 62
7
  6
BYLAYER
 10
67.5535864207
 20
79.4734926936
 11
68.3735864207
 21
79.4734926936
  0
LINE
  8
LED_CHIP_2835_ELETRODE_12
 62
7
  6
BYLAYER
 10
67.9035864207
 20
79.4734926936
 11
70.0035864207
 21
79.4734926936
  0
LINE
  8
LED_CHIP_2835_BASE2
 62
7
  6
BYLAYER
 10
69.5335864207
 20
79.4734926936
 11
70.3535864207
 21
79.4734926936
  0
LINE
  8
LED_CHIP_2835_BASE2
 62
7
  6
BYLAYER
 10
78.6635864207
 20
79.4734926936
 11
79.4835864207
 21
79.4734926936
  0
LINE
  8
LED_CHIP_2835_ELETRODE_12
 62
7
  6
BYLAYER
 10
79.0135864207
 20
79.4734926936
 11
81.1135864207
 21
79.4734926936
  0
LINE
  8
LED_CHIP_2835_BASE2
 62
7
  6
BYLAYER
 10
80.6435864207
 20
79.4734926936
 11
81.4635864207
 21
79.4734926936
  0
LINE
  8
RES_1206_012
 62
7
  6
BYLAYER
 10
67.4085864207
 20
79.8234926936
 11
65.8085864207
 21
79.8234926936
  0
LINE
  8
LED_CHIP_2835_BASE2
 62
7
  6
BYLAYER
 10
56.4540607894
 20
79.8734926936
 11
56.8331120521
 21
79.8734926936
  0
LINE
  8
LED_CHIP_2835_BASE2
 62
7
  6
BYLAYER
 10
67.5640607894
 20
79.8734926936
 11
67.9431120521
 21
79.8734926936
  0
LINE
  8
LED_CHIP_2835_BASE2
 62
7
  6
BYLAYER
 10
78.6740607894
 20
79.8734926936
 11
79.0531120521
 21
79.8734926936
  0
LINE
  8
LED_CHIP_2835_BASE2
 62
7
  6
BYLAYER
 10
56.4566793815
 20
79.9734926936
 11
59.23049346
 21
79.9734926936
  0
LINE
  8
LED_CHIP_2835_BASE2
 62
7
  6
BYLAYER
 10
67.5666793815
 20
79.9734926936
 11
70.34049346
 21
79.9734926936
  0
LINE
  8
LED_CHIP_2835_BASE2
 62
7
  6
BYLAYER
 10
78.6766793815
 20
79.9734926936
 11
81.45049346
 21
79.9734926936
  0
LINE
  8
LED_CHIP_2835_BASE2
 62
7
  6
BYLAYER
 10
70.3535864207
 20
79.4734926936
 11
70.34049346
 21
79.9734926936
  0
LINE
  8
LED_CHIP_2835_ELETRODE_12
 62
7
  6
BYLAYER
 10
70.0035864207
 20
79.4734926936
 11
70.0035864207
 21
79.2734926936
  0
LINE
  8
0
 62
7
  6
BYLAYER
 10
70.1685864207
 20
80.8797741106
 11
70.1685864207
 21
80.8794677187
  0
LINE
  8
LED_CHIP_2835_BASE2
 62
7
  6
BYLAYER
 10
70.3483492364
 20
79.2734926936
 11
70.3535864207
 21
79.4734926936
  0
LINE
  8
LS-12V-90-W6S-2835_PLATE2
 62
7
  6
BYLAYER
 10
72.1694867896
 20
78.9734926936
 11
72.1694867896
 21
79.2734926936
  0
LINE
  8
LS-12V-90-W6S-2835_PLATE2
 62
7
  6
BYLAYER
 10
73.1542945426
 20
78.9734926936
 11
73.1542945426
 21
79.2734926936
  0
LINE
  8
LS-12V-90-W6S-2835_PLATE2
 62
7
  6
BYLAYER
 10
73.5237786677
 20
79.2734926936
 11
73.5237786677
 21
78.9734926936
  0
LINE
  8
LS-12V-90-W6S-2835_PLATE2
 62
7
  6
BYLAYER
 10
75.4933941738
 20
79.2734926936
 11
75.4933941738
 21
78.9734926936
  0
LINE
  8
LS-12V-90-W6S-2835_PLATE2
 62
7
  6
BYLAYER
 10
75.8628782989
 20
79.2734926936
 11
75.8628782989
 21
78.9734926936
  0
LINE
  8
LS-12V-90-W6S-2835_PLATE2
 62
7
  6
BYLAYER
 10
76.8476860519
 20
79.2734926936
 11
76.8476860519
 21
78.9734926936
  0
LINE
  8
LED_CHIP_2835_BASE2
 62
7
  6
BYLAYER
 10
78.6635864207
 20
79.4734926936
 11
78.6688236051
 21
79.2734926936
  0
LINE
  8
LED_CHIP_2835_BASE2
 62
7
  6
BYLAYER
 10
78.6635864207
 20
79.4734926936
 11
78.6766793815
 21
79.9734926936
  0
LINE
  8
LED_CHIP_2835_BASE2
 62
7
  6
BYLAYER
 10
79.05049346
 20
79.9734926936
 11
79.0531120521
 21
79.8734926936
  0
LINE
  8
LED_CHIP_2835_ELETRODE_12
 62
7
  6
BYLAYER
 10
79.0135864207
 20
79.4734926936
 11
79.0135864207
 21
79.2734926936
  0
LINE
  8
LED_CHIP_2835_ELETRODE_12
 62
7
  6
BYLAYER
 10
79.4835864207
 20
79.4734926936
 11
79.4835864207
 21
79.2734926936
  0
LINE
  8
LED_CHIP_2835_ELETRODE_12
 62
7
  6
BYLAYER
 10
79.5835864207
 20
79.2734926936
 11
79.5835864207
 21
79.4734926936
  0
LINE
  8
LED_CHIP_2835_ELETRODE_12
 62
7
  6
BYLAYER
 10
80.5435864207
 20
79.4734926936
 11
80.5435864207
 21
79.2734926936
  0
LINE
  8
LED_CHIP_2835_ELETRODE_12
 62
7
  6
BYLAYER
 10
80.6435864207
 20
79.4734926936
 11
80.6435864207
 21
79.2734926936
  0
LINE
  8
LS-12V-90-W6S-2835_PLATE2
 62
7
  6
BYLAYER
 10
80.9862361516
 20
78.9734926936
 11
80.9862361516
 21
79.2734926936
  0
LINE
  8
LED_CHIP_2835_BASE2
 62
7
  6
BYLAYER
 10
81.4635864207
 20
79.4734926936
 11
81.45049346
 21
79.9734926936
  0
LINE
  8
LED_CHIP_2835_ELETRODE_12
 62
7
  6
BYLAYER
 10
81.1135864207
 20
79.4734926936
 11
81.1135864207
 21
79.2734926936
  0
LINE
  8
0
 62
7
  6
BYLAYER
 10
81.2785864207
 20
80.8797741106
 11
81.2785864207
 21
80.8794677187
  0
LINE
  8
LS-12V-90-W6S-2835_PLATE2
 62
7
  6
BYLAYER
 10
81.8522615553
 20
78.9734926936
 11
81.8522615553
 21
79.2734926936
  0
LINE
  8
LED_CHIP_2835_BASE2
 62
7
  6
BYLAYER
 10
81.4583492364
 20
79.2734926936
 11
81.4635864207
 21
79.4734926936
  0
LINE
  8
LS-12V-90-W6S-2835_PLATE2
 62
7
  6
BYLAYER
 10
82.3707660977
 20
79.2734926936
 11
82.3707660977
 21
78.9734926936
  0
LINE
  8
LS-12V-90-W6S-2835_PLATE2
 62
7
  6
BYLAYER
 10
83.7564067438
 20
79.2734926936
 11
83.7564067438
 21
78.9734926936
  0
LINE
  8
LS-12V-90-W6S-2835_PLATE2
 62
7
  6
BYLAYER
 10
84.2749112862
 20
79.2734926936
 11
84.2749112862
 21
78.9734926936
  0
LINE
  8
LS-12V-90-W6S-2835_PLATE2
 62
7
  6
BYLAYER
 10
85.1409366899
 20
79.2734926936
 11
85.1409366899
 21
78.9734926936
  0
LINE
  8
LS-12V-90-W6S-2835_PLATE2
 62
7
  6
BYLAYER
 10
86.4635864207
 20
79.2734926936
 11
86.4635864207
 21
78.9734926936
  0
CIRCLE
  8
LS-12V-90-W6S-28359
 62
3
  6
BYLAYER
 10
135.3468152832
 20
24.8882054838
 40
1.25
  0
CIRCLE
  8
LS-12V-90-W6S-28359
 62
3
  6
BYLAYER
 10
135.3468152832
 20
24.8882054838
 40
0.625
  0
ARC
  8
LS-12V-90-W6S-2835_PLATE2
 62
7
  6
BYLAYER
 10
58.2057611137
 20
53.6544730506
 40
1.0
 50
270.0
 51
333.0675887261
  0
ARC
  8
LS-12V-90-W6S-2835_PLATE2
 62
7
  6
BYLAYER
 10
57.303793959
 20
53.6544730506
 40
1.0
 50
200.0
 51
270.0
  0
ARC
  8
LS-12V-90-W6S-2835_PLATE2
 62
7
  6
BYLAYER
 10
54.0233788825
 20
53.6544730506
 40
1.0
 50
270.0
 51
340.0
  0
ARC
  8
LS-12V-90-W6S-2835_PLATE2
 62
7
  6
BYLAYER
 10
55.6635864207
 20
53.4828191848
 40
0.6
 50
20.0
 51
160.0
  0
ARC
  8
LS-12V-90-W6S-2835_PADS2
 62
7
  6
BYLAYER
 10
53.9635864207
 20
54.4544730506
 40
0.8
 50
270.0
 51
90.0
  0
ARC
  8
LS-12V-90-W6S-2835_PLATE2
 62
7
  6
BYLAYER
 10
53.9635864207
 20
54.4544730506
 40
0.8
 50
270.0
 51
90.0
  0
ARC
  8
LS-12V-90-W6S-2835_PLATE2
 62
7
  6
BYLAYER
 10
60.0127669322
 20
53.795302011
 40
0.4
 50
28.7116237606
 51
135.3381749498
  0
ARC
  8
LS-12V-90-W6S-2835_PADS2
 62
7
  6
BYLAYER
 10
57.1435864207
 20
54.1044730506
 40
0.3
 50
199.6711644888
 51
270.0
  0
ARC
  8
LS-12V-90-W6S-2835_PADS2
 62
7
  6
BYLAYER
 10
58.5435864207
 20
54.1044730506
 40
0.3
 50
270.0
 51
340.3288355112
  0
ARC
  8
LS-12V-90-W6S-2835_PLATE2
 62
7
  6
BYLAYER
 10
57.1435864207
 20
54.1044730506
 40
0.3
 50
199.5506432241
 51
270.0
  0
ARC
  8
LS-12V-90-W6S-2835_PLATE2
 62
7
  6
BYLAYER
 10
58.5435864207
 20
54.1044730506
 40
0.3
 50
270.0
 51
340.4493567759
  0
ARC
  8
LED_CHIP_2835_BASE2
 62
7
  6
BYLAYER
 10
56.7935864207
 20
54.3812587649
 40
0.2
 50
180.0
 51
270.0
  0
ARC
  8
LED_CHIP_2835_BASE2
 62
7
  6
BYLAYER
 10
58.8935864207
 20
54.3812587649
 40
0.2
 50
270.0
 51
360.0
  0
ARC
  8
LED_CHIP_2835_SLICONE2
 62
7
  6
BYLAYER
 10
58.8935864207
 20
54.3812587649
 40
0.1860316922
 50
270.0
 51
360.0
  0
ARC
  8
LED_CHIP_2835_SLICONE2
 62
7
  6
BYLAYER
 10
56.7935864207
 20
54.3812587649
 40
0.1860316922
 50
180.0
 51
270.0
  0
ARC
  8
LS-12V-90-W6S-2835_PLATE2
 62
7
  6
BYLAYER
 10
63.0094751933
 20
51.6162470466
 40
3.5
 50
26.9324112739
 51
44.6618250502
  0
ARC
  8
LS-12V-90-W6S-2835_PLATE2
 62
7
  6
BYLAYER
 10
62.2176976481
 20
51.6162470466
 40
3.5
 50
135.3381749498
 51
153.0675887261
  0
ARC
  8
LS-12V-90-W6S-2835_PLATE2
 62
7
  6
BYLAYER
 10
67.0214117278
 20
53.6544730506
 40
1.0
 50
206.9324112739
 51
270.0
  0
ARC
  8
LS-12V-90-W6S-2835_PLATE2
 62
7
  6
BYLAYER
 10
62.6135864207
 20
55.219894954
 40
2.5654219034
 50
208.7116237606
 51
331.2883762394
  0
ARC
  8
LS-12V-90-W6S-2835_PLATE2
 62
7
  6
BYLAYER
 10
62.6135864207
 20
55.9063208043
 40
1.0
 50
190.0
 51
350.0
  0
ARC
  8
LS-12V-90-W6S-2835_PADS2
 62
7
  6
BYLAYER
 10
66.6135864207
 20
54.2544730506
 40
0.75
 50
195.5171917597
 51
344.4828082403
  0
ARC
  8
LS-12V-90-W6S-2835_PLATE2
 62
7
  6
BYLAYER
 10
66.6135864207
 20
54.2544730506
 40
0.75
 50
195.7146758971
 51
344.2853241029
  0
ARC
  8
LS-12V-90-W6S-2835_PLATE2
 62
7
  6
BYLAYER
 10
65.2144059093
 20
53.795302011
 40
0.4
 50
44.6618250502
 51
151.2883762394
  0
ARC
  8
LS-12V-90-W6S-2835_PADS2
 62
7
  6
BYLAYER
 10
68.2535864207
 20
54.1044730506
 40
0.3
 50
199.6711644888
 51
270.0
  0
ARC
  8
LS-12V-90-W6S-2835_PADS2
 62
7
  6
BYLAYER
 10
69.6535864207
 20
54.1044730506
 40
0.3
 50
270.0
 51
340.3288355112
  0
ARC
  8
LS-12V-90-W6S-2835_PLATE2
 62
7
  6
BYLAYER
 10
68.2535864207
 20
54.1044730506
 40
0.3
 50
199.5506432241
 51
270.0
  0
ARC
  8
LS-12V-90-W6S-2835_PLATE2
 62
7
  6
BYLAYER
 10
69.6535864207
 20
54.1044730506
 40
0.3
 50
270.0
 51
340.4493567759
  0
ARC
  8
LED_CHIP_2835_BASE2
 62
7
  6
BYLAYER
 10
67.9035864207
 20
54.3812587649
 40
0.2
 50
180.0
 51
270.0
  0
ARC
  8
LED_CHIP_2835_SLICONE2
 62
7
  6
BYLAYER
 10
67.9035864207
 20
54.3812587649
 40
0.1860316922
 50
180.0
 51
270.0
  0
ARC
  8
LS-12V-90-W6S-2835_PADS2
 62
7
  6
BYLAYER
 10
53.9635864207
 20
56.8544730506
 40
0.8
 50
270.0
 51
90.0
  0
ARC
  8
LS-12V-90-W6S-2835_PLATE2
 62
7
  6
BYLAYER
 10
53.9635864207
 20
56.8544730506
 40
0.8
 50
270.0
 51
90.0
  0
ARC
  8
LED_CHIP_2835_BASE2
 62
7
  6
BYLAYER
 10
56.7935864207
 20
56.9276873363
 40
0.2
 50
90.0
 51
180.0
  0
ARC
  8
LED_CHIP_2835_SLICONE2
 62
7
  6
BYLAYER
 10
56.7935864207
 20
56.9276873363
 40
0.1860316922
 50
90.0
 51
180.0
  0
ARC
  8
LS-12V-90-W6S-2835_PLATE2
 62
7
  6
BYLAYER
 10
54.0635864207
 20
57.6544730506
 40
1.0
 50
0.0
 51
90.0
  0
ARC
  8
LS-12V-90-W6S-2835_PLATE2
 62
7
  6
BYLAYER
 10
55.6635864207
 20
57.2544730506
 40
0.6
 50
180.0
 51
314.0035840002
  0
ARC
  8
LS-12V-90-W6S-2835_PADS2
 62
7
  6
BYLAYER
 10
57.1435864207
 20
57.2044730506
 40
0.3
 50
90.0
 51
160.3288355112
  0
ARC
  8
LS-12V-90-W6S-2835_PADS2
 62
7
  6
BYLAYER
 10
58.5435864207
 20
57.2044730506
 40
0.3
 50
19.6711644888
 51
90.0
  0
ARC
  8
LS-12V-90-W6S-2835_PLATE2
 62
7
  6
BYLAYER
 10
58.5435864207
 20
57.2044730506
 40
0.3
 50
19.5506432241
 51
90.0
  0
ARC
  8
LS-12V-90-W6S-2835_PLATE2
 62
7
  6
BYLAYER
 10
57.1435864207
 20
57.2044730506
 40
0.3
 50
90.0
 51
160.4493567759
  0
ARC
  8
LED_CHIP_2835_BASE2
 62
7
  6
BYLAYER
 10
58.8935864207
 20
56.9276873363
 40
0.2
 50
0.0
 51
90.0
  0
ARC
  8
LED_CHIP_2835_SLICONE2
 62
7
  6
BYLAYER
 10
58.8935864207
 20
56.9276873363
 40
0.1860316922
 50
0.0
 51
90.0
  0
ARC
  8
LS-12V-90-W6S-2835_PLATE2
 62
7
  6
BYLAYER
 10
57.7164761401
 20
57.6544730506
 40
1.0
 50
90.0
 51
163.4817933443
  0
ARC
  8
LS-12V-90-W6S-2835_PLATE2
 62
7
  6
BYLAYER
 10
60.2744867896
 20
57.6544730506
 40
1.0
 50
10.0
 51
90.0
  0
ARC
  8
LS-12V-90-W6S-2835_PLATE2
 62
7
  6
BYLAYER
 10
54.2982012095
 20
58.6681938445
 40
2.5654219034
 50
314.0035840002
 51
327.0329190361
  0
ARC
  8
LS-12V-90-W6S-2835_PLATE2
 62
7
  6
BYLAYER
 10
54.2982012095
 20
58.6681938445
 40
2.5654219034
 50
327.7616841753
 51
343.4817933443
  0
ARC
  8
LS-12V-90-W6S-2835_PLATE2
 62
7
  6
BYLAYER
 10
69.6990285412
 20
57.6544730506
 40
1.0
 50
12.3997291584
 51
90.0
  0
ARC
  8
LS-12V-90-W6S-2835_PLATE2
 62
7
  6
BYLAYER
 10
64.9526860519
 20
57.6544730506
 40
1.0
 50
90.0
 51
170.0
  0
ARC
  8
LS-12V-90-W6S-2835_PADS2
 62
7
  6
BYLAYER
 10
66.6135864207
 20
57.0544730506
 40
0.75
 50
15.5003897636
 51
164.4996102364
  0
ARC
  8
LS-12V-90-W6S-2835_PLATE2
 62
7
  6
BYLAYER
 10
66.6135864207
 20
57.0544730506
 40
0.75
 50
15.7146758971
 51
164.2853241029
  0
ARC
  8
LS-12V-90-W6S-2835_PADS2
 62
7
  6
BYLAYER
 10
68.2535864207
 20
57.2044730506
 40
0.3
 50
90.0
 51
160.3288355112
  0
ARC
  8
LS-12V-90-W6S-2835_PADS2
 62
7
  6
BYLAYER
 10
69.6535864207
 20
57.2044730506
 40
0.3
 50
19.6711644888
 51
90.0
  0
ARC
  8
LS-12V-90-W6S-2835_PLATE2
 62
7
  6
BYLAYER
 10
68.2535864207
 20
57.2044730506
 40
0.3
 50
90.0
 51
160.4493567759
  0
ARC
  8
LS-12V-90-W6S-2835_PLATE2
 62
7
  6
BYLAYER
 10
69.6535864207
 20
57.2044730506
 40
0.3
 50
19.5506432241
 51
90.0
  0
ARC
  8
LED_CHIP_2835_BASE2
 62
7
  6
BYLAYER
 10
67.9035864207
 20
56.9276873363
 40
0.2
 50
90.0
 51
180.0
  0
ARC
  8
LED_CHIP_2835_SLICONE2
 62
7
  6
BYLAYER
 10
67.9035864207
 20
56.9276873363
 40
0.1860316922
 50
90.0
 51
180.0
  0
ARC
  8
LS-12V-90-W6S-2835_PLATE2
 62
7
  6
BYLAYER
 10
76.8476860519
 20
53.6544730506
 40
1.0
 50
190.0
 51
270.0
  0
ARC
  8
LS-12V-90-W6S-2835_PLATE2
 62
7
  6
BYLAYER
 10
72.1694867896
 20
53.6544730506
 40
1.0
 50
270.0
 51
350.0
  0
ARC
  8
LED_CHIP_2835_BASE2
 62
7
  6
BYLAYER
 10
70.0035864207
 20
54.3812587649
 40
0.2
 50
270.0
 51
360.0
  0
ARC
  8
LED_CHIP_2835_SLICONE2
 62
7
  6
BYLAYER
 10
70.0035864207
 20
54.3812587649
 40
0.1860316922
 50
270.0
 51
360.0
  0
ARC
  8
LS-12V-90-W6S-2835_PLATE2
 62
7
  6
BYLAYER
 10
74.5085864207
 20
56.0890511472
 40
2.5654219034
 50
12.9672263373
 51
167.0327736627
  0
ARC
  8
LS-12V-90-W6S-2835_PLATE2
 62
7
  6
BYLAYER
 10
74.5085864207
 20
55.4026252969
 40
1.0
 50
10.0
 51
170.0
  0
ARC
  8
LS-12V-90-W6S-2835_PLATE2
 62
7
  6
BYLAYER
 10
80.9862361516
 20
53.6544730506
 40
1.0
 50
270.0
 51
330.0
  0
ARC
  8
LS-12V-90-W6S-2835_PADS2
 62
7
  6
BYLAYER
 10
79.3635864207
 20
54.1044730506
 40
0.3
 50
199.6711644888
 51
270.0
  0
ARC
  8
LS-12V-90-W6S-2835_PADS2
 62
7
  6
BYLAYER
 10
80.7635864207
 20
54.1044730506
 40
0.3
 50
270.0
 51
340.3288355112
  0
ARC
  8
LS-12V-90-W6S-2835_PLATE2
 62
7
  6
BYLAYER
 10
80.7635864207
 20
54.1044730506
 40
0.3
 50
270.0
 51
340.4493567759
  0
ARC
  8
LS-12V-90-W6S-2835_PLATE2
 62
7
  6
BYLAYER
 10
79.3635864207
 20
54.1044730506
 40
0.3
 50
199.5506432241
 51
270.0
  0
ARC
  8
LED_CHIP_2835_BASE2
 62
7
  6
BYLAYER
 10
79.0135864207
 20
54.3812587649
 40
0.2
 50
180.0
 51
270.0
  0
ARC
  8
LED_CHIP_2835_BASE2
 62
7
  6
BYLAYER
 10
81.1135864207
 20
54.3812587649
 40
0.2
 50
270.0
 51
360.0
  0
ARC
  8
LED_CHIP_2835_SLICONE2
 62
7
  6
BYLAYER
 10
81.1135864207
 20
54.3812587649
 40
0.1860316922
 50
270.0
 51
360.0
  0
ARC
  8
LED_CHIP_2835_SLICONE2
 62
7
  6
BYLAYER
 10
79.0135864207
 20
54.3812587649
 40
0.1860316922
 50
180.0
 51
270.0
  0
ARC
  8
LS-12V-90-W6S-2835_PLATE2
 62
7
  6
BYLAYER
 10
85.1409366899
 20
53.6544730506
 40
1.0
 50
210.0
 51
270.0
  0
ARC
  8
LS-12V-90-W6S-2835_PLATE2
 62
7
  6
BYLAYER
 10
83.0635864207
 20
53.6525492619
 40
0.8
 50
30.0
 51
150.0
  0
ARC
  8
LS-12V-90-W6S-2835_PADS2
 62
7
  6
BYLAYER
 10
85.6635864207
 20
54.4544730506
 40
0.8
 50
90.0
 51
270.0
  0
ARC
  8
LS-12V-90-W6S-2835_PLATE2
 62
7
  6
BYLAYER
 10
85.6635864207
 20
54.4544730506
 40
0.8
 50
90.0
 51
270.0
  0
ARC
  8
LS-12V-90-W6S-2835_PLATE2
 62
7
  6
BYLAYER
 10
74.0940583615
 20
58.6207612472
 40
3.5
 50
192.3997291584
 51
217.0153132674
  0
ARC
  8
LS-12V-90-W6S-2835_PLATE2
 62
7
  6
BYLAYER
 10
74.92311448
 20
58.6207612472
 40
3.5
 50
322.9846867326
 51
347.6002708416
  0
ARC
  8
LS-12V-90-W6S-2835_PLATE2
 62
7
  6
BYLAYER
 10
71.618786989
 20
56.7544730506
 40
0.4
 50
217.0153132674
 51
347.0327736627
  0
ARC
  8
LS-12V-90-W6S-2835_PLATE2
 62
7
  6
BYLAYER
 10
77.3983858524
 20
56.7544730506
 40
0.4
 50
192.9672263373
 51
322.9846867326
  0
ARC
  8
LED_CHIP_2835_BASE2
 62
7
  6
BYLAYER
 10
70.0035864207
 20
56.9276873363
 40
0.2
 50
0.0
 51
90.0
  0
ARC
  8
LED_CHIP_2835_SLICONE2
 62
7
  6
BYLAYER
 10
70.0035864207
 20
56.9276873363
 40
0.1860316922
 50
0.0
 51
90.0
  0
ARC
  8
LS-12V-90-W6S-2835_PLATE2
 62
7
  6
BYLAYER
 10
76.6764940523
 20
60.8700115673
 40
8.0
 50
322.1737325583
 51
339.0666286104
  0
ARC
  8
LED_CHIP_2835_BASE2
 62
7
  6
BYLAYER
 10
79.0135864207
 20
56.9276873363
 40
0.2
 50
90.0
 51
180.0
  0
ARC
  8
LED_CHIP_2835_BASE2
 62
7
  6
BYLAYER
 10
81.1135864207
 20
56.9276873363
 40
0.2
 50
0.0
 51
90.0
  0
ARC
  8
LED_CHIP_2835_SLICONE2
 62
7
  6
BYLAYER
 10
79.0135864207
 20
56.9276873363
 40
0.1860316922
 50
90.0
 51
180.0
  0
ARC
  8
LED_CHIP_2835_SLICONE2
 62
7
  6
BYLAYER
 10
81.1135864207
 20
56.9276873363
 40
0.1860316922
 50
0.0
 51
90.0
  0
ARC
  8
LS-12V-90-W6S-2835_PLATE2
 62
7
  6
BYLAYER
 10
79.3181443003
 20
57.6544730506
 40
1.0
 50
90.0
 51
167.6002708416
  0
ARC
  8
LS-12V-90-W6S-2835_PLATE2
 62
7
  6
BYLAYER
 10
80.5635864207
 20
57.6544730506
 40
1.0
 50
0.0
 51
90.0
  0
ARC
  8
LS-12V-90-W6S-2835_PADS2
 62
7
  6
BYLAYER
 10
79.3635864207
 20
57.2044730506
 40
0.3
 50
90.0
 51
160.3288355112
  0
ARC
  8
LS-12V-90-W6S-2835_PADS2
 62
7
  6
BYLAYER
 10
80.7635864207
 20
57.2044730506
 40
0.3
 50
19.6711644888
 51
90.0
  0
ARC
  8
LS-12V-90-W6S-2835_PLATE2
 62
7
  6
BYLAYER
 10
79.3635864207
 20
57.2044730506
 40
0.3
 50
90.0
 51
160.4493567759
  0
ARC
  8
LS-12V-90-W6S-2835_PLATE2
 62
7
  6
BYLAYER
 10
80.7635864207
 20
57.2044730506
 40
0.3
 50
19.5506432241
 51
90.0
  0
ARC
  8
LS-12V-90-W6S-2835_PADS2
 62
7
  6
BYLAYER
 10
85.6635864207
 20
56.8544730506
 40
0.8
 50
90.0
 51
270.0
  0
ARC
  8
LS-12V-90-W6S-2835_PLATE2
 62
7
  6
BYLAYER
 10
82.3635864207
 20
56.4544730506
 40
0.8
 50
180.0
 51
322.1737325583
  0
ARC
  8
LS-12V-90-W6S-2835_PLATE2
 62
7
  6
BYLAYER
 10
85.6635864207
 20
56.8544730506
 40
0.8
 50
90.0
 51
270.0
  0
ARC
  8
LS-12V-90-W6S-2835_PLATE2
 62
7
  6
BYLAYER
 10
85.0824628869
 20
57.6544730506
 40
1.0
 50
90.0
 51
159.0666286104
  0
ENDSEC
  0
EOF
