999
DXF file: E:\PTCStandard\library\LED\LedStrip_V1\LS-12V-100-W8-2835\ls-12v-100-w8-2835.dxf
999
Pro/ENGINEER 2011310 by Parametric Technology Corporation
  0
SECTION
  2
HEADER
  9
$EXTMAX
 10
59.4
 20
42.0
 30
0.0
  9
$EXTMIN
 10
0.0
 20
0.0
 30
0.0
  9
$LIMMIN
 10
0.0
 20
0.0
  9
$LIMMAX
 10
59.4
 20
42.0
  9
$VIEWCTR
 10
29.7
 20
21.0
  9
$VIEWSIZE
 40
42.0
  9
$CLAYER
  8
0
  9
$LTSCALE
 40
3.267
  9
$CELTYPE
  6
BYLAYER
  9
$DIMSCALE
 40
1.0
  9
$DIMASZ
 40
0.7
  9
$DIMEXO
 40
0.37125
  9
$DIMDLI
 40
2.2572
  9
$DIMEXE
 40
1.0692
  9
$DIMCEN
 40
0.5346
  9
$DIMLFAC
 40
1.0
  9
$DIMBLK
  1
_FILLED
  9
$DIMTXT
 40
3.5
  9
$PDMODE
 70
3
  9
$PDSIZE
 40
8.0
  9
$TILEMODE
 70
1
  0
ENDSEC
  0
SECTION
  2
TABLES
  0
TABLE
  2
LTYPE
 70
6
  0
LTYPE
  2
BYBLOCK
 70
0
  3

 72
65
 73
0
 40
0.0
  0
LTYPE
  2
BYLAYER
 70
0
  3

 72
65
 73
0
 40
0.0
  0
LTYPE
  2
CONTINUOUS
 70
64
  3
Solid line
 72
65
 73
0
 40
0.0
  0
LTYPE
  2
CENTER
 70
64
  3
____ _ ____ _ ____ _ ____ _ ____ _ ____ _ ____
 72
65
 73
4
 40
0.6
 49
0.375
 49
-0.075
 49
0.075
 49
-0.075
  0
LTYPE
  2
HIDDEN
 70
64
  3
- - - - - - - - - - - - - - - - - - - -
 72
65
 73
2
 40
0.2
 49
0.1
 49
-0.1
  0
LTYPE
  2
PHANTOM
 70
64
  3
_____ _ _ _____ _ _ _____ _ _ _____
 72
65
 73
6
 40
0.8
 49
0.45
 49
-0.05
 49
0.1
 49
-0.05
 49
0.1
 49
-0.05
  0
LTYPE
  2
DOT
 70
64
  3
. . . . . . . . . . . . . . . . . . . .
 72
65
 73
2
 40
0.2
 49
0.1
 49
-0.1
  0
LTYPE
  2
DASHED
 70
64
  3
- - - - - - - - - - - - - - - - - - - -
 72
65
 73
2
 40
0.2
 49
0.1
 49
-0.1
  0
ENDTAB
  0
TABLE
  2
LAYER
 70
36
  0
LAYER
  2
0
 70
0
 62
7
  6
CONTINUOUS
  0
LAYER
  2
DEFAULT_1
 70
0
 62
7
  6
CENTER
  0
LAYER
  2
DEFAULT_2
 70
0
 62
8
  6
HIDDEN
  0
LAYER
  2
DEFAULT_3
 70
0
 62
7
  6
PHANTOM
  0
LAYER
  2
01_ALL_DTM_PLN
 70
0
 62
7
  6
CONTINUOUS
  0
LAYER
  2
01__ASM_ALL_DTM_PLN
 70
0
 62
7
  6
CONTINUOUS
  0
LAYER
  2
01__ASM_DEF_DTM_PLN
 70
0
 62
7
  6
CONTINUOUS
  0
LAYER
  2
01___PRT_ALL_DTM_PLN
 70
0
 62
7
  6
CONTINUOUS
  0
LAYER
  2
01___PRT_DEF_DTM_PLN
 70
0
 62
7
  6
CONTINUOUS
  0
LAYER
  2
02_ALL_AXES
 70
0
 62
7
  6
CONTINUOUS
  0
LAYER
  2
02__ASM_ALL_AXES
 70
0
 62
7
  6
CONTINUOUS
  0
LAYER
  2
02___PRT_ALL_AXES
 70
0
 62
7
  6
CONTINUOUS
  0
LAYER
  2
03_ALL_CURVES
 70
0
 62
7
  6
CONTINUOUS
  0
LAYER
  2
03__ASM_ALL_CURVES
 70
0
 62
7
  6
CONTINUOUS
  0
LAYER
  2
03___PRT_ALL_CURVES
 70
0
 62
7
  6
CONTINUOUS
  0
LAYER
  2
04_ALL_DTM_PNT
 70
0
 62
7
  6
CONTINUOUS
  0
LAYER
  2
04__ASM_ALL_DTM_PNT
 70
0
 62
7
  6
CONTINUOUS
  0
LAYER
  2
04___PRT_ALL_DTM_PNT
 70
0
 62
7
  6
CONTINUOUS
  0
LAYER
  2
05_ALL_DTM_CSYS
 70
0
 62
7
  6
CONTINUOUS
  0
LAYER
  2
05__ASM_ALL_DTM_CSYS
 70
0
 62
7
  6
CONTINUOUS
  0
LAYER
  2
05__ASM_DEF_DTM_CSYS
 70
0
 62
7
  6
CONTINUOUS
  0
LAYER
  2
05___PRT_ALL_DTM_CSYS
 70
0
 62
7
  6
CONTINUOUS
  0
LAYER
  2
05___PRT_DEF_DTM_CSYS
 70
0
 62
7
  6
CONTINUOUS
  0
LAYER
  2
06_ALL_SURFS
 70
0
 62
7
  6
CONTINUOUS
  0
LAYER
  2
06__ASM_ALL_SURFS
 70
0
 62
7
  6
CONTINUOUS
  0
LAYER
  2
06___PRT_ALL_SURFS
 70
0
 62
7
  6
CONTINUOUS
  0
LAYER
  2
07__ASM_ALL_SKELETONS
 70
0
 62
7
  6
CONTINUOUS
  0
LAYER
  2
INTF_YELLOW
 70
0
 62
7
  6
CONTINUOUS
  0
LAYER
  2
LAYER_01
 70
0
 62
7
  6
CONTINUOUS
  0
LAYER
  2
LAYER_02
 70
0
 62
7
  6
CONTINUOUS
  0
LAYER
  2
LAYER_02_208
 70
0
 62
7
  6
CONTINUOUS
  0
LAYER
  2
LAYER_04
 70
0
 62
7
  6
CONTINUOUS
  0
LAYER
  2
LAYER_04_210
 70
0
 62
7
  6
CONTINUOUS
  0
LAYER
  2
LS-12V-100-W8-28359
 70
0
 62
7
  6
CONTINUOUS
  0
LAYER
  2
LS-12V-100-W8-28354
 70
0
 62
7
  6
CONTINUOUS
  0
LAYER
  2
LS-12V-100-W8-2835_PLATE2
 70
0
 62
7
  6
CONTINUOUS
  0
LAYER
  2
LS-12V-100-W8-2835_PADS2
 70
0
 62
7
  6
CONTINUOUS
  0
LAYER
  2
LED_CHIP_2835_BASE2
 70
0
 62
7
  6
CONTINUOUS
  0
LAYER
  2
LED_CHIP_2835_SLICONE2
 70
0
 62
7
  6
CONTINUOUS
  0
LAYER
  2
LED_CHIP_2835_ELETRODE_22
 70
0
 62
7
  6
CONTINUOUS
  0
LAYER
  2
LED_CHIP_2835_ELETRODE_12
 70
0
 62
7
  6
CONTINUOUS
  0
LAYER
  2
RES_1206_012
 70
0
 62
7
  6
CONTINUOUS
  0
LAYER
  2
RES_1206_032
 70
0
 62
7
  6
CONTINUOUS
  0
ENDTAB
  0
TABLE
  2
STYLE
 70
1
  0
STYLE
  2
STANDARD
 70
0
 40
0.0
 41
0.85
 50
0.0
 71
0
 42
0.2
  3
SIMHEI.SHX
  4

  0
STYLE
  2
TEXTSTYLE_1
 70
0
 40
0.0
 41
0.8
 50
0.0
 71
0
 42
0.2
  3
gdt
  4

  0
STYLE
  2
TEXTSTYLE_2
 70
0
 40
0.0
 41
1.0
 50
0.0
 71
0
 42
0.2
  3
TXT.TTF
  4

  0
STYLE
  2
TEXTSTYLE_3
 70
0
 40
0.0
 41
1.0
 50
0.0
 71
0
 42
0.2
  3
TXT.TTF
  4

  0
STYLE
  2
TEXTSTYLE_4
 70
0
 40
0.0
 41
1.0
 50
0.0
 71
0
 42
0.2
  3
TXT.TTF
  4

  0
STYLE
  2
TEXTSTYLE_5
 70
0
 40
0.0
 41
1.0
 50
0.0
 71
0
 42
0.2
  3
TXT.TTF
  4

  0
STYLE
  2
TEXTSTYLE_6
 70
0
 40
0.0
 41
1.0
 50
0.0
 71
0
 42
0.2
  3
TXT.TTF
  4

  0
STYLE
  2
TEXTSTYLE_7
 70
0
 40
0.0
 41
0.75
 50
0.0
 71
0
 42
0.2
  3
SIMHEI.SHX
  4

  0
STYLE
  2
TEXTSTYLE_8
 70
0
 40
0.0
 41
0.55
 50
0.0
 71
0
 42
0.2
  3
gdt
  4

  0
ENDTAB
  0
ENDSEC
  0
SECTION
  2
BLOCKS
  0
BLOCK
  8
LS-12V-100-W8-28359
 62
7
  6
BYLAYER
  2
SYMBOL_283_BL0
 70
64
 10
37.478133458
 20
3.4864330558
  0
LINE
  8
LS-12V-100-W8-28359
 62
7
  6
BYLAYER
 10
34.4006198458
 20
4.2506979867
 11
34.4006198458
 21
4.0367498696
  0
LINE
  8
LS-12V-100-W8-28359
 62
7
  6
BYLAYER
 10
34.6015282357
 20
4.0367498696
 11
34.6015282357
 21
4.2506979867
  0
LINE
  8
LS-12V-100-W8-28359
 62
7
  6
BYLAYER
 10
34.7455861746
 20
4.2506979867
 11
34.7455861746
 21
4.0367498696
  0
LINE
  8
LS-12V-100-W8-28359
 62
7
  6
BYLAYER
 10
34.9437348338
 20
4.0367498696
 11
34.9437348338
 21
4.2506979867
  0
LINE
  8
LS-12V-100-W8-28359
 62
7
  6
BYLAYER
 10
35.0924843148
 20
4.2506979867
 11
35.0924843148
 21
4.0367498696
  0
LINE
  8
LS-12V-100-W8-28359
 62
7
  6
BYLAYER
 10
35.2931167316
 20
4.0367498696
 11
35.2931167316
 21
4.2506979867
  0
LINE
  8
LS-12V-100-W8-28359
 62
7
  6
BYLAYER
 10
36.6346858271
 20
2.6633171139
 11
36.9178797975
 21
2.6633171139
  0
LINE
  8
LS-12V-100-W8-28359
 62
7
  6
BYLAYER
 10
36.9178797975
 20
2.6633171139
 11
36.9178797975
 21
2.6174848237
  0
LINE
  8
LS-12V-100-W8-28359
 62
7
  6
BYLAYER
 10
36.9178797975
 20
2.6174848237
 11
36.706962268
 21
2.6174848237
  0
LINE
  8
LS-12V-100-W8-28359
 62
7
  6
BYLAYER
 10
36.706962268
 20
2.6174848237
 11
36.706962268
 21
2.4583113778
  0
LINE
  8
LS-12V-100-W8-28359
 62
7
  6
BYLAYER
 10
36.706962268
 20
2.4583113778
 11
36.9178797975
 21
2.4583113778
  0
LINE
  8
LS-12V-100-W8-28359
 62
7
  6
BYLAYER
 10
36.9178797975
 20
2.4583113778
 11
36.9178797975
 21
2.4131147643
  0
LINE
  8
LS-12V-100-W8-28359
 62
7
  6
BYLAYER
 10
36.9178797975
 20
2.4131147643
 11
36.706962268
 21
2.4131147643
  0
LINE
  8
LS-12V-100-W8-28359
 62
7
  6
BYLAYER
 10
36.706962268
 20
2.4131147643
 11
36.706962268
 21
2.2241280811
  0
LINE
  8
LS-12V-100-W8-28359
 62
7
  6
BYLAYER
 10
36.706962268
 20
2.2241280811
 11
36.9178797975
 21
2.2241280811
  0
LINE
  8
LS-12V-100-W8-28359
 62
7
  6
BYLAYER
 10
36.9178797975
 20
2.2241280811
 11
36.9178797975
 21
2.1808384977
  0
LINE
  8
LS-12V-100-W8-28359
 62
7
  6
BYLAYER
 10
36.9178797975
 20
2.1808384977
 11
36.6346858271
 21
2.1808384977
  0
LINE
  8
LS-12V-100-W8-28359
 62
7
  6
BYLAYER
 10
36.6346858271
 20
2.1808384977
 11
36.6346858271
 21
2.6633171139
  0
LINE
  8
LS-12V-100-W8-28359
 62
7
  6
BYLAYER
 10
38.9898362209
 20
2.419153693
 11
38.9898362209
 21
2.4176916366
  0
ARC
  8
LS-12V-100-W8-28359
 62
7
  6
BYLAYER
 10
39.282332496
 20
2.4131204526
 40
0.2925319925
 50
179.1046442283
 51
200.8922339549
  0
ARC
  8
LS-12V-100-W8-28359
 62
7
  6
BYLAYER
 10
39.2359185547
 20
2.4046229926
 40
0.2462899934
 50
202.8963230435
 51
250.070082015
  0
ARC
  8
LS-12V-100-W8-28359
 62
7
  6
BYLAYER
 10
39.2479407705
 20
2.4411048466
 40
0.2846872335
 50
250.2981849841
 51
270.5013647429
  0
LINE
  8
LS-12V-100-W8-28359
 62
7
  6
BYLAYER
 10
39.2504318846
 20
2.1564285124
 11
39.2793869583
 21
2.1564285124
  0
LINE
  8
LS-12V-100-W8-28359
 62
7
  6
BYLAYER
 10
39.2793869583
 20
2.1564285124
 11
39.2992836391
 21
2.1571277568
  0
LINE
  8
LS-12V-100-W8-28359
 62
7
  6
BYLAYER
 10
39.2992836391
 20
2.1571277568
 11
39.3191803198
 21
2.1592890575
  0
LINE
  8
LS-12V-100-W8-28359
 62
7
  6
BYLAYER
 10
39.3191803198
 20
2.1592890575
 11
39.3394584066
 21
2.1629124147
  0
LINE
  8
LS-12V-100-W8-28359
 62
7
  6
BYLAYER
 10
39.3394584066
 20
2.1629124147
 11
39.3604357377
 21
2.167298584
  0
LINE
  8
LS-12V-100-W8-28359
 62
7
  6
BYLAYER
 10
39.3604357377
 20
2.167298584
 11
39.3651397453
 21
2.1686970727
  0
LINE
  8
LS-12V-100-W8-28359
 62
7
  6
BYLAYER
 10
39.3651397453
 20
2.1686970727
 11
39.3705747811
 21
2.1701591291
  0
LINE
  8
LS-12V-100-W8-28359
 62
7
  6
BYLAYER
 10
39.3705747811
 20
2.1701591291
 11
39.4009919112
 21
2.1802663887
  0
LINE
  8
LS-12V-100-W8-28359
 62
7
  6
BYLAYER
 10
39.4009919112
 20
2.1802663887
 11
39.4110991708
 21
2.1846525579
  0
LINE
  8
LS-12V-100-W8-28359
 62
7
  6
BYLAYER
 10
39.4110991708
 20
2.1846525579
 11
39.4212382142
 21
2.1897379715
  0
LINE
  8
LS-12V-100-W8-28359
 62
7
  6
BYLAYER
 10
39.4212382142
 20
2.1897379715
 11
39.4306462293
 21
2.1955226295
  0
LINE
  8
LS-12V-100-W8-28359
 62
7
  6
BYLAYER
 10
39.4306462293
 20
2.1955226295
 11
39.4407852727
 21
2.2020065319
  0
LINE
  8
LS-12V-100-W8-28359
 62
7
  6
BYLAYER
 10
39.4407852727
 20
2.2020065319
 11
39.4465699307
 21
2.246885307
  0
LINE
  8
LS-12V-100-W8-28359
 62
7
  6
BYLAYER
 10
39.4465699307
 20
2.246885307
 11
39.417614857
 21
2.2461860626
  0
ARC
  8
LS-12V-100-W8-28359
 62
7
  6
BYLAYER
 10
39.2799100623
 20
2.4097947716
 40
0.2138467212
 50
300.1226166813
 51
310.0863647934
  0
ARC
  8
LS-12V-100-W8-28359
 62
7
  6
BYLAYER
 10
39.2665079827
 20
2.4307356403
 40
0.2386879164
 50
290.9261388757
 51
300.3825747552
  0
ARC
  8
LS-12V-100-W8-28359
 62
7
  6
BYLAYER
 10
39.2672769603
 20
2.4169922376
 40
0.2256152728
 50
282.3564329875
 51
291.9903650689
  0
ARC
  8
LS-12V-100-W8-28359
 62
7
  6
BYLAYER
 10
39.2586996283
 20
2.4531158917
 40
0.2627384183
 50
274.3560974414
 51
282.4978406016
  0
ARC
  8
LS-12V-100-W8-28359
 62
7
  6
BYLAYER
 10
39.2911872654
 20
2.3886059097
 40
0.1978666668
 50
247.3413638217
 51
266.3689009432
  0
ARC
  8
LS-12V-100-W8-28359
 62
7
  6
BYLAYER
 10
39.3020846386
 20
2.4111038418
 40
0.2228305621
 50
229.1447438403
 51
246.9841673426
  0
ARC
  8
LS-12V-100-W8-28359
 62
7
  6
BYLAYER
 10
39.2580296047
 20
2.3597822298
 40
0.1551943006
 50
197.9155448152
 51
229.0523049251
  0
ARC
  8
LS-12V-100-W8-28359
 62
7
  6
BYLAYER
 10
39.4420333527
 20
2.4196072178
 40
0.3486790866
 50
180.1894261358
 51
197.9684336648
  0
LINE
  8
LS-12V-100-W8-28359
 62
7
  6
BYLAYER
 10
39.0933561717
 20
2.4184544486
 11
39.0933561717
 21
2.4270996517
  0
ARC
  8
LS-12V-100-W8-28359
 62
7
  6
BYLAYER
 10
39.3488487069
 20
2.4314222136
 40
0.2555290983
 50
160.1190365148
 51
180.9692687312
  0
ARC
  8
LS-12V-100-W8-28359
 62
7
  6
BYLAYER
 10
39.2900900733
 20
2.450352549
 40
0.193847082
 50
135.1351303734
 51
159.4747438859
  0
ARC
  8
LS-12V-100-W8-28359
 62
7
  6
BYLAYER
 10
39.2909234738
 20
2.451589719
 40
0.1935705699
 50
95.5684905603
 51
135.5687020976
  0
LINE
  8
LS-12V-100-W8-28359
 62
7
  6
BYLAYER
 10
39.2721402439
 20
2.6442468128
 11
39.2757636011
 21
2.6442468128
  0
LINE
  8
LS-12V-100-W8-28359
 62
7
  6
BYLAYER
 10
39.2757636011
 20
2.6442468128
 11
39.2837095599
 21
2.6431661624
  0
LINE
  8
LS-12V-100-W8-28359
 62
7
  6
BYLAYER
 10
39.2837095599
 20
2.6431661624
 11
39.2924183307
 21
2.6420855121
  0
LINE
  8
LS-12V-100-W8-28359
 62
7
  6
BYLAYER
 10
39.2924183307
 20
2.6420855121
 11
39.3217230266
 21
2.6345209593
  0
ARC
  8
LS-12V-100-W8-28359
 62
7
  6
BYLAYER
 10
39.2584074425
 20
2.4373582756
 40
0.2070796635
 50
63.4314101522
 51
72.196424709
  0
ARC
  8
LS-12V-100-W8-28359
 62
7
  6
BYLAYER
 10
39.2572306578
 20
2.4352774126
 40
0.2094671611
 50
54.371244206
 51
63.3980911646
  0
LINE
  8
LS-12V-100-W8-28359
 62
7
  6
BYLAYER
 10
39.3792517681
 20
2.6055341017
 11
39.406045541
 21
2.5841753646
  0
LINE
  8
LS-12V-100-W8-28359
 62
7
  6
BYLAYER
 10
39.406045541
 20
2.5841753646
 11
39.4407852727
 21
2.5841753646
  0
LINE
  8
LS-12V-100-W8-28359
 62
7
  6
BYLAYER
 10
39.4407852727
 20
2.5841753646
 11
39.4581710305
 21
2.6399242113
  0
ARC
  8
LS-12V-100-W8-28359
 62
7
  6
BYLAYER
 10
39.3693827836
 20
2.4973401281
 40
0.1679689661
 50
58.0891485033
 51
67.5454670452
  0
ARC
  8
LS-12V-100-W8-28359
 62
7
  6
BYLAYER
 10
39.3368917997
 20
2.406121046
 40
0.2647257865
 50
68.5873384549
 51
81.3423857767
  0
LINE
  8
LS-12V-100-W8-28359
 62
7
  6
BYLAYER
 10
39.3767408451
 20
2.6678304185
 11
39.346705121
 21
2.6710723696
  0
LINE
  8
LS-12V-100-W8-28359
 62
7
  6
BYLAYER
 10
39.346705121
 20
2.6710723696
 11
39.3155569626
 21
2.6732336704
  0
ARC
  8
LS-12V-100-W8-28359
 62
7
  6
BYLAYER
 10
39.3119307763
 20
2.7481337215
 40
0.0749877782
 50
261.6918862418
 51
272.7717347723
  0
ARC
  8
LS-12V-100-W8-28359
 62
7
  6
BYLAYER
 10
39.2974587585
 20
2.74290727
 40
0.0690701545
 50
260.9563938617
 51
273.01803113
  0
LINE
  8
LS-12V-100-W8-28359
 62
7
  6
BYLAYER
 10
39.2866018889
 20
2.6746957268
 11
39.2576468151
 21
2.6739329148
  0
ARC
  8
LS-12V-100-W8-28359
 62
7
  6
BYLAYER
 10
39.2531584264
 20
2.3699098064
 40
0.3040562383
 50
89.1541858308
 51
110.4524797124
  0
ARC
  8
LS-12V-100-W8-28359
 62
7
  6
BYLAYER
 10
39.2304779282
 20
2.4387617332
 40
0.2316363442
 50
111.1471074556
 51
136.8410387207
  0
ARC
  8
LS-12V-100-W8-28359
 62
7
  6
BYLAYER
 10
39.2604368613
 20
2.4099344791
 40
0.273209232
 50
136.728707552
 51
157.5391803557
  0
ARC
  8
LS-12V-100-W8-28359
 62
7
  6
BYLAYER
 10
39.2397614123
 20
2.4208776896
 40
0.2499311373
 50
158.0467340334
 51
180.395222912
  0
LINE
  8
LS-12V-100-W8-28359
 62
7
  6
BYLAYER
 10
39.7317662827
 20
2.419153693
 11
39.7317662827
 21
2.4176916366
  0
ARC
  8
LS-12V-100-W8-28359
 62
7
  6
BYLAYER
 10
40.0242625577
 20
2.4131204526
 40
0.2925319925
 50
179.1046442283
 51
200.8922339548
  0
ARC
  8
LS-12V-100-W8-28359
 62
7
  6
BYLAYER
 10
39.9778486164
 20
2.4046229926
 40
0.2462899934
 50
202.8963230435
 51
250.0700820149
  0
ARC
  8
LS-12V-100-W8-28359
 62
7
  6
BYLAYER
 10
39.9898708323
 20
2.4411048466
 40
0.2846872335
 50
250.2981849841
 51
270.5013647429
  0
LINE
  8
LS-12V-100-W8-28359
 62
7
  6
BYLAYER
 10
39.9923619463
 20
2.1564285124
 11
40.02131702
 21
2.1564285124
  0
LINE
  8
LS-12V-100-W8-28359
 62
7
  6
BYLAYER
 10
40.02131702
 20
2.1564285124
 11
40.0412137008
 21
2.1571277568
  0
LINE
  8
LS-12V-100-W8-28359
 62
7
  6
BYLAYER
 10
40.0412137008
 20
2.1571277568
 11
40.0611103815
 21
2.1592890575
  0
LINE
  8
LS-12V-100-W8-28359
 62
7
  6
BYLAYER
 10
40.0611103815
 20
2.1592890575
 11
40.0813884683
 21
2.1629124147
  0
LINE
  8
LS-12V-100-W8-28359
 62
7
  6
BYLAYER
 10
40.0813884683
 20
2.1629124147
 11
40.1023657994
 21
2.167298584
  0
LINE
  8
LS-12V-100-W8-28359
 62
7
  6
BYLAYER
 10
40.1023657994
 20
2.167298584
 11
40.107069807
 21
2.1686970727
  0
LINE
  8
LS-12V-100-W8-28359
 62
7
  6
BYLAYER
 10
40.107069807
 20
2.1686970727
 11
40.1125048428
 21
2.1701591291
  0
LINE
  8
LS-12V-100-W8-28359
 62
7
  6
BYLAYER
 10
40.1125048428
 20
2.1701591291
 11
40.142921973
 21
2.1802663887
  0
LINE
  8
LS-12V-100-W8-28359
 62
7
  6
BYLAYER
 10
40.142921973
 20
2.1802663887
 11
40.1530292325
 21
2.1846525579
  0
LINE
  8
LS-12V-100-W8-28359
 62
7
  6
BYLAYER
 10
40.1530292325
 20
2.1846525579
 11
40.1631682759
 21
2.1897379715
  0
LINE
  8
LS-12V-100-W8-28359
 62
7
  6
BYLAYER
 10
40.1631682759
 20
2.1897379715
 11
40.1725762911
 21
2.1955226295
  0
LINE
  8
LS-12V-100-W8-28359
 62
7
  6
BYLAYER
 10
40.1725762911
 20
2.1955226295
 11
40.1827153345
 21
2.2020065319
  0
LINE
  8
LS-12V-100-W8-28359
 62
7
  6
BYLAYER
 10
40.1827153345
 20
2.2020065319
 11
40.1884999924
 21
2.246885307
  0
LINE
  8
LS-12V-100-W8-28359
 62
7
  6
BYLAYER
 10
40.1884999924
 20
2.246885307
 11
40.1595449187
 21
2.2461860626
  0
ARC
  8
LS-12V-100-W8-28359
 62
7
  6
BYLAYER
 10
40.021840124
 20
2.4097947716
 40
0.2138467212
 50
300.1226166814
 51
310.0863647934
  0
ARC
  8
LS-12V-100-W8-28359
 62
7
  6
BYLAYER
 10
40.0084380445
 20
2.4307356403
 40
0.2386879164
 50
290.9261388756
 51
300.3825747552
  0
ARC
  8
LS-12V-100-W8-28359
 62
7
  6
BYLAYER
 10
40.009207022
 20
2.4169922376
 40
0.2256152728
 50
282.3564329875
 51
291.990365069
  0
ARC
  8
LS-12V-100-W8-28359
 62
7
  6
BYLAYER
 10
40.0006296901
 20
2.4531158917
 40
0.2627384183
 50
274.3560974413
 51
282.4978406017
  0
ARC
  8
LS-12V-100-W8-28359
 62
7
  6
BYLAYER
 10
40.0331173271
 20
2.3886059097
 40
0.1978666668
 50
247.3413638216
 51
266.3689009432
  0
ARC
  8
LS-12V-100-W8-28359
 62
7
  6
BYLAYER
 10
40.0440147003
 20
2.4111038418
 40
0.2228305621
 50
229.1447438403
 51
246.9841673426
  0
ARC
  8
LS-12V-100-W8-28359
 62
7
  6
BYLAYER
 10
39.9999596664
 20
2.3597822298
 40
0.1551943006
 50
197.9155448152
 51
229.0523049251
  0
ARC
  8
LS-12V-100-W8-28359
 62
7
  6
BYLAYER
 10
40.1839634144
 20
2.4196072178
 40
0.3486790866
 50
180.1894261358
 51
197.9684336648
  0
LINE
  8
LS-12V-100-W8-28359
 62
7
  6
BYLAYER
 10
39.8352862335
 20
2.4184544486
 11
39.8352862335
 21
2.4270996517
  0
ARC
  8
LS-12V-100-W8-28359
 62
7
  6
BYLAYER
 10
40.0907787686
 20
2.4314222136
 40
0.2555290983
 50
160.1190365147
 51
180.9692687312
  0
ARC
  8
LS-12V-100-W8-28359
 62
7
  6
BYLAYER
 10
40.032020135
 20
2.450352549
 40
0.193847082
 50
135.1351303734
 51
159.4747438859
  0
ARC
  8
LS-12V-100-W8-28359
 62
7
  6
BYLAYER
 10
40.0328535355
 20
2.451589719
 40
0.1935705699
 50
95.5684905604
 51
135.5687020976
  0
LINE
  8
LS-12V-100-W8-28359
 62
7
  6
BYLAYER
 10
40.0140703056
 20
2.6442468128
 11
40.0176936628
 21
2.6442468128
  0
LINE
  8
LS-12V-100-W8-28359
 62
7
  6
BYLAYER
 10
40.0176936628
 20
2.6442468128
 11
40.0256396216
 21
2.6431661624
  0
LINE
  8
LS-12V-100-W8-28359
 62
7
  6
BYLAYER
 10
40.0256396216
 20
2.6431661624
 11
40.0343483924
 21
2.6420855121
  0
LINE
  8
LS-12V-100-W8-28359
 62
7
  6
BYLAYER
 10
40.0343483924
 20
2.6420855121
 11
40.0636530883
 21
2.6345209593
  0
ARC
  8
LS-12V-100-W8-28359
 62
7
  6
BYLAYER
 10
40.0001696147
 20
2.4369479272
 40
0.2075216963
 50
54.3289773468
 51
72.1869316133
  0
LINE
  8
LS-12V-100-W8-28359
 62
7
  6
BYLAYER
 10
40.1211818298
 20
2.6055341017
 11
40.1479756027
 21
2.5841753646
  0
LINE
  8
LS-12V-100-W8-28359
 62
7
  6
BYLAYER
 10
40.1479756027
 20
2.5841753646
 11
40.1827153345
 21
2.5841753646
  0
LINE
  8
LS-12V-100-W8-28359
 62
7
  6
BYLAYER
 10
40.1827153345
 20
2.5841753646
 11
40.2001010922
 21
2.6399242113
  0
ARC
  8
LS-12V-100-W8-28359
 62
7
  6
BYLAYER
 10
40.1113128453
 20
2.4973401281
 40
0.1679689661
 50
58.0891485032
 51
67.5454670453
  0
ARC
  8
LS-12V-100-W8-28359
 62
7
  6
BYLAYER
 10
40.0788218614
 20
2.406121046
 40
0.2647257865
 50
68.5873384549
 51
81.3423857767
  0
LINE
  8
LS-12V-100-W8-28359
 62
7
  6
BYLAYER
 10
40.1186709068
 20
2.6678304185
 11
40.0886351827
 21
2.6710723696
  0
LINE
  8
LS-12V-100-W8-28359
 62
7
  6
BYLAYER
 10
40.0886351827
 20
2.6710723696
 11
40.0574870243
 21
2.6732336704
  0
ARC
  8
LS-12V-100-W8-28359
 62
7
  6
BYLAYER
 10
40.053860838
 20
2.7481337215
 40
0.0749877782
 50
261.6918862419
 51
272.7717347724
  0
ARC
  8
LS-12V-100-W8-28359
 62
7
  6
BYLAYER
 10
40.0393888202
 20
2.74290727
 40
0.0690701545
 50
260.9563938617
 51
273.01803113
  0
LINE
  8
LS-12V-100-W8-28359
 62
7
  6
BYLAYER
 10
40.0285319506
 20
2.6746957268
 11
39.9995768769
 21
2.6739329148
  0
ARC
  8
LS-12V-100-W8-28359
 62
7
  6
BYLAYER
 10
39.9950884881
 20
2.3699098064
 40
0.3040562383
 50
89.1541858308
 51
110.4524797125
  0
ARC
  8
LS-12V-100-W8-28359
 62
7
  6
BYLAYER
 10
39.9724079899
 20
2.4387617332
 40
0.2316363442
 50
111.1471074555
 51
136.8410387208
  0
ARC
  8
LS-12V-100-W8-28359
 62
7
  6
BYLAYER
 10
40.002366923
 20
2.4099344791
 40
0.273209232
 50
136.728707552
 51
157.5391803557
  0
ARC
  8
LS-12V-100-W8-28359
 62
7
  6
BYLAYER
 10
39.981691474
 20
2.4208776896
 40
0.2499311373
 50
158.0467340334
 51
180.3952229121
  0
LINE
  8
LS-12V-100-W8-28359
 62
7
  6
BYLAYER
 10
37.0847767153
 20
2.6689746365
 11
37.394700891
 21
2.3280612217
  0
LINE
  8
LS-12V-100-W8-28359
 62
7
  6
BYLAYER
 10
37.394700891
 20
2.3280612217
 11
37.394700891
 21
2.6689746365
  0
LINE
  8
LS-12V-100-W8-28359
 62
7
  6
BYLAYER
 10
37.394700891
 20
2.6689746365
 11
37.4672316026
 21
2.6689746365
  0
LINE
  8
LS-12V-100-W8-28359
 62
7
  6
BYLAYER
 10
37.4672316026
 20
2.6689746365
 11
37.4672316026
 21
2.1808384977
  0
LINE
  8
LS-12V-100-W8-28359
 62
7
  6
BYLAYER
 10
37.4672316026
 20
2.1808384977
 11
37.4115781074
 21
2.1808384977
  0
LINE
  8
LS-12V-100-W8-28359
 62
7
  6
BYLAYER
 10
37.4115781074
 20
2.1808384977
 11
37.0953289486
 21
2.5322405781
  0
LINE
  8
LS-12V-100-W8-28359
 62
7
  6
BYLAYER
 10
37.0953289486
 20
2.5322405781
 11
37.0953289486
 21
2.1808384977
  0
LINE
  8
LS-12V-100-W8-28359
 62
7
  6
BYLAYER
 10
37.0953289486
 20
2.1808384977
 11
37.0227664531
 21
2.1808384977
  0
LINE
  8
LS-12V-100-W8-28359
 62
7
  6
BYLAYER
 10
37.0227664531
 20
2.1808384977
 11
37.0227664531
 21
2.6689746365
  0
LINE
  8
LS-12V-100-W8-28359
 62
7
  6
BYLAYER
 10
37.0227664531
 20
2.6689746365
 11
37.0847767153
 21
2.6689746365
  0
LINE
  8
LS-12V-100-W8-28359
 62
7
  6
BYLAYER
 10
39.6424522047
 20
3.9429190282
 11
39.6424522047
 21
4.064899122
  0
LINE
  8
LS-12V-100-W8-28359
 62
7
  6
BYLAYER
 10
39.6424522047
 20
4.064899122
 11
38.9293378098
 21
4.064899122
  0
LINE
  8
LS-12V-100-W8-28359
 62
7
  6
BYLAYER
 10
38.9293378098
 20
4.064899122
 11
38.9293378098
 21
3.9429190282
  0
LINE
  8
LS-12V-100-W8-28359
 62
7
  6
BYLAYER
 10
38.9293378098
 20
3.9429190282
 11
39.6424522047
 21
3.9429190282
  0
LINE
  8
LS-12V-100-W8-28359
 62
7
  6
BYLAYER
 10
38.9293378098
 20
4.1605927816
 11
39.6424522047
 21
4.1605927816
  0
LINE
  8
LS-12V-100-W8-28359
 62
7
  6
BYLAYER
 10
39.6424522047
 20
4.1605927816
 11
39.6424522047
 21
4.2863675051
  0
LINE
  8
LS-12V-100-W8-28359
 62
7
  6
BYLAYER
 10
39.6424522047
 20
4.2863675051
 11
38.9293378098
 21
4.2863675051
  0
LINE
  8
LS-12V-100-W8-28359
 62
7
  6
BYLAYER
 10
38.9293378098
 20
4.2863675051
 11
38.9293378098
 21
4.1605927816
  0
LINE
  8
LS-12V-100-W8-28359
 62
7
  6
BYLAYER
 10
39.6424522047
 20
4.4965899859
 11
38.9293378098
 21
4.4965899859
  0
LINE
  8
LS-12V-100-W8-28359
 62
7
  6
BYLAYER
 10
38.9293378098
 20
4.4965899859
 11
38.9293378098
 21
4.382130158
  0
LINE
  8
LS-12V-100-W8-28359
 62
7
  6
BYLAYER
 10
38.9293378098
 20
4.382130158
 11
39.6424522047
 21
4.382130158
  0
LINE
  8
LS-12V-100-W8-28359
 62
7
  6
BYLAYER
 10
39.6424522047
 20
4.382130158
 11
39.6424522047
 21
4.4965899859
  0
LINE
  8
LS-12V-100-W8-28359
 62
7
  6
BYLAYER
 10
33.7608980641
 20
3.8585146173
 11
33.7608980641
 21
3.1058152601
  0
LINE
  8
LS-12V-100-W8-28359
 62
7
  6
BYLAYER
 10
33.9330944299
 20
3.1058152601
 11
33.7608980641
 21
3.1058152601
  0
LINE
  8
LS-12V-100-W8-28359
 62
7
  6
BYLAYER
 10
33.9330944299
 20
3.1064542077
 11
33.9330944299
 21
4.0592048792
  0
LINE
  8
LS-12V-100-W8-28359
 62
7
  6
BYLAYER
 10
33.9330944299
 20
4.0592048792
 11
34.1524830565
 21
4.2905372992
  0
LINE
  8
LS-12V-100-W8-28359
 62
7
  6
BYLAYER
 10
33.9817065413
 20
4.389629845
 11
34.1524830565
 21
4.2905372992
  0
LINE
  8
LS-12V-100-W8-28359
 62
7
  6
BYLAYER
 10
33.4833779393
 20
3.815917854
 11
33.5819053483
 21
3.6745004811
  0
LINE
  8
LS-12V-100-W8-28359
 62
7
  6
BYLAYER
 10
33.5048571646
 20
4.3086548071
 11
33.6310268238
 21
4.1861671419
  0
LINE
  8
LS-12V-100-W8-28359
 62
7
  6
BYLAYER
 10
33.6310268238
 20
4.1861671419
 11
34.1302475182
 21
4.6842349017
  0
LINE
  8
LS-12V-100-W8-28359
 62
7
  6
BYLAYER
 10
34.1302475182
 20
4.6842349017
 11
33.910328889
 21
4.7608732119
  0
LINE
  8
LS-12V-100-W8-28359
 62
7
  6
BYLAYER
 10
34.1739776578
 20
4.6121989949
 11
34.1739776578
 21
4.4847250286
  0
LINE
  8
LS-12V-100-W8-28359
 62
7
  6
BYLAYER
 10
34.1751550169
 20
4.4847496878
 11
34.6999199652
 21
4.4957406154
  0
LINE
  8
LS-12V-100-W8-28359
 62
7
  6
BYLAYER
 10
34.1739776578
 20
4.6121989949
 11
34.7170014136
 21
4.6029323779
  0
LINE
  8
LS-12V-100-W8-28359
 62
7
  6
BYLAYER
 10
34.7175151623
 20
4.7904506528
 11
34.7170014136
 21
4.6029323779
  0
LINE
  8
LS-12V-100-W8-28359
 62
7
  6
BYLAYER
 10
34.9452510708
 20
4.7592867916
 11
34.8816991376
 21
4.6033588243
  0
LINE
  8
LS-12V-100-W8-28359
 62
7
  6
BYLAYER
 10
34.9452510708
 20
4.7592867916
 11
34.7175151623
 21
4.7904506528
  0
LINE
  8
LS-12V-100-W8-28359
 62
7
  6
BYLAYER
 10
34.8816991376
 20
4.6033588243
 11
35.5481941097
 21
4.6084496201
  0
LINE
  8
LS-12V-100-W8-28359
 62
7
  6
BYLAYER
 10
35.5481941097
 20
4.4860410976
 11
34.8486959356
 21
4.4951303075
  0
LINE
  8
LS-12V-100-W8-28359
 62
7
  6
BYLAYER
 10
34.8486959356
 20
4.4951303075
 11
34.8164313202
 21
4.354169788
  0
LINE
  8
LS-12V-100-W8-28359
 62
7
  6
BYLAYER
 10
34.700221016
 20
4.4970595759
 11
34.6677479506
 21
4.3547889675
  0
LINE
  8
LS-12V-100-W8-28359
 62
7
  6
BYLAYER
 10
34.6677479506
 20
4.3547889675
 11
34.2448058228
 21
4.3659606506
  0
LINE
  8
LS-12V-100-W8-28359
 62
7
  6
BYLAYER
 10
34.2448058228
 20
4.3659606506
 11
34.2429401781
 21
3.9239992238
  0
LINE
  8
LS-12V-100-W8-28359
 62
7
  6
BYLAYER
 10
34.2429401781
 20
3.9239992238
 11
35.4535303688
 21
3.9238169884
  0
LINE
  8
LS-12V-100-W8-28359
 62
7
  6
BYLAYER
 10
35.4555426487
 20
4.3653111899
 11
35.4535303688
 21
3.9238169884
  0
LINE
  8
LS-12V-100-W8-28359
 62
7
  6
BYLAYER
 10
35.4555426487
 20
4.3653111899
 11
34.8164313202
 21
4.354169788
  0
LINE
  8
LS-12V-100-W8-28359
 62
7
  6
BYLAYER
 10
34.7455861746
 20
4.2506979867
 11
34.9437348338
 21
4.2506979867
  0
LINE
  8
LS-12V-100-W8-28359
 62
7
  6
BYLAYER
 10
35.0949680723
 20
4.2506979867
 11
35.2931167316
 21
4.2506979867
  0
LINE
  8
LS-12V-100-W8-28359
 62
7
  6
BYLAYER
 10
34.4033795764
 20
4.2506979867
 11
34.6015282357
 21
4.2506979867
  0
LINE
  8
LS-12V-100-W8-28359
 62
7
  6
BYLAYER
 10
34.4033795764
 20
4.0367498696
 11
34.6015282357
 21
4.0367498696
  0
LINE
  8
LS-12V-100-W8-28359
 62
7
  6
BYLAYER
 10
34.7455861746
 20
4.0367498696
 11
34.9437348338
 21
4.0367498696
  0
LINE
  8
LS-12V-100-W8-28359
 62
7
  6
BYLAYER
 10
35.0949680723
 20
4.0367498696
 11
35.2931167316
 21
4.0367498696
  0
LINE
  8
LS-12V-100-W8-28359
 62
7
  6
BYLAYER
 10
34.1175905362
 20
3.7022241781
 11
35.5152883107
 21
3.704549082
  0
LINE
  8
LS-12V-100-W8-28359
 62
7
  6
BYLAYER
 10
35.5152883107
 20
3.7074158484
 11
35.5152883107
 21
3.8273208632
  0
LINE
  8
LS-12V-100-W8-28359
 62
7
  6
BYLAYER
 10
35.5152883107
 20
3.8273208632
 11
34.1175905362
 21
3.8287748384
  0
LINE
  8
LS-12V-100-W8-28359
 62
7
  6
BYLAYER
 10
34.1175905362
 20
3.8286626785
 11
34.1175905362
 21
3.7022241781
  0
LINE
  8
LS-12V-100-W8-28359
 62
7
  6
BYLAYER
 10
34.198745905
 20
3.5733770831
 11
34.0092046562
 21
3.2206037558
  0
LINE
  8
LS-12V-100-W8-28359
 62
7
  6
BYLAYER
 10
34.0129175708
 20
3.2195160452
 11
34.2007133589
 21
3.164500652
  0
LINE
  8
LS-12V-100-W8-28359
 62
7
  6
BYLAYER
 10
34.3553270776
 20
3.5511407036
 11
34.2007133589
 21
3.164500652
  0
LINE
  8
LS-12V-100-W8-28359
 62
7
  6
BYLAYER
 10
34.3553270776
 20
3.5511407036
 11
34.198745905
 21
3.5733770831
  0
LINE
  8
LS-12V-100-W8-28359
 62
7
  6
BYLAYER
 10
34.4408979985
 20
3.59685304
 11
34.6015282357
 21
3.5872887969
  0
LINE
  8
LS-12V-100-W8-28359
 62
7
  6
BYLAYER
 10
34.6015933084
 20
3.5872849223
 11
34.6015933084
 21
3.3007645794
  0
LINE
  8
LS-12V-100-W8-28359
 62
7
  6
BYLAYER
 10
34.4408979985
 20
3.59685304
 11
34.4408979985
 21
3.1964505105
  0
LINE
  8
LS-12V-100-W8-28359
 62
7
  6
BYLAYER
 10
34.4408979985
 20
3.1964505105
 11
34.711013077
 21
3.1543752742
  0
LINE
  8
LS-12V-100-W8-28359
 62
7
  6
BYLAYER
 10
34.711013077
 20
3.1543752742
 11
35.0014946088
 21
3.1576498804
  0
LINE
  8
LS-12V-100-W8-28359
 62
7
  6
BYLAYER
 10
35.0014946088
 20
3.1576498804
 11
35.2157816447
 21
3.2237010838
  0
LINE
  8
LS-12V-100-W8-28359
 62
7
  6
BYLAYER
 10
35.2157816447
 20
3.2237010838
 11
35.2976244473
 21
3.3597370936
  0
LINE
  8
LS-12V-100-W8-28359
 62
7
  6
BYLAYER
 10
35.2976244473
 20
3.3597370936
 11
35.1233934062
 21
3.4289735724
  0
LINE
  8
LS-12V-100-W8-28359
 62
7
  6
BYLAYER
 10
35.1233934062
 20
3.4289735724
 11
35.1017295063
 21
3.3303254569
  0
LINE
  8
LS-12V-100-W8-28359
 62
7
  6
BYLAYER
 10
35.1017295063
 20
3.3303254569
 11
35.0221006674
 21
3.2794492579
  0
LINE
  8
LS-12V-100-W8-28359
 62
7
  6
BYLAYER
 10
35.0221006674
 20
3.2794492579
 11
34.8472686429
 21
3.2690663602
  0
LINE
  8
LS-12V-100-W8-28359
 62
7
  6
BYLAYER
 10
34.8472686429
 20
3.2690663602
 11
34.670919118
 21
3.2756954411
  0
LINE
  8
LS-12V-100-W8-28359
 62
7
  6
BYLAYER
 10
34.670919118
 20
3.2756954411
 11
34.6015933084
 21
3.3007645794
  0
LINE
  8
LS-12V-100-W8-28359
 62
7
  6
BYLAYER
 10
34.9105102995
 20
3.6758755311
 11
35.0320177245
 21
3.4424138268
  0
LINE
  8
LS-12V-100-W8-28359
 62
7
  6
BYLAYER
 10
35.0320177245
 20
3.4424138268
 11
34.8471932442
 21
3.3894202352
  0
LINE
  8
LS-12V-100-W8-28359
 62
7
  6
BYLAYER
 10
34.8471932442
 20
3.3894202352
 11
34.7338700898
 21
3.6354663325
  0
LINE
  8
LS-12V-100-W8-28359
 62
7
  6
BYLAYER
 10
34.7338700898
 20
3.6354663325
 11
34.9105102995
 21
3.6758755311
  0
LINE
  8
LS-12V-100-W8-28359
 62
7
  6
BYLAYER
 10
35.1610815918
 20
3.5534090199
 11
35.3056566881
 21
3.6359072478
  0
LINE
  8
LS-12V-100-W8-28359
 62
7
  6
BYLAYER
 10
35.3056566881
 20
3.6359072478
 11
35.6393879548
 21
3.3513942909
  0
LINE
  8
LS-12V-100-W8-28359
 62
7
  6
BYLAYER
 10
35.6393879548
 20
3.3513942909
 11
35.4636289298
 21
3.2435898293
  0
LINE
  8
LS-12V-100-W8-28359
 62
7
  6
BYLAYER
 10
35.4636289298
 20
3.2435898293
 11
35.1610815918
 21
3.5534090199
  0
LINE
  8
LS-12V-100-W8-28359
 62
7
  6
BYLAYER
 10
36.0478892886
 20
3.6105232024
 11
35.8820303489
 21
3.2238678194
  0
LINE
  8
LS-12V-100-W8-28359
 62
7
  6
BYLAYER
 10
35.8820303489
 20
3.2238678194
 11
36.1067361993
 21
3.1882102713
  0
LINE
  8
LS-12V-100-W8-28359
 62
7
  6
BYLAYER
 10
36.1067361993
 20
3.1882102713
 11
36.2443352079
 21
3.5726611324
  0
LINE
  8
LS-12V-100-W8-28359
 62
7
  6
BYLAYER
 10
36.2450489158
 20
3.5746552284
 11
36.0478892886
 21
3.6105232024
  0
LINE
  8
LS-12V-100-W8-28359
 62
7
  6
BYLAYER
 10
36.4346650374
 20
3.6446193136
 11
36.4367496623
 21
3.2530572845
  0
LINE
  8
LS-12V-100-W8-28359
 62
7
  6
BYLAYER
 10
36.4367496623
 20
3.2530572845
 11
36.4788212222
 21
3.1789747551
  0
LINE
  8
LS-12V-100-W8-28359
 62
7
  6
BYLAYER
 10
36.4788212222
 20
3.1789747551
 11
36.6325679774
 21
3.1383217169
  0
LINE
  8
LS-12V-100-W8-28359
 62
7
  6
BYLAYER
 10
36.6325679774
 20
3.1383217169
 11
37.275748559
 21
3.140318428
  0
LINE
  8
LS-12V-100-W8-28359
 62
7
  6
BYLAYER
 10
37.275748559
 20
3.140318428
 11
37.3981070156
 21
3.1677931729
  0
LINE
  8
LS-12V-100-W8-28359
 62
7
  6
BYLAYER
 10
37.3981070156
 20
3.1677931729
 11
37.4921121745
 21
3.243508458
  0
LINE
  8
LS-12V-100-W8-28359
 62
7
  6
BYLAYER
 10
37.4921121745
 20
3.243508458
 11
37.5745944642
 21
3.4055773826
  0
LINE
  8
LS-12V-100-W8-28359
 62
7
  6
BYLAYER
 10
37.5745944642
 20
3.4055773826
 11
37.355066155
 21
3.4882317274
  0
LINE
  8
LS-12V-100-W8-28359
 62
7
  6
BYLAYER
 10
37.3519967852
 20
3.4893873722
 11
37.3278227846
 21
3.3728953377
  0
LINE
  8
LS-12V-100-W8-28359
 62
7
  6
BYLAYER
 10
37.3278227846
 20
3.3728953377
 11
37.3011467242
 21
3.3165082161
  0
LINE
  8
LS-12V-100-W8-28359
 62
7
  6
BYLAYER
 10
37.3011467242
 20
3.3165082161
 11
37.2450790764
 21
3.2797687317
  0
LINE
  8
LS-12V-100-W8-28359
 62
7
  6
BYLAYER
 10
37.2450790764
 20
3.2797687317
 11
37.108024826
 21
3.2609197789
  0
LINE
  8
LS-12V-100-W8-28359
 62
7
  6
BYLAYER
 10
37.108024826
 20
3.2609197789
 11
36.7538881442
 21
3.2615587264
  0
LINE
  8
LS-12V-100-W8-28359
 62
7
  6
BYLAYER
 10
36.7538881442
 20
3.2615587264
 11
36.6665120662
 21
3.2777720206
  0
LINE
  8
LS-12V-100-W8-28359
 62
7
  6
BYLAYER
 10
36.6665120662
 20
3.2777720206
 11
36.6363217942
 21
3.3141920312
  0
LINE
  8
LS-12V-100-W8-28359
 62
7
  6
BYLAYER
 10
36.6363217942
 20
3.3141920312
 11
36.6299323187
 21
3.5374243329
  0
LINE
  8
LS-12V-100-W8-28359
 62
7
  6
BYLAYER
 10
36.6299323187
 20
3.5374243329
 11
36.6695882369
 21
3.6244306012
  0
LINE
  8
LS-12V-100-W8-28359
 62
7
  6
BYLAYER
 10
36.6695882369
 20
3.6244306012
 11
36.4346650374
 21
3.6446193136
  0
LINE
  8
LS-12V-100-W8-28359
 62
7
  6
BYLAYER
 10
36.828825053
 20
3.6616351994
 11
37.0303710904
 21
3.4047134443
  0
LINE
  8
LS-12V-100-W8-28359
 62
7
  6
BYLAYER
 10
37.0303710904
 20
3.4047134443
 11
37.2182261612
 21
3.4777251573
  0
LINE
  8
LS-12V-100-W8-28359
 62
7
  6
BYLAYER
 10
37.2182261612
 20
3.4777251573
 11
37.0106237808
 21
3.7216926704
  0
LINE
  8
LS-12V-100-W8-28359
 62
7
  6
BYLAYER
 10
37.0106237808
 20
3.7216926704
 11
36.828825053
 21
3.6616351994
  0
LINE
  8
LS-12V-100-W8-28359
 62
7
  6
BYLAYER
 10
37.5206111465
 20
3.5883213096
 11
37.8395793041
 21
3.2705070916
  0
LINE
  8
LS-12V-100-W8-28359
 62
7
  6
BYLAYER
 10
37.8395793041
 20
3.2705070916
 11
38.0292768657
 21
3.3831938403
  0
LINE
  8
LS-12V-100-W8-28359
 62
7
  6
BYLAYER
 10
38.023210228
 20
3.3795900529
 11
37.6683458752
 21
3.6776426906
  0
LINE
  8
LS-12V-100-W8-28359
 62
7
  6
BYLAYER
 10
37.6683458752
 20
3.6776426906
 11
37.5206111465
 21
3.5883213096
  0
LINE
  8
LS-12V-100-W8-28359
 62
7
  6
BYLAYER
 10
37.7007793401
 20
4.7019645205
 11
37.7009944004
 21
3.7505375778
  0
LINE
  8
LS-12V-100-W8-28359
 62
7
  6
BYLAYER
 10
37.7009944004
 20
3.7505375778
 11
36.122619081
 21
3.7513578444
  0
LINE
  8
LS-12V-100-W8-28359
 62
7
  6
BYLAYER
 10
36.122619081
 20
3.7513578444
 11
36.1284695483
 21
4.6993411935
  0
LINE
  8
LS-12V-100-W8-28359
 62
7
  6
BYLAYER
 10
36.1284695483
 20
4.6993411935
 11
37.7007793401
 21
4.7019645205
  0
LINE
  8
LS-12V-100-W8-28359
 62
7
  6
BYLAYER
 10
36.3249800142
 20
4.571654659
 11
36.3249800142
 21
3.8772144414
  0
LINE
  8
LS-12V-100-W8-28359
 62
7
  6
BYLAYER
 10
36.3249800142
 20
3.8772144414
 11
37.4986934512
 21
3.8772144414
  0
LINE
  8
LS-12V-100-W8-28359
 62
7
  6
BYLAYER
 10
37.4986934512
 20
3.8772144414
 11
37.4986934512
 21
4.571654659
  0
LINE
  8
LS-12V-100-W8-28359
 62
7
  6
BYLAYER
 10
37.4986934512
 20
4.571654659
 11
36.3249800142
 21
4.571654659
  0
LINE
  8
LS-12V-100-W8-28359
 62
7
  6
BYLAYER
 10
36.4901625413
 20
4.3829915522
 11
36.8173719081
 21
4.3813151929
  0
LINE
  8
LS-12V-100-W8-28359
 62
7
  6
BYLAYER
 10
36.8262489547
 20
4.5119790897
 11
36.8173719081
 21
4.3813151929
  0
LINE
  8
LS-12V-100-W8-28359
 62
7
  6
BYLAYER
 10
37.0243226964
 20
4.4841050027
 11
36.9900631858
 21
4.3724120062
  0
LINE
  8
LS-12V-100-W8-28359
 62
7
  6
BYLAYER
 10
36.9900631858
 20
4.3724120062
 11
37.3568948983
 21
4.3837355375
  0
LINE
  8
LS-12V-100-W8-28359
 62
7
  6
BYLAYER
 10
37.3568948983
 20
4.3837355375
 11
37.3568948983
 21
4.2585488669
  0
LINE
  8
LS-12V-100-W8-28359
 62
7
  6
BYLAYER
 10
37.3568948983
 20
4.2585488669
 11
36.9638320051
 21
4.2717753146
  0
LINE
  8
LS-12V-100-W8-28359
 62
7
  6
BYLAYER
 10
36.9638320051
 20
4.2717753146
 11
36.9373863378
 21
4.206315742
  0
LINE
  8
LS-12V-100-W8-28359
 62
7
  6
BYLAYER
 10
36.9373863378
 20
4.206315742
 11
37.3939893703
 21
4.0456591194
  0
LINE
  8
LS-12V-100-W8-28359
 62
7
  6
BYLAYER
 10
36.8013148388
 20
4.2718305298
 11
36.4882456986
 21
4.259435069
  0
LINE
  8
LS-12V-100-W8-28359
 62
7
  6
BYLAYER
 10
36.4737096417
 20
4.3635036518
 11
36.4737096417
 21
4.2621505961
  0
LINE
  8
LS-12V-100-W8-28359
 62
7
  6
BYLAYER
 10
36.8013148388
 20
4.2718305298
 11
36.7439045887
 21
4.1774101767
  0
LINE
  8
LS-12V-100-W8-28359
 62
7
  6
BYLAYER
 10
36.7439045887
 20
4.1774101767
 11
36.6522156147
 21
4.1035318658
  0
LINE
  8
LS-12V-100-W8-28359
 62
7
  6
BYLAYER
 10
36.6522156147
 20
4.1035318658
 11
36.5130049163
 21
4.0495407975
  0
LINE
  8
LS-12V-100-W8-28359
 62
7
  6
BYLAYER
 10
36.5130049163
 20
4.0495407975
 11
36.3915396547
 21
4.0209791985
  0
LINE
  8
LS-12V-100-W8-28359
 62
7
  6
BYLAYER
 10
36.3915396547
 20
4.0209791985
 11
36.4701954302
 21
3.9615257719
  0
LINE
  8
LS-12V-100-W8-28359
 62
7
  6
BYLAYER
 10
36.4701954302
 20
3.9615257719
 11
36.5197489994
 21
3.9072570516
  0
LINE
  8
LS-12V-100-W8-28359
 62
7
  6
BYLAYER
 10
36.5197489994
 20
3.9072570516
 11
36.6762560164
 21
3.9680749843
  0
LINE
  8
LS-12V-100-W8-28359
 62
7
  6
BYLAYER
 10
36.6762560164
 20
3.9680749843
 11
36.8054831592
 21
4.0456272437
  0
LINE
  8
LS-12V-100-W8-28359
 62
7
  6
BYLAYER
 10
36.8054831592
 20
4.0456272437
 11
36.8755072628
 21
4.113968846
  0
LINE
  8
LS-12V-100-W8-28359
 62
7
  6
BYLAYER
 10
36.8755072628
 20
4.113968846
 11
36.9773600512
 21
4.0720636987
  0
LINE
  8
LS-12V-100-W8-28359
 62
7
  6
BYLAYER
 10
36.9773600512
 20
4.0720636987
 11
37.135339834
 21
3.9945913078
  0
LINE
  8
LS-12V-100-W8-28359
 62
7
  6
BYLAYER
 10
37.135339834
 20
3.9945913078
 11
37.2600740337
 21
3.9205251163
  0
LINE
  8
LS-12V-100-W8-28359
 62
7
  6
BYLAYER
 10
37.2600740337
 20
3.9205251163
 11
37.3939893703
 21
4.0456591194
  0
LINE
  8
LS-12V-100-W8-28359
 62
7
  6
BYLAYER
 10
38.3699462453
 20
4.6315110012
 11
38.753787393
 21
4.614555532
  0
LINE
  8
LS-12V-100-W8-28359
 62
7
  6
BYLAYER
 10
38.7545926728
 20
4.4971201339
 11
38.3699462453
 21
4.4826865204
  0
LINE
  8
LS-12V-100-W8-28359
 62
7
  6
BYLAYER
 10
38.3699462453
 20
4.6315110012
 11
38.3699462453
 21
4.4826865204
  0
LINE
  8
LS-12V-100-W8-28359
 62
7
  6
BYLAYER
 10
38.9291492584
 20
4.6148496459
 11
39.6419967215
 21
4.6148496459
  0
LINE
  8
LS-12V-100-W8-28359
 62
7
  6
BYLAYER
 10
39.627707983
 20
4.7961805417
 11
39.6419967215
 21
4.6148496459
  0
LINE
  8
LS-12V-100-W8-28359
 62
7
  6
BYLAYER
 10
39.8125300854
 20
4.6818528812
 11
39.8125300854
 21
4.6140333823
  0
LINE
  8
LS-12V-100-W8-28359
 62
7
  6
BYLAYER
 10
39.8125300854
 20
4.6140333823
 11
40.2280057325
 21
4.6307556082
  0
LINE
  8
LS-12V-100-W8-28359
 62
7
  6
BYLAYER
 10
40.2280057325
 20
4.6307556082
 11
40.2280057325
 21
4.4818173545
  0
LINE
  8
LS-12V-100-W8-28359
 62
7
  6
BYLAYER
 10
40.2280057325
 20
4.4818173545
 11
39.8125300854
 21
4.4974199807
  0
LINE
  8
LS-12V-100-W8-28359
 62
7
  6
BYLAYER
 10
38.730504878
 20
4.7756853186
 11
38.753787393
 21
4.614555532
  0
LINE
  8
LS-12V-100-W8-28359
 62
7
  6
BYLAYER
 10
38.730504878
 20
4.7756853186
 11
38.8908482387
 21
4.7611686358
  0
LINE
  8
LS-12V-100-W8-28359
 62
7
  6
BYLAYER
 10
38.8908482387
 20
4.7611686358
 11
38.9851214324
 21
4.7598756119
  0
LINE
  8
LS-12V-100-W8-28359
 62
7
  6
BYLAYER
 10
38.9851214324
 20
4.7598756119
 11
38.9426029906
 21
4.7178000705
  0
LINE
  8
LS-12V-100-W8-28359
 62
7
  6
BYLAYER
 10
38.9426029906
 20
4.7178000705
 11
38.9301435133
 21
4.67778598
  0
LINE
  8
LS-12V-100-W8-28359
 62
7
  6
BYLAYER
 10
38.9301435133
 20
4.67778598
 11
38.9291492584
 21
4.6148496459
  0
LINE
  8
LS-12V-100-W8-28359
 62
7
  6
BYLAYER
 10
39.627707983
 20
4.7961805417
 11
39.698477947
 21
4.7875252224
  0
LINE
  8
LS-12V-100-W8-28359
 62
7
  6
BYLAYER
 10
39.698477947
 20
4.7875252224
 11
39.808137321
 21
4.7804967993
  0
LINE
  8
LS-12V-100-W8-28359
 62
7
  6
BYLAYER
 10
39.808137321
 20
4.7804967993
 11
39.8942219933
 21
4.7785659281
  0
LINE
  8
LS-12V-100-W8-28359
 62
7
  6
BYLAYER
 10
39.8942219933
 20
4.7785659281
 11
39.8269862738
 21
4.7205954661
  0
LINE
  8
LS-12V-100-W8-28359
 62
7
  6
BYLAYER
 10
39.8269862738
 20
4.7205954661
 11
39.8125300854
 21
4.6818528812
  0
LINE
  8
LS-12V-100-W8-28359
 62
7
  6
BYLAYER
 10
38.7545926728
 20
4.4971201339
 11
38.7545926728
 21
3.9422686295
  0
LINE
  8
LS-12V-100-W8-28359
 62
7
  6
BYLAYER
 10
38.7545926728
 20
3.9422686295
 11
38.287202537
 21
3.959290425
  0
LINE
  8
LS-12V-100-W8-28359
 62
7
  6
BYLAYER
 10
38.287202537
 20
3.8153604597
 11
38.8889219541
 21
3.8328469524
  0
LINE
  8
LS-12V-100-W8-28359
 62
7
  6
BYLAYER
 10
38.287202537
 20
3.959290425
 11
38.287202537
 21
3.8153604597
  0
LINE
  8
LS-12V-100-W8-28359
 62
7
  6
BYLAYER
 10
38.8889219541
 20
3.8328469524
 11
38.5771249897
 21
3.6422117317
  0
LINE
  8
LS-12V-100-W8-28359
 62
7
  6
BYLAYER
 10
38.5771249897
 20
3.6422117317
 11
38.2295359419
 21
3.5059596618
  0
LINE
  8
LS-12V-100-W8-28359
 62
7
  6
BYLAYER
 10
38.2295359419
 20
3.5059596618
 11
38.3014191201
 21
3.4666608913
  0
LINE
  8
LS-12V-100-W8-28359
 62
7
  6
BYLAYER
 10
38.3014191201
 20
3.4666608913
 11
38.3779812193
 21
3.3852070086
  0
LINE
  8
LS-12V-100-W8-28359
 62
7
  6
BYLAYER
 10
38.3791603266
 20
3.3846287811
 11
38.6785579139
 21
3.5339101213
  0
LINE
  8
LS-12V-100-W8-28359
 62
7
  6
BYLAYER
 10
38.6785579139
 20
3.5339101213
 11
38.9509093088
 21
3.7201633333
  0
LINE
  8
LS-12V-100-W8-28359
 62
7
  6
BYLAYER
 10
38.9509093088
 20
3.7201633333
 11
39.0518615125
 21
3.8182417829
  0
LINE
  8
LS-12V-100-W8-28359
 62
7
  6
BYLAYER
 10
38.830307958
 20
3.5765663616
 11
39.2178240272
 21
3.5633867073
  0
LINE
  8
LS-12V-100-W8-28359
 62
7
  6
BYLAYER
 10
39.2175101757
 20
3.4588944675
 11
38.830307958
 21
3.4441504379
  0
LINE
  8
LS-12V-100-W8-28359
 62
7
  6
BYLAYER
 10
38.830307958
 20
3.5765663616
 11
38.830307958
 21
3.4441504379
  0
LINE
  8
LS-12V-100-W8-28359
 62
7
  6
BYLAYER
 10
39.2011187871
 20
3.7547836755
 11
39.2160725437
 21
3.6209667256
  0
LINE
  8
LS-12V-100-W8-28359
 62
7
  6
BYLAYER
 10
39.2160725437
 20
3.6209667256
 11
39.2178240272
 21
3.5633867073
  0
LINE
  8
LS-12V-100-W8-28359
 62
7
  6
BYLAYER
 10
39.2011187871
 20
3.7547836755
 11
39.2755745347
 21
3.7481172888
  0
LINE
  8
LS-12V-100-W8-28359
 62
7
  6
BYLAYER
 10
39.2755745347
 20
3.7481172888
 11
39.3858728562
 21
3.7439641297
  0
LINE
  8
LS-12V-100-W8-28359
 62
7
  6
BYLAYER
 10
39.3858728562
 20
3.7439641297
 11
39.4509458044
 21
3.7420175031
  0
LINE
  8
LS-12V-100-W8-28359
 62
7
  6
BYLAYER
 10
39.4509458044
 20
3.7420175031
 11
39.397693386
 21
3.6939664836
  0
LINE
  8
LS-12V-100-W8-28359
 62
7
  6
BYLAYER
 10
39.397693386
 20
3.6939664836
 11
39.3858728562
 21
3.6577062099
  0
LINE
  8
LS-12V-100-W8-28359
 62
7
  6
BYLAYER
 10
39.3858728562
 20
3.6577062099
 11
39.3851559853
 21
3.5636168954
  0
LINE
  8
LS-12V-100-W8-28359
 62
7
  6
BYLAYER
 10
39.3851559853
 20
3.5636168954
 11
39.5910548895
 21
3.5678542101
  0
LINE
  8
LS-12V-100-W8-28359
 62
7
  6
BYLAYER
 10
39.5910548895
 20
3.5678542101
 11
39.7678037567
 21
3.5763598404
  0
LINE
  8
LS-12V-100-W8-28359
 62
7
  6
BYLAYER
 10
39.7678037567
 20
3.5763598404
 11
39.7678037567
 21
3.4443752451
  0
LINE
  8
LS-12V-100-W8-28359
 62
7
  6
BYLAYER
 10
39.7678037567
 20
3.4443752451
 11
39.3852339087
 21
3.4583042221
  0
LINE
  8
LS-12V-100-W8-28359
 62
7
  6
BYLAYER
 10
39.3852339087
 20
3.4583042221
 11
39.3852339087
 21
3.2964141194
  0
LINE
  8
LS-12V-100-W8-28359
 62
7
  6
BYLAYER
 10
39.2175101757
 20
3.4588944675
 11
39.2175101757
 21
3.2962141318
  0
LINE
  8
LS-12V-100-W8-28359
 62
7
  6
BYLAYER
 10
39.2175101757
 20
3.2962141318
 11
38.4643507464
 21
3.3109162803
  0
LINE
  8
LS-12V-100-W8-28359
 62
7
  6
BYLAYER
 10
38.4643507464
 20
3.3109162803
 11
38.4643507464
 21
3.165140682
  0
LINE
  8
LS-12V-100-W8-28359
 62
7
  6
BYLAYER
 10
38.4643507464
 20
3.165140682
 11
39.3698991674
 21
3.1789747551
  0
LINE
  8
LS-12V-100-W8-28359
 62
7
  6
BYLAYER
 10
39.3698991674
 20
3.1789747551
 11
40.145581498
 21
3.1649992508
  0
LINE
  8
LS-12V-100-W8-28359
 62
7
  6
BYLAYER
 10
40.145581498
 20
3.1649992508
 11
40.145581498
 21
3.3112951067
  0
LINE
  8
LS-12V-100-W8-28359
 62
7
  6
BYLAYER
 10
40.145581498
 20
3.3112951067
 11
39.3852339087
 21
3.2964141194
  0
LINE
  8
LS-12V-100-W8-28359
 62
7
  6
BYLAYER
 10
40.1741282563
 20
3.4122918941
 11
39.8851305013
 21
3.5569122333
  0
LINE
  8
LS-12V-100-W8-28359
 62
7
  6
BYLAYER
 10
39.8851305013
 20
3.5569122333
 11
39.6681279382
 21
3.7257541244
  0
LINE
  8
LS-12V-100-W8-28359
 62
7
  6
BYLAYER
 10
39.6681279382
 20
3.7257541244
 11
39.6026358139
 21
3.8182417829
  0
LINE
  8
LS-12V-100-W8-28359
 62
7
  6
BYLAYER
 10
39.7623089863
 20
3.8329735265
 11
39.8848110275
 21
3.7293482044
  0
LINE
  8
LS-12V-100-W8-28359
 62
7
  6
BYLAYER
 10
39.8848110275
 20
3.7293482044
 11
40.0598027889
 21
3.6426909424
  0
LINE
  8
LS-12V-100-W8-28359
 62
7
  6
BYLAYER
 10
40.0598027889
 20
3.6426909424
 11
40.2934064003
 21
3.5854048879
  0
LINE
  8
LS-12V-100-W8-28359
 62
7
  6
BYLAYER
 10
40.2934064003
 20
3.5854048879
 11
40.2395866569
 21
3.5363061747
  0
LINE
  8
LS-12V-100-W8-28359
 62
7
  6
BYLAYER
 10
40.2395866569
 20
3.5363061747
 11
40.1949401965
 21
3.4701751028
  0
LINE
  8
LS-12V-100-W8-28359
 62
7
  6
BYLAYER
 10
40.1949401965
 20
3.4701751028
 11
40.1741282563
 21
3.4122918941
  0
LINE
  8
LS-12V-100-W8-28359
 62
7
  6
BYLAYER
 10
40.2896641714
 20
3.8136716374
 11
39.7623089863
 21
3.8329735265
  0
LINE
  8
LS-12V-100-W8-28359
 62
7
  6
BYLAYER
 10
40.2896641714
 20
3.9591991999
 11
39.8125300854
 21
3.9422064294
  0
LINE
  8
LS-12V-100-W8-28359
 62
7
  6
BYLAYER
 10
40.2896641714
 20
3.9591991999
 11
40.2896641714
 21
3.8136716374
  0
LINE
  8
LS-12V-100-W8-28359
 62
7
  6
BYLAYER
 10
39.8125300854
 20
4.4974199807
 11
39.8125300854
 21
3.9422064294
  0
LINE
  8
LS-12V-100-W8-28359
 62
7
  6
BYLAYER
 10
40.5901292587
 20
4.7365691549
 11
40.5901292587
 21
3.166195804
  0
LINE
  8
LS-12V-100-W8-28359
 62
7
  6
BYLAYER
 10
40.669997703
 20
3.0863273597
 11
41.403509495
 21
3.0863273597
  0
LINE
  8
LS-12V-100-W8-28359
 62
7
  6
BYLAYER
 10
41.4833779393
 20
3.166195804
 11
41.4833779393
 21
4.7365691549
  0
LINE
  8
LS-12V-100-W8-28359
 62
7
  6
BYLAYER
 10
41.403509495
 20
4.8164375992
 11
40.669997703
 21
4.8164375992
  0
LINE
  8
LS-12V-100-W8-28359
 62
7
  6
BYLAYER
 10
40.9968696227
 20
4.5819438469
 11
40.7076956087
 21
4.5819438469
  0
LINE
  8
LS-12V-100-W8-28359
 62
7
  6
BYLAYER
 10
40.7076956087
 20
4.5819438469
 11
40.7076956087
 21
4.4795525013
  0
LINE
  8
LS-12V-100-W8-28359
 62
7
  6
BYLAYER
 10
40.7076956087
 20
4.4795525013
 11
40.9859184974
 21
4.4795525013
  0
LINE
  8
LS-12V-100-W8-28359
 62
7
  6
BYLAYER
 10
41.0450767871
 20
4.4795525013
 11
41.3658115893
 21
4.4795525013
  0
LINE
  8
LS-12V-100-W8-28359
 62
7
  6
BYLAYER
 10
41.3658115893
 20
4.4795525013
 11
41.3658115893
 21
4.5819438469
  0
LINE
  8
LS-12V-100-W8-28359
 62
7
  6
BYLAYER
 10
41.3658115893
 20
4.5819438469
 11
41.0557635919
 21
4.5819438469
  0
LINE
  8
LS-12V-100-W8-28359
 62
7
  6
BYLAYER
 10
41.0557635919
 20
4.5819438469
 11
41.0670790534
 21
4.7131420356
  0
LINE
  8
LS-12V-100-W8-28359
 62
7
  6
BYLAYER
 10
41.0075741348
 20
4.7306434823
 11
41.0670790534
 21
4.7131420356
  0
LINE
  8
LS-12V-100-W8-28359
 62
7
  6
BYLAYER
 10
41.0075741348
 20
4.7306434823
 11
40.9968696227
 21
4.5819438469
  0
LINE
  8
LS-12V-100-W8-28359
 62
7
  6
BYLAYER
 10
40.9859184974
 20
4.4795525013
 11
40.966886545
 21
4.3466514101
  0
LINE
  8
LS-12V-100-W8-28359
 62
7
  6
BYLAYER
 10
41.0450767871
 20
4.4795525013
 11
41.0275320886
 21
4.3466514101
  0
LINE
  8
LS-12V-100-W8-28359
 62
7
  6
BYLAYER
 10
41.0275320886
 20
4.3466514101
 11
41.3407328978
 21
4.3466514101
  0
LINE
  8
LS-12V-100-W8-28359
 62
7
  6
BYLAYER
 10
41.3407328978
 20
4.3466514101
 11
41.3407328978
 21
4.2442600645
  0
LINE
  8
LS-12V-100-W8-28359
 62
7
  6
BYLAYER
 10
41.3407328978
 20
4.2442600645
 11
41.0106288885
 21
4.2442600645
  0
LINE
  8
LS-12V-100-W8-28359
 62
7
  6
BYLAYER
 10
41.0106288885
 20
4.2442600645
 11
40.974277582
 21
4.0905931778
  0
LINE
  8
LS-12V-100-W8-28359
 62
7
  6
BYLAYER
 10
40.9477332609
 20
4.2442600645
 11
40.9049426189
 21
4.0905931778
  0
LINE
  8
LS-12V-100-W8-28359
 62
7
  6
BYLAYER
 10
40.9477332609
 20
4.2442600645
 11
40.7342119322
 21
4.2442600645
  0
LINE
  8
LS-12V-100-W8-28359
 62
7
  6
BYLAYER
 10
40.7342119322
 20
4.3466514101
 11
40.966886545
 21
4.3466514101
  0
LINE
  8
LS-12V-100-W8-28359
 62
7
  6
BYLAYER
 10
40.7342119322
 20
4.3466514101
 11
40.7342119322
 21
4.2442600645
  0
LINE
  8
LS-12V-100-W8-28359
 62
7
  6
BYLAYER
 10
40.9049426189
 20
4.0905931778
 11
40.6789429687
 21
4.0905931778
  0
LINE
  8
LS-12V-100-W8-28359
 62
7
  6
BYLAYER
 10
40.6789429687
 20
4.0905931778
 11
40.6789429687
 21
3.9880420954
  0
LINE
  8
LS-12V-100-W8-28359
 62
7
  6
BYLAYER
 10
40.6789429687
 20
3.9880420954
 11
40.8711691505
 21
3.9880420954
  0
LINE
  8
LS-12V-100-W8-28359
 62
7
  6
BYLAYER
 10
40.8711691505
 20
3.9880420954
 11
40.6659928062
 21
3.6696422914
  0
LINE
  8
LS-12V-100-W8-28359
 62
7
  6
BYLAYER
 10
40.9427226666
 20
3.9880420954
 11
40.8674778372
 21
3.8167445089
  0
LINE
  8
LS-12V-100-W8-28359
 62
7
  6
BYLAYER
 10
40.9427226666
 20
3.9880420954
 11
41.1279932168
 21
3.9880420954
  0
LINE
  8
LS-12V-100-W8-28359
 62
7
  6
BYLAYER
 10
41.1279932168
 20
3.9880420954
 11
41.1934945248
 21
3.8055992751
  0
LINE
  8
LS-12V-100-W8-28359
 62
7
  6
BYLAYER
 10
41.1888980703
 20
3.9880420954
 11
41.2551139256
 21
3.8557799517
  0
LINE
  8
LS-12V-100-W8-28359
 62
7
  6
BYLAYER
 10
41.2551139256
 20
3.8557799517
 11
41.3315480267
 21
3.7624936088
  0
LINE
  8
LS-12V-100-W8-28359
 62
7
  6
BYLAYER
 10
41.3315480267
 20
3.7624936088
 11
41.4082628927
 21
3.7008496033
  0
LINE
  8
LS-12V-100-W8-28359
 62
7
  6
BYLAYER
 10
41.1888980703
 20
3.9880420954
 11
41.3960018613
 21
3.9880420954
  0
LINE
  8
LS-12V-100-W8-28359
 62
7
  6
BYLAYER
 10
41.3960018613
 20
4.0905931778
 11
41.3960018613
 21
3.9880420954
  0
LINE
  8
LS-12V-100-W8-28359
 62
7
  6
BYLAYER
 10
41.3960018613
 20
4.0905931778
 11
40.974277582
 21
4.0905931778
  0
LINE
  8
LS-12V-100-W8-28359
 62
7
  6
BYLAYER
 10
41.2370665587
 20
3.7323829687
 11
41.2931313051
 21
3.6562685779
  0
LINE
  8
LS-12V-100-W8-28359
 62
7
  6
BYLAYER
 10
41.2931313051
 20
3.6562685779
 11
41.3718924849
 21
3.5744917673
  0
LINE
  8
LS-12V-100-W8-28359
 62
7
  6
BYLAYER
 10
41.4082628927
 20
3.7008496033
 11
41.3718924849
 21
3.5744917673
  0
LINE
  8
LS-12V-100-W8-28359
 62
7
  6
BYLAYER
 10
41.2370665587
 20
3.7323829687
 11
41.1286897041
 21
3.5983620133
  0
LINE
  8
LS-12V-100-W8-28359
 62
7
  6
BYLAYER
 10
41.0984611794
 20
3.6925354941
 11
41.1286897041
 21
3.5983620133
  0
LINE
  8
LS-12V-100-W8-28359
 62
7
  6
BYLAYER
 10
41.1934945248
 20
3.8055992751
 11
41.0984611794
 21
3.6925354941
  0
LINE
  8
LS-12V-100-W8-28359
 62
7
  6
BYLAYER
 10
41.0714165038
 20
3.9081736511
 11
41.0714165038
 21
3.3141490251
  0
LINE
  8
LS-12V-100-W8-28359
 62
7
  6
BYLAYER
 10
41.0714165038
 20
3.9081736511
 11
41.0140709608
 21
3.9081736511
  0
LINE
  8
LS-12V-100-W8-28359
 62
7
  6
BYLAYER
 10
41.0140709608
 20
3.9081736511
 11
41.0140709608
 21
3.3812016559
  0
LINE
  8
LS-12V-100-W8-28359
 62
7
  6
BYLAYER
 10
41.0140709608
 20
3.3812016559
 11
41.0086399066
 21
3.3300858516
  0
LINE
  8
LS-12V-100-W8-28359
 62
7
  6
BYLAYER
 10
41.0086399066
 20
3.3300858516
 11
40.9964999031
 21
3.3058058445
  0
LINE
  8
LS-12V-100-W8-28359
 62
7
  6
BYLAYER
 10
40.9964999031
 20
3.3058058445
 11
40.9727789751
 21
3.295103473
  0
LINE
  8
LS-12V-100-W8-28359
 62
7
  6
BYLAYER
 10
40.9727789751
 20
3.295103473
 11
40.8830614536
 21
3.3073958832
  0
LINE
  8
LS-12V-100-W8-28359
 62
7
  6
BYLAYER
 10
40.8830614536
 20
3.3073958832
 11
40.8919716633
 21
3.1747451368
  0
LINE
  8
LS-12V-100-W8-28359
 62
7
  6
BYLAYER
 10
40.8919716633
 20
3.1747451368
 11
41.003668291
 21
3.1715220501
  0
LINE
  8
LS-12V-100-W8-28359
 62
7
  6
BYLAYER
 10
41.003668291
 20
3.1715220501
 11
41.0473761021
 21
3.2158739763
  0
LINE
  8
LS-12V-100-W8-28359
 62
7
  6
BYLAYER
 10
41.0473761021
 20
3.2158739763
 11
41.0714165038
 21
3.3141490251
  0
LINE
  8
LS-12V-100-W8-28359
 62
7
  6
BYLAYER
 10
41.0817777639
 20
3.4799569118
 11
41.3290309583
 21
3.2766940745
  0
LINE
  8
LS-12V-100-W8-28359
 62
7
  6
BYLAYER
 10
41.3290309583
 20
3.2766940745
 11
41.3558421102
 21
3.3967058971
  0
LINE
  8
LS-12V-100-W8-28359
 62
7
  6
BYLAYER
 10
41.3558421102
 20
3.3967058971
 11
41.1047267067
 21
3.5778122354
  0
LINE
  8
LS-12V-100-W8-28359
 62
7
  6
BYLAYER
 10
41.1047267067
 20
3.5778122354
 11
41.0817777639
 21
3.4799569118
  0
LINE
  8
LS-12V-100-W8-28359
 62
7
  6
BYLAYER
 10
40.9810932274
 20
3.576346436
 11
40.9935349128
 21
3.4695967756
  0
LINE
  8
LS-12V-100-W8-28359
 62
7
  6
BYLAYER
 10
40.9935349128
 20
3.4695967756
 11
40.7398667537
 21
3.3019479002
  0
LINE
  8
LS-12V-100-W8-28359
 62
7
  6
BYLAYER
 10
40.7216613103
 20
3.4161040455
 11
40.7398667537
 21
3.3019479002
  0
LINE
  8
LS-12V-100-W8-28359
 62
7
  6
BYLAYER
 10
40.7216613103
 20
3.4161040455
 11
40.9810932274
 21
3.576346436
  0
LINE
  8
LS-12V-100-W8-28359
 62
7
  6
BYLAYER
 10
40.9678965393
 20
3.6846501088
 11
40.9325230288
 21
3.5872081715
  0
LINE
  8
LS-12V-100-W8-28359
 62
7
  6
BYLAYER
 10
40.9325230288
 20
3.5872081715
 11
40.827496043
 21
3.7392717828
  0
LINE
  8
LS-12V-100-W8-28359
 62
7
  6
BYLAYER
 10
40.827496043
 20
3.7392717828
 11
40.7004080015
 21
3.5608701779
  0
LINE
  8
LS-12V-100-W8-28359
 62
7
  6
BYLAYER
 10
40.6659928062
 20
3.6696422914
 11
40.7004080015
 21
3.5608701779
  0
LINE
  8
LS-12V-100-W8-28359
 62
7
  6
BYLAYER
 10
40.8674778372
 20
3.8167445089
 11
40.9678965393
 21
3.6846501088
  0
LINE
  8
LS-12V-100-W8-28359
 62
7
  6
BYLAYER
 10
33.4728299157
 20
2.6696103132
 11
33.5611413014
 21
2.6685296628
  0
LINE
  8
LS-12V-100-W8-28359
 62
7
  6
BYLAYER
 10
33.5756188383
 20
2.6689110688
 11
33.687815776
 21
2.2983115521
  0
LINE
  8
LS-12V-100-W8-28359
 62
7
  6
BYLAYER
 10
33.687815776
 20
2.2983115521
 11
33.8144743587
 21
2.6696103132
  0
LINE
  8
LS-12V-100-W8-28359
 62
7
  6
BYLAYER
 10
33.8144743587
 20
2.6696103132
 11
33.8890392358
 21
2.6689110688
  0
LINE
  8
LS-12V-100-W8-28359
 62
7
  6
BYLAYER
 10
33.8890392358
 20
2.6689110688
 11
34.0113752169
 21
2.303333398
  0
LINE
  8
LS-12V-100-W8-28359
 62
7
  6
BYLAYER
 10
34.0113752169
 20
2.303333398
 11
34.1286257844
 21
2.6696103132
  0
LINE
  8
LS-12V-100-W8-28359
 62
7
  6
BYLAYER
 10
34.1286257844
 20
2.6696103132
 11
34.2082442912
 21
2.6689110688
  0
LINE
  8
LS-12V-100-W8-28359
 62
7
  6
BYLAYER
 10
34.2082442912
 20
2.6689110688
 11
34.0374061778
 21
2.1737824863
  0
LINE
  8
LS-12V-100-W8-28359
 62
7
  6
BYLAYER
 10
34.0374061778
 20
2.1737824863
 11
33.9570884266
 21
2.1737824863
  0
LINE
  8
LS-12V-100-W8-28359
 62
7
  6
BYLAYER
 10
33.9570884266
 20
2.1737824863
 11
33.8405371035
 21
2.5400594015
  0
LINE
  8
LS-12V-100-W8-28359
 62
7
  6
BYLAYER
 10
33.8405371035
 20
2.5400594015
 11
33.7182011223
 21
2.1737824863
  0
LINE
  8
LS-12V-100-W8-28359
 62
7
  6
BYLAYER
 10
33.7182011223
 20
2.1737824863
 11
33.6320669293
 21
2.1737824863
  0
LINE
  8
LS-12V-100-W8-28359
 62
7
  6
BYLAYER
 10
33.6320669293
 20
2.1737824863
 11
33.4728299157
 21
2.6696103132
  0
LINE
  8
LS-12V-100-W8-28359
 62
7
  6
BYLAYER
 10
34.2255982652
 20
2.6696103132
 11
34.3848352788
 21
2.1737824863
  0
LINE
  8
LS-12V-100-W8-28359
 62
7
  6
BYLAYER
 10
34.3848352788
 20
2.1737824863
 11
34.4709694718
 21
2.1737824863
  0
LINE
  8
LS-12V-100-W8-28359
 62
7
  6
BYLAYER
 10
34.4709694718
 20
2.1737824863
 11
34.5933054529
 21
2.5400594015
  0
LINE
  8
LS-12V-100-W8-28359
 62
7
  6
BYLAYER
 10
34.5933054529
 20
2.5400594015
 11
34.7098567761
 21
2.1737824863
  0
LINE
  8
LS-12V-100-W8-28359
 62
7
  6
BYLAYER
 10
34.7098567761
 20
2.1737824863
 11
34.7901745273
 21
2.1737824863
  0
LINE
  8
LS-12V-100-W8-28359
 62
7
  6
BYLAYER
 10
34.7901745273
 20
2.1737824863
 11
34.9610126407
 21
2.6689110688
  0
LINE
  8
LS-12V-100-W8-28359
 62
7
  6
BYLAYER
 10
34.9610126407
 20
2.6689110688
 11
34.8813941339
 21
2.6696103132
  0
LINE
  8
LS-12V-100-W8-28359
 62
7
  6
BYLAYER
 10
34.8813941339
 20
2.6696103132
 11
34.7641435664
 21
2.303333398
  0
LINE
  8
LS-12V-100-W8-28359
 62
7
  6
BYLAYER
 10
34.7641435664
 20
2.303333398
 11
34.6418075852
 21
2.6689110688
  0
LINE
  8
LS-12V-100-W8-28359
 62
7
  6
BYLAYER
 10
34.6418075852
 20
2.6689110688
 11
34.5670041798
 21
2.6689110688
  0
LINE
  8
LS-12V-100-W8-28359
 62
7
  6
BYLAYER
 10
34.5670041798
 20
2.6689110688
 11
34.4405841255
 21
2.2983115521
  0
LINE
  8
LS-12V-100-W8-28359
 62
7
  6
BYLAYER
 10
34.4405841255
 20
2.2983115521
 11
34.3283871877
 21
2.6689110688
  0
LINE
  8
LS-12V-100-W8-28359
 62
7
  6
BYLAYER
 10
34.3283871877
 20
2.6689110688
 11
34.2255982652
 21
2.6696103132
  0
LINE
  8
LS-12V-100-W8-28359
 62
7
  6
BYLAYER
 10
34.9783983985
 20
2.6696103132
 11
35.081187321
 21
2.6689110688
  0
LINE
  8
LS-12V-100-W8-28359
 62
7
  6
BYLAYER
 10
35.081187321
 20
2.6689110688
 11
35.1933842588
 21
2.2983115521
  0
LINE
  8
LS-12V-100-W8-28359
 62
7
  6
BYLAYER
 10
35.1933842588
 20
2.2983115521
 11
35.3200428415
 21
2.6696103132
  0
LINE
  8
LS-12V-100-W8-28359
 62
7
  6
BYLAYER
 10
35.3200428415
 20
2.6696103132
 11
35.3946077185
 21
2.6689110688
  0
LINE
  8
LS-12V-100-W8-28359
 62
7
  6
BYLAYER
 10
35.3946077185
 20
2.6689110688
 11
35.5169436997
 21
2.303333398
  0
LINE
  8
LS-12V-100-W8-28359
 62
7
  6
BYLAYER
 10
35.5169436997
 20
2.303333398
 11
35.6341942672
 21
2.6696103132
  0
LINE
  8
LS-12V-100-W8-28359
 62
7
  6
BYLAYER
 10
35.6341942672
 20
2.6696103132
 11
35.713812774
 21
2.6689110688
  0
LINE
  8
LS-12V-100-W8-28359
 62
7
  6
BYLAYER
 10
35.713812774
 20
2.6689110688
 11
35.5429746606
 21
2.1737824863
  0
LINE
  8
LS-12V-100-W8-28359
 62
7
  6
BYLAYER
 10
35.5429746606
 20
2.1737824863
 11
35.4626569094
 21
2.1737824863
  0
LINE
  8
LS-12V-100-W8-28359
 62
7
  6
BYLAYER
 10
35.4626569094
 20
2.1737824863
 11
35.3461055862
 21
2.5400594015
  0
LINE
  8
LS-12V-100-W8-28359
 62
7
  6
BYLAYER
 10
35.3461055862
 20
2.5400594015
 11
35.2237696051
 21
2.1737824863
  0
LINE
  8
LS-12V-100-W8-28359
 62
7
  6
BYLAYER
 10
35.2237696051
 20
2.1737824863
 11
35.1376354121
 21
2.1737824863
  0
LINE
  8
LS-12V-100-W8-28359
 62
7
  6
BYLAYER
 10
35.1376354121
 20
2.1737824863
 11
34.9783983985
 21
2.6696103132
  0
LINE
  8
LS-12V-100-W8-28359
 62
7
  6
BYLAYER
 10
35.8259779279
 20
2.2584546229
 11
35.8585563589
 21
2.259217435
  0
LINE
  8
LS-12V-100-W8-28359
 62
7
  6
BYLAYER
 10
35.8585563589
 20
2.259217435
 11
35.888973489
 21
2.2440247618
  0
LINE
  8
LS-12V-100-W8-28359
 62
7
  6
BYLAYER
 10
35.888973489
 20
2.2440247618
 11
35.9018859015
 21
2.2212169632
  0
LINE
  8
LS-12V-100-W8-28359
 62
7
  6
BYLAYER
 10
35.9018859015
 20
2.2212169632
 11
35.897650476
 21
2.1922171107
  0
LINE
  8
LS-12V-100-W8-28359
 62
7
  6
BYLAYER
 10
35.897650476
 20
2.1922171107
 11
35.8726683816
 21
2.1705405352
  0
LINE
  8
LS-12V-100-W8-28359
 62
7
  6
BYLAYER
 10
35.8726683816
 20
2.1705405352
 11
35.8259779279
 21
2.1679978284
  0
LINE
  8
LS-12V-100-W8-28359
 62
7
  6
BYLAYER
 10
35.8259779279
 20
2.1679978284
 11
35.7977538824
 21
2.1774058435
  0
LINE
  8
LS-12V-100-W8-28359
 62
7
  6
BYLAYER
 10
35.7977538824
 20
2.1774058435
 11
35.7825612092
 21
2.2063291334
  0
LINE
  8
LS-12V-100-W8-28359
 62
7
  6
BYLAYER
 10
35.7825612092
 20
2.2063291334
 11
35.7911902922
 21
2.2385872652
  0
LINE
  8
LS-12V-100-W8-28359
 62
7
  6
BYLAYER
 10
35.7911902922
 20
2.2385872652
 11
35.8258801798
 21
2.2584547529
  0
LINE
  8
LS-12V-100-W8-28359
 62
7
  6
BYLAYER
 10
36.0620682547
 20
2.6689746365
 11
36.0620682547
 21
2.1808384977
  0
LINE
  8
LS-12V-100-W8-28359
 62
7
  6
BYLAYER
 10
36.0620682547
 20
2.1808384977
 11
36.2959019292
 21
2.1808384977
  0
LINE
  8
LS-12V-100-W8-28359
 62
7
  6
BYLAYER
 10
36.4860963982
 20
2.5991773347
 11
36.4102281858
 21
2.6541237189
  0
LINE
  8
LS-12V-100-W8-28359
 62
7
  6
BYLAYER
 10
36.4102281858
 20
2.6541237189
 11
36.3328036534
 21
2.6695368058
  0
LINE
  8
LS-12V-100-W8-28359
 62
7
  6
BYLAYER
 10
36.3328036534
 20
2.6695368058
 11
36.0620682547
 21
2.6689746365
  0
LINE
  8
LS-12V-100-W8-28359
 62
7
  6
BYLAYER
 10
36.1571654892
 20
2.6344573916
 11
36.1571654892
 21
2.2139572538
  0
LINE
  8
LS-12V-100-W8-28359
 62
7
  6
BYLAYER
 10
36.1571654892
 20
2.2139572538
 11
36.2344944544
 21
2.214157928
  0
LINE
  8
LS-12V-100-W8-28359
 62
7
  6
BYLAYER
 10
36.3853734249
 20
2.5893879135
 11
36.3408124882
 21
2.6190104478
  0
LINE
  8
LS-12V-100-W8-28359
 62
7
  6
BYLAYER
 10
36.3408124882
 20
2.6190104478
 11
36.2495147002
 21
2.6329840455
  0
LINE
  8
LS-12V-100-W8-28359
 62
7
  6
BYLAYER
 10
36.2495147002
 20
2.6329840455
 11
36.1571654892
 21
2.6329840455
  0
LINE
  8
LS-12V-100-W8-28359
 62
7
  6
BYLAYER
 10
38.6308060202
 20
2.6562611025
 11
38.9139999905
 21
2.6562611025
  0
LINE
  8
LS-12V-100-W8-28359
 62
7
  6
BYLAYER
 10
38.9139999905
 20
2.6562611025
 11
38.9139999905
 21
2.6104288123
  0
LINE
  8
LS-12V-100-W8-28359
 62
7
  6
BYLAYER
 10
38.9139999905
 20
2.6104288123
 11
38.7030824611
 21
2.6104288123
  0
LINE
  8
LS-12V-100-W8-28359
 62
7
  6
BYLAYER
 10
38.7030824611
 20
2.6104288123
 11
38.7030824611
 21
2.4512553664
  0
LINE
  8
LS-12V-100-W8-28359
 62
7
  6
BYLAYER
 10
38.7030824611
 20
2.4512553664
 11
38.9139999905
 21
2.4512553664
  0
LINE
  8
LS-12V-100-W8-28359
 62
7
  6
BYLAYER
 10
38.9139999905
 20
2.4512553664
 11
38.9139999905
 21
2.4060587529
  0
LINE
  8
LS-12V-100-W8-28359
 62
7
  6
BYLAYER
 10
38.9139999905
 20
2.4060587529
 11
38.7030824611
 21
2.4060587529
  0
LINE
  8
LS-12V-100-W8-28359
 62
7
  6
BYLAYER
 10
38.7030824611
 20
2.4060587529
 11
38.7030824611
 21
2.2170720697
  0
LINE
  8
LS-12V-100-W8-28359
 62
7
  6
BYLAYER
 10
38.7030824611
 20
2.2170720697
 11
38.9139999905
 21
2.2170720697
  0
LINE
  8
LS-12V-100-W8-28359
 62
7
  6
BYLAYER
 10
38.9139999905
 20
2.2170720697
 11
38.9139999905
 21
2.1737824863
  0
LINE
  8
LS-12V-100-W8-28359
 62
7
  6
BYLAYER
 10
38.9139999905
 20
2.1737824863
 11
38.6308060202
 21
2.1737824863
  0
LINE
  8
LS-12V-100-W8-28359
 62
7
  6
BYLAYER
 10
38.6308060202
 20
2.1737824863
 11
38.6308060202
 21
2.6562611025
  0
LINE
  8
LS-12V-100-W8-28359
 62
7
  6
BYLAYER
 10
38.0143711658
 20
2.5745766464
 11
37.9124757851
 21
2.6368334444
  0
LINE
  8
LS-12V-100-W8-28359
 62
7
  6
BYLAYER
 10
37.9124757851
 20
2.6368334444
 11
37.8503857342
 21
2.6429118918
  0
LINE
  8
LS-12V-100-W8-28359
 62
7
  6
BYLAYER
 10
37.6890827713
 20
2.5196541794
 11
37.6763702289
 21
2.4704200868
  0
LINE
  8
LS-12V-100-W8-28359
 62
7
  6
BYLAYER
 10
37.7036811964
 20
2.2956614753
 11
37.7460843683
 21
2.2427838982
  0
LINE
  8
LS-12V-100-W8-28359
 62
7
  6
BYLAYER
 10
37.9187209795
 20
2.2033414529
 11
37.9665874351
 21
2.2238738104
  0
LINE
  8
LS-12V-100-W8-28359
 62
7
  6
BYLAYER
 10
37.9665874351
 20
2.2238738104
 11
37.9665874351
 21
2.4083471891
  0
LINE
  8
LS-12V-100-W8-28359
 62
7
  6
BYLAYER
 10
37.9665874351
 20
2.4083471891
 11
38.0560589308
 21
2.4083471891
  0
LINE
  8
LS-12V-100-W8-28359
 62
7
  6
BYLAYER
 10
38.0560589308
 20
2.4083471891
 11
38.0550100643
 21
2.2016569097
  0
LINE
  8
LS-12V-100-W8-28359
 62
7
  6
BYLAYER
 10
38.0550100643
 20
2.2016569097
 11
37.9595949914
 21
2.1787407646
  0
LINE
  8
LS-12V-100-W8-28359
 62
7
  6
BYLAYER
 10
37.9595949914
 20
2.1787407646
 11
37.8447599954
 21
2.1695870201
  0
LINE
  8
LS-12V-100-W8-28359
 62
7
  6
BYLAYER
 10
37.837894687
 20
2.6777787588
 11
37.9470880523
 21
2.6726615614
  0
LINE
  8
LS-12V-100-W8-28359
 62
7
  6
BYLAYER
 10
37.9470880523
 20
2.6726615614
 11
38.0616846696
 21
2.6344573916
  0
LINE
  8
LS-12V-100-W8-28359
 62
7
  6
BYLAYER
 10
38.0616846696
 20
2.6344573916
 11
38.0391499306
 21
2.5745766464
  0
LINE
  8
LS-12V-100-W8-28359
 62
7
  6
BYLAYER
 10
38.0391499306
 20
2.5745766464
 11
38.0143711658
 21
2.5745766464
  0
LINE
  8
LS-12V-100-W8-28359
 62
7
  6
BYLAYER
 10
38.1458482649
 20
2.6739329148
 11
38.1458482649
 21
2.6232694817
  0
LINE
  8
LS-12V-100-W8-28359
 62
7
  6
BYLAYER
 10
38.3051170623
 20
2.6386268634
 11
38.3051170623
 21
2.1737824863
  0
LINE
  8
LS-12V-100-W8-28359
 62
7
  6
BYLAYER
 10
38.3051170623
 20
2.1737824863
 11
38.3970359133
 21
2.1737824863
  0
LINE
  8
LS-12V-100-W8-28359
 62
7
  6
BYLAYER
 10
38.1458482649
 20
2.6739329148
 11
38.5562729269
 21
2.6753949712
  0
LINE
  8
LS-12V-100-W8-28359
 62
7
  6
BYLAYER
 10
38.5562729269
 20
2.6753949712
 11
38.5553670876
 21
2.6260028915
  0
LINE
  8
LS-12V-100-W8-28359
 62
7
  6
BYLAYER
 10
38.3970359133
 20
2.1737824863
 11
38.3970359133
 21
2.6389223288
  0
LINE
  8
LS-12V-100-W8-28359
 62
7
  6
BYLAYER
 10
40.9470847837
 20
2.6753949712
 11
40.998479245
 21
2.6753949712
  0
LINE
  8
LS-12V-100-W8-28359
 62
7
  6
BYLAYER
 10
40.998479245
 20
2.6753949712
 11
41.1837790034
 21
2.3207509396
  0
LINE
  8
LS-12V-100-W8-28359
 62
7
  6
BYLAYER
 10
41.1837790034
 20
2.3207509396
 11
41.3741323915
 21
2.6753949712
  0
LINE
  8
LS-12V-100-W8-28359
 62
7
  6
BYLAYER
 10
41.3741323915
 20
2.6753949712
 11
41.426257881
 21
2.6753949712
  0
LINE
  8
LS-12V-100-W8-28359
 62
7
  6
BYLAYER
 10
41.426257881
 20
2.6753949712
 11
41.4834370003
 21
2.1737824863
  0
LINE
  8
LS-12V-100-W8-28359
 62
7
  6
BYLAYER
 10
41.3799170495
 20
2.1737824863
 11
41.3502627314
 21
2.5024273408
  0
LINE
  8
LS-12V-100-W8-28359
 62
7
  6
BYLAYER
 10
41.3502627314
 20
2.5024273408
 11
41.1866713324
 21
2.1853518023
  0
LINE
  8
LS-12V-100-W8-28359
 62
7
  6
BYLAYER
 10
41.1866713324
 20
2.1853518023
 11
41.1461151588
 21
2.1853518023
  0
LINE
  8
LS-12V-100-W8-28359
 62
7
  6
BYLAYER
 10
41.1461151588
 20
2.1853518023
 11
40.9883402016
 21
2.4958798708
  0
LINE
  8
LS-12V-100-W8-28359
 62
7
  6
BYLAYER
 10
40.9883402016
 20
2.4958798708
 11
40.9586540997
 21
2.1737824863
  0
LINE
  8
LS-12V-100-W8-28359
 62
7
  6
BYLAYER
 10
40.8783045647
 20
2.1737824863
 11
40.9470847837
 21
2.6753949712
  0
LINE
  8
LS-12V-100-W8-28359
 62
7
  6
BYLAYER
 10
40.8783045647
 20
2.1737824863
 11
40.9586540997
 21
2.1737824863
  0
LINE
  8
LS-12V-100-W8-28359
 62
7
  6
BYLAYER
 10
41.3799170495
 20
2.1737824863
 11
41.4834370003
 21
2.1737824863
  0
LINE
  8
LS-12V-100-W8-28359
 62
7
  6
BYLAYER
 10
39.5695074081
 20
2.2584547529
 11
39.6021835871
 21
2.259217435
  0
LINE
  8
LS-12V-100-W8-28359
 62
7
  6
BYLAYER
 10
39.6021835871
 20
2.259217435
 11
39.6255378793
 21
2.2496051433
  0
LINE
  8
LS-12V-100-W8-28359
 62
7
  6
BYLAYER
 10
39.6255378793
 20
2.2496051433
 11
39.6427079768
 21
2.2298491714
  0
LINE
  8
LS-12V-100-W8-28359
 62
7
  6
BYLAYER
 10
39.6427079768
 20
2.2298491714
 11
39.646331334
 21
2.2121773591
  0
LINE
  8
LS-12V-100-W8-28359
 62
7
  6
BYLAYER
 10
39.646331334
 20
2.2121773591
 11
39.6364862081
 21
2.1846653999
  0
LINE
  8
LS-12V-100-W8-28359
 62
7
  6
BYLAYER
 10
39.6364862081
 20
2.1846653999
 11
39.6162956099
 21
2.1705405352
  0
LINE
  8
LS-12V-100-W8-28359
 62
7
  6
BYLAYER
 10
39.6162956099
 20
2.1705405352
 11
39.6008829374
 21
2.1679976533
  0
LINE
  8
LS-12V-100-W8-28359
 62
7
  6
BYLAYER
 10
39.6008829374
 20
2.1679976533
 11
39.5696051562
 21
2.1679978284
  0
LINE
  8
LS-12V-100-W8-28359
 62
7
  6
BYLAYER
 10
39.5696051562
 20
2.1679978284
 11
39.5413811107
 21
2.1774058435
  0
LINE
  8
LS-12V-100-W8-28359
 62
7
  6
BYLAYER
 10
39.5413811107
 20
2.1774058435
 11
39.5280621153
 21
2.1978346084
  0
LINE
  8
LS-12V-100-W8-28359
 62
7
  6
BYLAYER
 10
39.5280621153
 20
2.1978346084
 11
39.5308924451
 21
2.2298491714
  0
LINE
  8
LS-12V-100-W8-28359
 62
7
  6
BYLAYER
 10
39.5308924451
 20
2.2298491714
 11
39.5471936426
 21
2.2512141496
  0
LINE
  8
LS-12V-100-W8-28359
 62
7
  6
BYLAYER
 10
39.5471936426
 20
2.2512141496
 11
39.5695074081
 21
2.2584547529
  0
LINE
  8
LS-12V-100-W8-28359
 62
7
  6
BYLAYER
 10
40.6911873924
 20
2.5615521567
 11
40.710009158
 21
2.5212433712
  0
LINE
  8
LS-12V-100-W8-28359
 62
7
  6
BYLAYER
 10
40.6857155723
 20
2.2853109539
 11
40.6050589347
 21
2.2077911898
  0
LINE
  8
LS-12V-100-W8-28359
 62
7
  6
BYLAYER
 10
40.6050589347
 20
2.2077911898
 11
40.5373911498
 21
2.1904372159
  0
LINE
  8
LS-12V-100-W8-28359
 62
7
  6
BYLAYER
 10
40.5373911498
 20
2.1904372159
 11
40.4330873705
 21
2.2263118185
  0
LINE
  8
LS-12V-100-W8-28359
 62
7
  6
BYLAYER
 10
40.4330873705
 20
2.2263118185
 11
40.3799729817
 21
2.2848240712
  0
LINE
  8
LS-12V-100-W8-28359
 62
7
  6
BYLAYER
 10
40.362580057
 20
2.3239928908
 11
40.3484680343
 21
2.4227770502
  0
LINE
  8
LS-12V-100-W8-28359
 62
7
  6
BYLAYER
 10
40.3484680343
 20
2.4227770502
 11
40.3717536624
 21
2.5221966037
  0
LINE
  8
LS-12V-100-W8-28359
 62
7
  6
BYLAYER
 10
40.3717536624
 20
2.5221966037
 11
40.4215708549
 21
2.6052162634
  0
LINE
  8
LS-12V-100-W8-28359
 62
7
  6
BYLAYER
 10
40.5330367644
 20
2.6558796965
 11
40.6098807797
 21
2.6372304049
  0
LINE
  8
LS-12V-100-W8-28359
 62
7
  6
BYLAYER
 10
40.5330367644
 20
2.6558796965
 11
40.4720169338
 21
2.6421797702
  0
LINE
  8
LS-12V-100-W8-28359
 62
7
  6
BYLAYER
 10
40.4720169338
 20
2.6421797702
 11
40.4215708549
 21
2.6052162634
  0
LINE
  8
LS-12V-100-W8-28359
 62
7
  6
BYLAYER
 10
40.7436682394
 20
2.2302305774
 11
40.8077916116
 21
2.3151985595
  0
LINE
  8
LS-12V-100-W8-28359
 62
7
  6
BYLAYER
 10
40.8077916116
 20
2.3151985595
 11
40.8272261981
 21
2.4078477053
  0
LINE
  8
LS-12V-100-W8-28359
 62
7
  6
BYLAYER
 10
40.8272261981
 20
2.4078477053
 11
40.8175020882
 21
2.4958798708
  0
LINE
  8
LS-12V-100-W8-28359
 62
7
  6
BYLAYER
 10
40.8175020882
 20
2.4958798708
 11
40.7880638546
 21
2.5689337659
  0
LINE
  8
LS-12V-100-W8-28359
 62
7
  6
BYLAYER
 10
40.7134861032
 20
2.6487674998
 11
40.610910079
 21
2.6809252964
  0
LINE
  8
LS-12V-100-W8-28359
 62
7
  6
BYLAYER
 10
40.610910079
 20
2.6809252964
 11
40.5129347749
 21
2.6858236036
  0
LINE
  8
LS-12V-100-W8-28359
 62
7
  6
BYLAYER
 10
40.2944995415
 20
2.5752047417
 11
40.2546093041
 21
2.4938635631
  0
LINE
  8
LS-12V-100-W8-28359
 62
7
  6
BYLAYER
 10
40.2546093041
 20
2.4938635631
 11
40.2449069827
 21
2.4176801208
  0
LINE
  8
LS-12V-100-W8-28359
 62
7
  6
BYLAYER
 10
40.2449069827
 20
2.4176801208
 11
40.2482692682
 21
2.3717014047
  0
LINE
  8
LS-12V-100-W8-28359
 62
7
  6
BYLAYER
 10
40.2482692682
 20
2.3717014047
 11
40.2597911345
 21
2.32183159
  0
LINE
  8
LS-12V-100-W8-28359
 62
7
  6
BYLAYER
 10
40.2597911345
 20
2.32183159
 11
40.3050195317
 21
2.2483473634
  0
LINE
  8
LS-12V-100-W8-28359
 62
7
  6
BYLAYER
 10
40.3050195317
 20
2.2483473634
 11
40.3353663401
 21
2.2218040451
  0
LINE
  8
LS-12V-100-W8-28359
 62
7
  6
BYLAYER
 10
40.3353663401
 20
2.2218040451
 11
40.4023761111
 21
2.1826211735
  0
LINE
  8
LS-12V-100-W8-28359
 62
7
  6
BYLAYER
 10
40.4023761111
 20
2.1826211735
 11
40.4850908493
 21
2.1634845238
  0
LINE
  8
LS-12V-100-W8-28359
 62
7
  6
BYLAYER
 10
40.4850908493
 20
2.1634845238
 11
40.5557241006
 21
2.1622084751
  0
LINE
  8
LS-12V-100-W8-28359
 62
7
  6
BYLAYER
 10
40.5557241006
 20
2.1622084751
 11
40.6542920952
 21
2.1788678999
  0
LINE
  8
LS-12V-100-W8-28359
 62
7
  6
BYLAYER
 10
40.6542920952
 20
2.1788678999
 11
40.7012730555
 21
2.2005593861
  0
LINE
  8
LS-12V-100-W8-28359
 62
7
  6
BYLAYER
 10
40.7012730555
 20
2.2005593861
 11
40.7436682394
 21
2.2302305774
  0
LINE
  8
LS-12V-100-W8-28359
 62
7
  6
BYLAYER
 10
40.710009158
 20
2.5212433712
 11
40.7216248759
 21
2.4726636999
  0
LINE
  8
LS-12V-100-W8-28359
 62
7
  6
BYLAYER
 10
40.7216248759
 20
2.4726636999
 11
40.7241211808
 21
2.4227770502
  0
LINE
  8
LS-12V-100-W8-28359
 62
7
  6
BYLAYER
 10
40.7241211808
 20
2.4227770502
 11
40.7038748779
 21
2.3243107292
  0
LINE
  8
LS-12V-100-W8-28359
 62
7
  6
BYLAYER
 10
40.7038748779
 20
2.3243107292
 11
40.6857155723
 21
2.2853109539
  0
LINE
  8
LS-12V-100-W8-28359
 62
7
  6
BYLAYER
 10
40.362580057
 20
2.3239928908
 11
40.3799729817
 21
2.2848240712
  0
LINE
  8
LS-12V-100-W8-28359
 62
7
  6
BYLAYER
 10
33.5819053483
 20
3.6745004811
 11
33.7608980641
 21
3.8585146173
  0
LINE
  8
LS-12V-100-W8-28359
 62
7
  6
BYLAYER
 10
33.910328889
 20
4.7608732119
 11
33.8102567627
 21
4.5936046397
  0
LINE
  8
LS-12V-100-W8-28359
 62
7
  6
BYLAYER
 10
33.8102567627
 20
4.5936046397
 11
33.665774747
 21
4.4376215681
  0
LINE
  8
LS-12V-100-W8-28359
 62
7
  6
BYLAYER
 10
33.665774747
 20
4.4376215681
 11
33.5048571646
 21
4.3086548071
  0
LINE
  8
LS-12V-100-W8-28359
 62
7
  6
BYLAYER
 10
33.9817065413
 20
4.389629845
 11
33.7989154436
 21
4.1012955493
  0
LINE
  8
LS-12V-100-W8-28359
 62
7
  6
BYLAYER
 10
33.7989154436
 20
4.1012955493
 11
33.6323098689
 21
3.9314952368
  0
LINE
  8
LS-12V-100-W8-28359
 62
7
  6
BYLAYER
 10
33.6323098689
 20
3.9314952368
 11
33.4833779393
 21
3.815917854
  0
LINE
  8
LS-12V-100-W8-28359
 62
7
  6
BYLAYER
 10
36.4860963982
 20
2.5991773347
 11
36.5220121318
 21
2.5256295404
  0
LINE
  8
LS-12V-100-W8-28359
 62
7
  6
BYLAYER
 10
36.5220121318
 20
2.5256295404
 11
36.5339897775
 21
2.4417849396
  0
LINE
  8
LS-12V-100-W8-28359
 62
7
  6
BYLAYER
 10
36.5339897775
 20
2.4417849396
 11
36.516386393
 21
2.3386134549
  0
LINE
  8
LS-12V-100-W8-28359
 62
7
  6
BYLAYER
 10
36.2344944544
 20
2.214157928
 11
36.3115077922
 21
2.2211404006
  0
LINE
  8
LS-12V-100-W8-28359
 62
7
  6
BYLAYER
 10
36.3115077922
 20
2.2211404006
 11
36.3719288627
 21
2.2541320214
  0
LINE
  8
LS-12V-100-W8-28359
 62
7
  6
BYLAYER
 10
36.3719288627
 20
2.2541320214
 11
36.4146145532
 21
2.3294597104
  0
LINE
  8
LS-12V-100-W8-28359
 62
7
  6
BYLAYER
 10
36.4146145532
 20
2.3294597104
 11
36.4284690981
 21
2.4248811798
  0
LINE
  8
LS-12V-100-W8-28359
 62
7
  6
BYLAYER
 10
36.4284690981
 20
2.4248811798
 11
36.4263658857
 21
2.4623905697
  0
LINE
  8
LS-12V-100-W8-28359
 62
7
  6
BYLAYER
 10
36.4263658857
 20
2.4623905697
 11
36.4110508007
 21
2.5315830694
  0
LINE
  8
LS-12V-100-W8-28359
 62
7
  6
BYLAYER
 10
36.4110508007
 20
2.5315830694
 11
36.3853734249
 21
2.5893879135
  0
LINE
  8
LS-12V-100-W8-28359
 62
7
  6
BYLAYER
 10
37.837894687
 20
2.6777787588
 11
37.7819074615
 21
2.6703731253
  0
LINE
  8
LS-12V-100-W8-28359
 62
7
  6
BYLAYER
 10
37.7819074615
 20
2.6703731253
 11
37.7113399153
 21
2.6483393964
  0
LINE
  8
LS-12V-100-W8-28359
 62
7
  6
BYLAYER
 10
37.7113399153
 20
2.6483393964
 11
37.6278035373
 21
2.5851924473
  0
LINE
  8
LS-12V-100-W8-28359
 62
7
  6
BYLAYER
 10
37.6278035373
 20
2.5851924473
 11
37.5808606047
 21
2.4840513414
  0
LINE
  8
LS-12V-100-W8-28359
 62
7
  6
BYLAYER
 10
37.5808606047
 20
2.4840513414
 11
37.5728811392
 21
2.4139647387
  0
LINE
  8
LS-12V-100-W8-28359
 62
7
  6
BYLAYER
 10
37.5728811392
 20
2.4139647387
 11
37.6012747671
 21
2.2918830608
  0
LINE
  8
LS-12V-100-W8-28359
 62
7
  6
BYLAYER
 10
37.6012747671
 20
2.2918830608
 11
37.6691711613
 21
2.2142561821
  0
LINE
  8
LS-12V-100-W8-28359
 62
7
  6
BYLAYER
 10
37.6691711613
 20
2.2142561821
 11
37.7662167107
 21
2.1753409247
  0
LINE
  8
LS-12V-100-W8-28359
 62
7
  6
BYLAYER
 10
37.7662167107
 20
2.1753409247
 11
37.8447599954
 21
2.1695870201
  0
LINE
  8
LS-12V-100-W8-28359
 62
7
  6
BYLAYER
 10
37.9187209795
 20
2.2033414529
 11
37.8658962457
 21
2.1963490092
  0
LINE
  8
LS-12V-100-W8-28359
 62
7
  6
BYLAYER
 10
37.8658962457
 20
2.1963490092
 11
37.8080807946
 21
2.2069751453
  0
LINE
  8
LS-12V-100-W8-28359
 62
7
  6
BYLAYER
 10
37.8080807946
 20
2.2069751453
 11
37.7460843683
 21
2.2427838982
  0
LINE
  8
LS-12V-100-W8-28359
 62
7
  6
BYLAYER
 10
37.6763702289
 20
2.4704200868
 11
37.6728047876
 21
2.421939584
  0
LINE
  8
LS-12V-100-W8-28359
 62
7
  6
BYLAYER
 10
37.6728047876
 20
2.421939584
 11
37.6819637007
 21
2.3500177472
  0
LINE
  8
LS-12V-100-W8-28359
 62
7
  6
BYLAYER
 10
37.6819637007
 20
2.3500177472
 11
37.7036811964
 21
2.2956614753
  0
LINE
  8
LS-12V-100-W8-28359
 62
7
  6
BYLAYER
 10
37.8503857342
 20
2.6429118918
 11
37.770449389
 21
2.6151328199
  0
LINE
  8
LS-12V-100-W8-28359
 62
7
  6
BYLAYER
 10
37.770449389
 20
2.6151328199
 11
37.7174577394
 21
2.5695720147
  0
LINE
  8
LS-12V-100-W8-28359
 62
7
  6
BYLAYER
 10
37.7174577394
 20
2.5695720147
 11
37.6890827713
 21
2.5196541794
  0
LINE
  8
LS-12V-100-W8-28359
 62
7
  6
BYLAYER
 10
38.1458482649
 20
2.6232694817
 11
38.1748033386
 21
2.6225702373
  0
LINE
  8
LS-12V-100-W8-28359
 62
7
  6
BYLAYER
 10
38.1748033386
 20
2.6225702373
 11
38.3051170623
 21
2.6386268634
  0
LINE
  8
LS-12V-100-W8-28359
 62
7
  6
BYLAYER
 10
38.3970359133
 20
2.6389223288
 11
38.5273178532
 21
2.6232694817
  0
LINE
  8
LS-12V-100-W8-28359
 62
7
  6
BYLAYER
 10
38.5273178532
 20
2.6232694817
 11
38.5562729269
 21
2.6225702373
  0
LINE
  8
LS-12V-100-W8-28359
 62
7
  6
BYLAYER
 10
36.3017914032
 20
2.1809812703
 11
36.3666672832
 21
2.1909684572
  0
LINE
  8
LS-12V-100-W8-28359
 62
7
  6
BYLAYER
 10
36.3666672832
 20
2.1909684572
 11
36.45149729
 21
2.2398311903
  0
LINE
  8
LS-12V-100-W8-28359
 62
7
  6
BYLAYER
 10
36.45149729
 20
2.2398311903
 11
36.516386393
 21
2.3386134549
  0
LINE
  8
LS-12V-100-W8-28359
 62
7
  6
BYLAYER
 10
40.2975516167
 20
2.5794635731
 11
40.3576969728
 21
2.6406662813
  0
LINE
  8
LS-12V-100-W8-28359
 62
7
  6
BYLAYER
 10
40.3576969728
 20
2.6406662813
 11
40.4350459871
 21
2.6750521536
  0
LINE
  8
LS-12V-100-W8-28359
 62
7
  6
BYLAYER
 10
40.4350459871
 20
2.6750521536
 11
40.5129347749
 21
2.6858236036
  0
LINE
  8
LS-12V-100-W8-28359
 62
7
  6
BYLAYER
 10
40.6911873924
 20
2.5615521567
 11
40.6517375507
 21
2.6085919644
  0
LINE
  8
LS-12V-100-W8-28359
 62
7
  6
BYLAYER
 10
40.6517375507
 20
2.6085919644
 11
40.6098807797
 21
2.6372304049
  0
LINE
  8
LS-12V-100-W8-28359
 62
7
  6
BYLAYER
 10
40.7134861032
 20
2.6487674998
 11
40.7598214496
 21
2.606452072
  0
LINE
  8
LS-12V-100-W8-28359
 62
7
  6
BYLAYER
 10
40.7598214496
 20
2.606452072
 11
40.7880638546
 21
2.5689337659
  0
LINE
  8
LS-12V-100-W8-28359
 62
7
  6
BYLAYER
 10
35.5481941097
 20
4.6084496201
 11
35.5481941097
 21
4.4860410976
  0
LINE
  8
LS-12V-100-W8-28359
 62
7
  6
BYLAYER
 10
39.6026358139
 20
3.8182417829
 11
39.0518615125
 21
3.8182417829
  0
ARC
  8
LS-12V-100-W8-28359
 62
7
  6
BYLAYER
 10
40.669997703
 20
4.7365691549
 40
0.0798684443
 50
90.0
 51
180.0
  0
ARC
  8
LS-12V-100-W8-28359
 62
7
  6
BYLAYER
 10
41.403509495
 20
4.7365691549
 40
0.0798684443
 50
0.0
 51
90.0
  0
ARC
  8
LS-12V-100-W8-28359
 62
7
  6
BYLAYER
 10
41.403509495
 20
3.166195804
 40
0.0798684443
 50
270.0
 51
360.0
  0
ARC
  8
LS-12V-100-W8-28359
 62
7
  6
BYLAYER
 10
40.669997703
 20
3.166195804
 40
0.0798684443
 50
180.0
 51
270.0
  0
LINE
  8
LS-12V-100-W8-28359
 62
7
  6
BYLAYER
 10
36.8262489547
 20
4.5119790897
 11
37.0243226964
 21
4.4841050027
  0
ENDBLK
  8
0
  6
BYBLOCK
 62
0
  0
BLOCK
  8
0
  2
_FILLED
 70
64
 10
0.0
 20
0.0
  0
SOLID
  8
0
  6
BYBLOCK
 62
0
 10
0.0
 20
0.0
 11
-1.0
 21
0.2142857143
 12
-1.0
 22
-0.2142857143
 13
-1.0
 23
-0.2142857143
  0
ENDBLK
  8
0
  6
BYBLOCK
 62
0
  0
BLOCK
  8
LS-12V-100-W8-28354
 62
3
  6
BYLAYER
  2
*D0
 70
65
 10
0.0
 20
0.0
  0
TEXT
  8
LS-12V-100-W8-28354
 62
3
  6
BYLAYER
 10
10.8994573506
 20
21.2348092899
  7
STANDARD
 40
0.7
  1
8
 50
90.0
 41
0.85
 72
1
 11
10.8994573506
 21
21.5323092899
  0
LINE
  8
LS-12V-100-W8-28354
 62
3
  6
BYLAYER
 10
12.8744573506
 20
25.5323092899
 11
10.7744573506
 21
25.5323092899
  0
LINE
  8
LS-12V-100-W8-28354
 62
3
  6
BYLAYER
 10
12.8744573506
 20
17.5323092899
 11
10.7744573506
 21
17.5323092899
  0
LINE
  8
LS-12V-100-W8-28354
 62
3
  6
BYLAYER
 10
11.0744573506
 20
25.5323092899
 11
11.0744573506
 21
21.5323092899
  0
LINE
  8
LS-12V-100-W8-28354
 62
3
  6
BYLAYER
 10
11.0744573506
 20
17.5323092899
 11
11.0744573506
 21
21.5323092899
  0
INSERT
  8
LS-12V-100-W8-28354
 62
3
  6
BYLAYER
  2
_FILLED
 10
11.0744573506
 20
25.5323092899
 41
0.7
 42
0.7
 43
0.7
 50
90.0
  0
INSERT
  8
LS-12V-100-W8-28354
 62
3
  6
BYLAYER
  2
_FILLED
 10
11.0744573506
 20
17.5323092899
 41
0.7
 42
0.7
 43
0.7
 50
270.0
  0
ENDBLK
  8
0
  6
BYBLOCK
 62
0
  0
BLOCK
  8
LS-12V-100-W8-28354
 62
3
  6
BYLAYER
  2
*D1
 70
65
 10
0.0
 20
0.0
  0
TEXT
  8
LS-12V-100-W8-28354
 62
3
  6
BYLAYER
 10
28.2519573506
 20
29.3073092899
  7
STANDARD
 40
0.7
  1
33,33
 41
0.85
 72
1
 11
29.7394573506
 21
29.3073092899
  0
LINE
  8
LS-12V-100-W8-28354
 62
3
  6
BYLAYER
 10
13.0744573506
 20
25.7323092899
 11
13.0744573506
 21
29.4323092899
  0
LINE
  8
LS-12V-100-W8-28354
 62
3
  6
BYLAYER
 10
46.4044573506
 20
25.7323092899
 11
46.4044573506
 21
29.4323092899
  0
LINE
  8
LS-12V-100-W8-28354
 62
3
  6
BYLAYER
 10
13.0744573506
 20
29.1323092899
 11
29.7394573506
 21
29.1323092899
  0
LINE
  8
LS-12V-100-W8-28354
 62
3
  6
BYLAYER
 10
46.4044573506
 20
29.1323092899
 11
29.7394573506
 21
29.1323092899
  0
INSERT
  8
LS-12V-100-W8-28354
 62
3
  6
BYLAYER
  2
_FILLED
 10
13.0744573506
 20
29.1323092899
 41
0.7
 42
0.7
 43
0.7
 50
180.0
  0
INSERT
  8
LS-12V-100-W8-28354
 62
3
  6
BYLAYER
  2
_FILLED
 10
46.4044573506
 20
29.1323092899
 41
0.7
 42
0.7
 43
0.7
  0
ENDBLK
  8
0
  6
BYBLOCK
 62
0
  0
BLOCK
  8
LS-12V-100-W8-28354
 62
3
  6
BYLAYER
  2
*D2
 70
65
 10
0.0
 20
0.0
  0
TEXT
  8
LS-12V-100-W8-28354
 62
3
  6
BYLAYER
 10
10.8994573506
 20
33.5443098111
  7
STANDARD
 40
0.7
  1
1
 50
90.0
 41
0.85
 72
1
 11
10.8994573506
 21
33.8418098111
  0
LINE
  8
LS-12V-100-W8-28354
 62
3
  6
BYLAYER
 10
12.8744573506
 20
33.3418098111
 11
10.7744573506
 21
33.3418098111
  0
LINE
  8
LS-12V-100-W8-28354
 62
3
  6
BYLAYER
 10
17.0425503114
 20
34.3418098111
 11
10.7744573506
 21
34.3418098111
  0
LINE
  8
LS-12V-100-W8-28354
 62
3
  6
BYLAYER
 10
11.0744573506
 20
33.3418098111
 11
11.0744573506
 21
32.3418098111
  0
LINE
  8
LS-12V-100-W8-28354
 62
3
  6
BYLAYER
 10
11.0744573506
 20
32.3418098111
 11
11.0744573506
 21
33.8418098111
  0
LINE
  8
LS-12V-100-W8-28354
 62
3
  6
BYLAYER
 10
11.0744573506
 20
34.3418098111
 11
11.0744573506
 21
35.3418098111
  0
LINE
  8
LS-12V-100-W8-28354
 62
3
  6
BYLAYER
 10
11.0744573506
 20
35.3418098111
 11
11.0744573506
 21
33.8418098111
  0
INSERT
  8
LS-12V-100-W8-28354
 62
3
  6
BYLAYER
  2
_FILLED
 10
11.0744573506
 20
33.3418098111
 41
0.7
 42
0.7
 43
0.7
 50
90.0
  0
INSERT
  8
LS-12V-100-W8-28354
 62
3
  6
BYLAYER
  2
_FILLED
 10
11.0744573506
 20
34.3418098111
 41
0.7
 42
0.7
 43
0.7
 50
270.0
  0
ENDBLK
  8
0
  6
BYBLOCK
 62
0
  0
BLOCK
  8
LS-12V-100-W8-28354
 62
3
  6
BYLAYER
  2
*D3
 70
65
 10
0.0
 20
0.0
  0
TEXT
  8
LS-12V-100-W8-28354
 62
3
  6
BYLAYER
 10
22.6969573506
 20
27.7073092899
  7
STANDARD
 40
0.7
  1
11,11
 41
0.85
 72
1
 11
24.1844573506
 21
27.7073092899
  0
LINE
  8
LS-12V-100-W8-28354
 62
3
  6
BYLAYER
 10
18.6294573506
 20
23.4823092899
 11
18.6294573506
 21
27.8323092899
  0
LINE
  8
LS-12V-100-W8-28354
 62
3
  6
BYLAYER
 10
29.7394573506
 20
23.4823092899
 11
29.7394573506
 21
27.8323092899
  0
LINE
  8
LS-12V-100-W8-28354
 62
3
  6
BYLAYER
 10
18.6294573506
 20
27.5323092899
 11
24.1844573506
 21
27.5323092899
  0
LINE
  8
LS-12V-100-W8-28354
 62
3
  6
BYLAYER
 10
29.7394573506
 20
27.5323092899
 11
24.1844573506
 21
27.5323092899
  0
INSERT
  8
LS-12V-100-W8-28354
 62
3
  6
BYLAYER
  2
_FILLED
 10
18.6294573506
 20
27.5323092899
 41
0.7
 42
0.7
 43
0.7
 50
180.0
  0
INSERT
  8
LS-12V-100-W8-28354
 62
3
  6
BYLAYER
  2
_FILLED
 10
29.7394573506
 20
27.5323092899
 41
0.7
 42
0.7
 43
0.7
  0
ENDBLK
  8
0
  6
BYBLOCK
 62
0
  0
BLOCK
  8
LS-12V-100-W8-28354
 62
3
  6
BYLAYER
  2
*D4
 70
65
 10
0.0
 20
0.0
  0
TEXT
  8
LS-12V-100-W8-28354
 62
3
  6
BYLAYER
 10
42.4369573506
 20
27.7073092899
  7
STANDARD
 40
0.7
  1
5,56
 41
0.85
 72
1
 11
43.6269573506
 21
27.7073092899
  0
LINE
  8
LS-12V-100-W8-28354
 62
3
  6
BYLAYER
 10
46.4044573506
 20
25.7323092899
 11
46.4044573506
 21
27.8323092899
  0
LINE
  8
LS-12V-100-W8-28354
 62
3
  6
BYLAYER
 10
40.8494573506
 20
23.4823092899
 11
40.8494573506
 21
27.8323092899
  0
LINE
  8
LS-12V-100-W8-28354
 62
3
  6
BYLAYER
 10
46.4044573506
 20
27.5323092899
 11
43.6269573506
 21
27.5323092899
  0
LINE
  8
LS-12V-100-W8-28354
 62
3
  6
BYLAYER
 10
40.8494573506
 20
27.5323092899
 11
43.6269573506
 21
27.5323092899
  0
INSERT
  8
LS-12V-100-W8-28354
 62
3
  6
BYLAYER
  2
_FILLED
 10
46.4044573506
 20
27.5323092899
 41
0.7
 42
0.7
 43
0.7
  0
INSERT
  8
LS-12V-100-W8-28354
 62
3
  6
BYLAYER
  2
_FILLED
 10
40.8494573506
 20
27.5323092899
 41
0.7
 42
0.7
 43
0.7
 50
180.0
  0
ENDBLK
  8
0
  6
BYBLOCK
 62
0
  0
ENDSEC
  0
SECTION
  2
ENTITIES
  0
TEXT
  8
LS-12V-100-W8-28359
 62
7
  6
BYLAYER
 10
57.2999999691
 20
34.9999989553
  7
TEXTSTYLE_2
 40
0.500002
  1
D
 41
0.9047619048
 72
0
  0
TEXT
  8
LS-12V-100-W8-28359
 62
7
  6
BYLAYER
 10
57.3000000412
 20
25.4999989356
  7
TEXTSTYLE_2
 40
0.500002
  1
C
 50
180.0
 41
0.8333333333
 71
2
 72
2
 11
57.7166683745
 21
25.4999989356
  0
TEXT
  8
LS-12V-100-W8-28359
 62
7
  6
BYLAYER
 10
57.2999999304
 20
15.9999989588
  7
TEXTSTYLE_2
 40
0.500002
  1
B
 41
0.7857142857
 72
0
  0
TEXT
  8
LS-12V-100-W8-28359
 62
7
  6
BYLAYER
 10
1.8476172381
 20
34.999999
  7
TEXTSTYLE_2
 40
0.500002
  1
D
 41
0.9047619048
 72
2
 11
2.3
 21
34.999999
  0
TEXT
  8
LS-12V-100-W8-28359
 62
7
  6
BYLAYER
 10
1.8833315946
 20
25.4999989803
  7
TEXTSTYLE_2
 40
0.500002
  1
C
 41
0.8333333333
 72
2
 11
2.299999928
 21
25.4999989803
  0
TEXT
  8
LS-12V-100-W8-28359
 62
7
  6
BYLAYER
 10
1.8714269048
 20
6.4999990151
  7
TEXTSTYLE_2
 40
0.500002
  1
A
 41
0.8571428571
 72
2
 11
2.3000000477
 21
6.4999990151
  0
TEXT
  8
LS-12V-100-W8-28359
 62
7
  6
BYLAYER
 10
1.9071413244
 20
15.9999990035
  7
TEXTSTYLE_2
 40
0.500002
  1
B
 41
0.7857142857
 72
2
 11
2.3000000387
 21
15.9999990035
  0
TEXT
  8
LS-12V-100-W8-28359
 62
7
  6
BYLAYER
 10
52.6365869029
 20
39.8658557421
  7
TEXTSTYLE_2
 40
0.500002
  1
1
 41
0.5714285714
 72
0
  0
TEXT
  8
LS-12V-100-W8-28359
 62
7
  6
BYLAYER
 10
43.3038876239
 20
39.8658557421
  7
TEXTSTYLE_2
 40
0.500002
  1
2
 41
0.7857142857
 72
2
 11
43.6967463382
 21
39.8658557421
  0
TEXT
  8
LS-12V-100-W8-28359
 62
7
  6
BYLAYER
 10
34.1699202362
 20
39.8658557421
  7
TEXTSTYLE_2
 40
0.500002
  1
3
 41
0.7142857143
 72
0
  0
TEXT
  8
LS-12V-100-W8-28359
 62
7
  6
BYLAYER
 10
24.8372209572
 20
39.8658557421
  7
TEXTSTYLE_2
 40
0.500002
  1
4
 41
0.7857142857
 72
2
 11
25.2300796715
 21
39.8658557421
  0
TEXT
  8
LS-12V-100-W8-28359
 62
7
  6
BYLAYER
 10
15.7032535696
 20
39.8658557421
  7
TEXTSTYLE_2
 40
0.500002
  1
5
 41
0.7142857143
 72
0
  0
TEXT
  8
LS-12V-100-W8-28359
 62
7
  6
BYLAYER
 10
6.3705542905
 20
39.8658557421
  7
TEXTSTYLE_2
 40
0.500002
  1
6
 41
0.7857142857
 72
2
 11
6.7634130048
 21
39.8658557421
  0
TEXT
  8
LS-12V-100-W8-28359
 62
7
  6
BYLAYER
 10
15.7032536645
 20
1.665855615
  7
TEXTSTYLE_2
 40
0.500002
  1
5
 41
0.7142857143
 72
0
  0
TEXT
  8
LS-12V-100-W8-28359
 62
7
  6
BYLAYER
 10
6.3705543855
 20
1.665855615
  7
TEXTSTYLE_2
 40
0.500002
  1
6
 41
0.7857142857
 72
2
 11
6.7634130998
 21
1.665855615
  0
INSERT
  8
LS-12V-100-W8-28359
 62
7
  6
BYLAYER
  2
SYMBOL_283_BL0
 10
37.478133458
 20
3.4864330558
  0
DIMENSION
  8
LS-12V-100-W8-28354
 62
3
  6
BYLAYER
  2
*D0
 10
11.0744573506
 20
17.5323092899
 11
10.6827592514
 21
21.2663452825
 70
128
 13
12.8744573506
 23
25.5323092899
 14
12.8744573506
 24
17.5323092899
 50
270.0
  0
DIMENSION
  8
LS-12V-100-W8-28354
 62
3
  6
BYLAYER
  2
*D1
 10
46.4044573506
 20
29.1323092899
 11
28.2519573506
 21
29.6573092899
 70
128
 13
13.0744573506
 23
25.7323092899
 14
46.4044573506
 24
25.7323092899
  0
DIMENSION
  8
LS-12V-100-W8-28354
 62
3
  6
BYLAYER
  2
*D2
 10
11.0744573506
 20
34.3418098111
 11
10.6827592514
 21
33.5758458037
 70
128
 13
12.8744573506
 23
33.3418098111
 14
17.0425503114
 24
34.3418098111
 50
90.0
  0
DIMENSION
  8
LS-12V-100-W8-28354
 62
3
  6
BYLAYER
  2
*D3
 10
29.7394573506
 20
27.5323092899
 11
22.6969573506
 21
28.0573092899
 70
128
 13
18.6294573506
 23
23.4823092899
 14
29.7394573506
 24
23.4823092899
  0
DIMENSION
  8
LS-12V-100-W8-28354
 62
3
  6
BYLAYER
  2
*D4
 10
40.8494573506
 20
27.5323092899
 11
42.4369573506
 21
28.0573092899
 70
128
 13
46.4044573506
 23
25.7323092899
 14
40.8494573506
 24
23.4823092899
 50
180.0
  0
LINE
  8
LS-12V-100-W8-28359
 62
3
  6
BYLAYER
 10
20.5599999691
 20
12.4499999093
 11
57.9999999691
 21
12.4499999093
  0
LINE
  8
LS-12V-100-W8-28359
 62
3
  6
BYLAYER
 10
20.5599999691
 20
12.4499999093
 11
20.5599999691
 21
1.3999999093
  0
LINE
  8
LS-12V-100-W8-28359
 62
3
  6
BYLAYER
 10
41.9199999691
 20
10.7499999093
 11
57.9999999691
 21
10.7499999093
  0
LINE
  8
LS-12V-100-W8-28359
 62
3
  6
BYLAYER
 10
20.5599999691
 20
9.0499999093
 11
57.9999999691
 21
9.0499999093
  0
LINE
  8
LS-12V-100-W8-28359
 62
3
  6
BYLAYER
 10
20.5599999691
 20
8.1999999093
 11
31.4799999691
 21
8.1999999093
  0
LINE
  8
LS-12V-100-W8-28359
 62
3
  6
BYLAYER
 10
33.0799999691
 20
8.1999999093
 11
41.9199999691
 21
8.1999999093
  0
LINE
  8
LS-12V-100-W8-28359
 62
3
  6
BYLAYER
 10
20.5599999691
 20
7.3499999093
 11
31.4799999691
 21
7.3499999093
  0
LINE
  8
LS-12V-100-W8-28359
 62
3
  6
BYLAYER
 10
33.0799999691
 20
7.3499999093
 11
41.9199999691
 21
7.3499999093
  0
LINE
  8
LS-12V-100-W8-28359
 62
3
  6
BYLAYER
 10
20.5599999691
 20
6.4999999093
 11
31.4799999691
 21
6.4999999093
  0
LINE
  8
LS-12V-100-W8-28359
 62
3
  6
BYLAYER
 10
33.0799999691
 20
6.4999999093
 11
57.9999999691
 21
6.4999999093
  0
LINE
  8
LS-12V-100-W8-28359
 62
3
  6
BYLAYER
 10
20.5599999691
 20
5.6499999093
 11
31.4799999691
 21
5.6499999093
  0
LINE
  8
LS-12V-100-W8-28359
 62
3
  6
BYLAYER
 10
33.0799999691
 20
5.6499999093
 11
41.9199999691
 21
5.6499999093
  0
LINE
  8
LS-12V-100-W8-28359
 62
3
  6
BYLAYER
 10
20.5599999691
 20
4.7999999093
 11
31.4799999691
 21
4.7999999093
  0
LINE
  8
LS-12V-100-W8-28359
 62
3
  6
BYLAYER
 10
41.9199999691
 20
4.7999999093
 11
57.9999999691
 21
4.7999999093
  0
LINE
  8
LS-12V-100-W8-28359
 62
3
  6
BYLAYER
 10
20.5599999691
 20
3.9499999093
 11
31.4799999691
 21
3.9499999093
  0
LINE
  8
LS-12V-100-W8-28359
 62
3
  6
BYLAYER
 10
20.5599999691
 20
3.0999999093
 11
31.4799999691
 21
3.0999999093
  0
LINE
  8
LS-12V-100-W8-28359
 62
3
  6
BYLAYER
 10
41.9199999691
 20
3.0999999093
 11
55.3199999691
 21
3.0999999093
  0
LINE
  8
LS-12V-100-W8-28359
 62
3
  6
BYLAYER
 10
20.5599999691
 20
2.2499999093
 11
31.4799999691
 21
2.2499999093
  0
LINE
  8
LS-12V-100-W8-28359
 62
3
  6
BYLAYER
 10
20.5599999691
 20
1.3999999093
 11
57.9999999691
 21
1.3999999093
  0
LINE
  8
LS-12V-100-W8-28359
 62
3
  6
BYLAYER
 10
22.1199999691
 20
9.0499999093
 11
22.1199999691
 21
1.3999999093
  0
LINE
  8
LS-12V-100-W8-28359
 62
3
  6
BYLAYER
 10
27.3199999691
 20
9.0499999093
 11
27.3199999691
 21
1.3999999093
  0
LINE
  8
LS-12V-100-W8-28359
 62
3
  6
BYLAYER
 10
29.9199999691
 20
9.0499999093
 11
29.9199999691
 21
1.3999999093
  0
LINE
  8
LS-12V-100-W8-28359
 62
3
  6
BYLAYER
 10
31.4799999691
 20
9.0499999093
 11
31.4799999691
 21
1.3999999093
  0
LINE
  8
LS-12V-100-W8-28359
 62
3
  6
BYLAYER
 10
33.0799999691
 20
12.4499999093
 11
33.0799999691
 21
1.3999999093
  0
LINE
  8
LS-12V-100-W8-28359
 62
3
  6
BYLAYER
 10
35.8799999691
 20
9.0499999093
 11
35.8799999691
 21
5.6499999093
  0
LINE
  8
LS-12V-100-W8-28359
 62
3
  6
BYLAYER
 10
38.9199999691
 20
12.4499999093
 11
38.9199999691
 21
5.6499999093
  0
LINE
  8
LS-12V-100-W8-28359
 62
3
  6
BYLAYER
 10
41.9199999691
 20
12.4499999093
 11
41.9199999691
 21
1.3999999093
  0
LINE
  8
LS-12V-100-W8-28359
 62
3
  6
BYLAYER
 10
45.9199999691
 20
12.4499999093
 11
45.9199999691
 21
10.7499999093
  0
LINE
  8
LS-12V-100-W8-28359
 62
3
  6
BYLAYER
 10
52.9199999691
 20
12.4499999093
 11
52.9199999691
 21
9.0499999093
  0
LINE
  8
LS-12V-100-W8-28359
 62
3
  6
BYLAYER
 10
55.3199999691
 20
6.4999999093
 11
55.3199999691
 21
1.3999999093
  0
LINE
  8
LS-12V-100-W8-28359
 62
3
  6
BYLAYER
 10
57.9999999691
 20
12.4499999093
 11
57.9999999691
 21
1.3999999093
  0
TEXT
  8
LS-12V-100-W8-28359
 62
3
  6
BYLAYER
 10
20.7474999691
 20
12.0699999093
  7
TEXTSTYLE_3
 40
0.24
  1
THE TECHNICAL INFORMATION AND DESIGN DATA DISCLOSED ON THIS
 41
0.786117837
 72
0
  0
TEXT
  8
LS-12V-100-W8-28359
 62
3
  6
BYLAYER
 10
20.7474999691
 20
11.7099999093
  7
TEXTSTYLE_3
 40
0.24
  1
DOCUMENT HEREIN CONSTITUTES TRADE SECRETS AND IS THE PROPERTY
 41
0.7903981265
 72
0
  0
TEXT
  8
LS-12V-100-W8-28359
 62
3
  6
BYLAYER
 10
20.7474999691
 20
11.3499999093
  7
TEXTSTYLE_3
 40
0.24
  1
OF "DENGTEC" AND ARE TO BE MAINTAINED IN STRICT CONFIDENCE BY
 41
0.7825917252
 72
0
  0
TEXT
  8
LS-12V-100-W8-28359
 62
3
  6
BYLAYER
 10
20.7474999691
 20
10.9899999093
  7
TEXTSTYLE_3
 40
0.24
  1
THE RECIPIENT HEREOF AND IS LOANED UPON EXPRESS CONDITIONS THAT
 41
0.7792894936
 72
0
  0
TEXT
  8
LS-12V-100-W8-28359
 62
3
  6
BYLAYER
 10
20.7474999691
 20
10.6299999093
  7
TEXTSTYLE_3
 40
0.24
  1
IT WILL NOT BE USED DIRECTLY OR INDIRECTLY IN ANY MANNER 
 41
0.7848788638
 72
0
  0
TEXT
  8
LS-12V-100-W8-28359
 62
3
  6
BYLAYER
 10
20.7474999691
 20
10.2699999093
  7
TEXTSTYLE_3
 40
0.24
  1
DETRIMENTAL TO OUR INTRESTS AND SHALL BE USED ONLY IN CONNECTION 
 41
0.7805860806
 72
0
  0
TEXT
  8
LS-12V-100-W8-28359
 62
3
  6
BYLAYER
 10
20.7474999691
 20
9.9099999093
  7
TEXTSTYLE_3
 40
0.24
  1
WITH MATERIALS AND/OR TECHNICAL INFORMATION AND/OR DESIGN DATA
 41
0.7976190476
 72
0
  0
TEXT
  8
LS-12V-100-W8-28359
 62
3
  6
BYLAYER
 10
20.7474999691
 20
9.5499999093
  7
TEXTSTYLE_3
 40
0.24
  1
FURNISHED BY "DENGTEC" OR ITS AFFILIATES OR AGENTS. ALL SAID
 41
0.7674603175
 72
0
  0
TEXT
  8
LS-12V-100-W8-28359
 62
3
  6
BYLAYER
 10
20.7474999691
 20
9.1899999093
  7
TEXTSTYLE_3
 40
0.24
  1
MATERIALS ARE SUBJECT TO RETURN UPON DEMAND.
 41
0.7857142857
 72
0
  0
TEXT
  8
LS-12V-100-W8-28359
 62
3
  6
BYLAYER
 10
33.2674999691
 20
11.4499999093
  7
TEXTSTYLE_4
 40
0.4
  1
General Tolerance
 41
0.6932773109
 72
0
  0
TEXT
  8
LS-12V-100-W8-28359
 62
3
  6
BYLAYER
 10
33.2674999691
 20
10.8499999093
  7
TEXTSTYLE_4
 40
0.4
  1
DIN ISO 2768
 41
0.7718253968
 72
0
  0
TEXT
  8
LS-12V-100-W8-28359
 62
3
  6
BYLAYER
 10
33.2674999691
 20
10.2499999093
  7
TEXTSTYLE_4
 40
0.4
  1
Edges of workpieces
 41
0.7117794486
 72
0
  0
TEXT
  8
LS-12V-100-W8-28359
 62
3
  6
BYLAYER
 10
33.2674999691
 20
9.6499999093
  7
TEXTSTYLE_4
 40
0.4
  1
DIN 6784
 41
0.7827380952
 72
0
  0
TEXT
  8
LS-12V-100-W8-28359
 62
3
  6
BYLAYER
 10
39.412857112
 20
11.2999999093
  7
TEXTSTYLE_5
 40
0.6
  1
Scale
 41
0.6714285714
 72
1
 11
40.4199999691
 21
11.2999999093
  0
TEXT
  8
LS-12V-100-W8-28359
 62
3
  6
BYLAYER
 10
42.1074999691
 20
11.7249999093
  7
TEXTSTYLE_5
 40
0.5
  1
Drawing
 41
0.7448979592
 72
0
  0
TEXT
  8
LS-12V-100-W8-28359
 62
3
  6
BYLAYER
 10
42.1074999691
 20
10.9749999093
  7
TEXTSTYLE_5
 40
0.5
  1
Type 
 41
0.7380952381
 72
0
  0
TEXT
  8
LS-12V-100-W8-28359
 62
3
  6
BYLAYER
 10
46.1074999691
 20
11.1999999093
  7
TEXTSTYLE_5
 40
0.8
  1
ASSEM
 41
0.8
 72
0
  0
TEXT
  8
LS-12V-100-W8-28359
 62
3
  6
BYLAYER
 10
49.3074999691
 20
11.1999999093
  7
TEXTSTYLE_5
 40
0.8
  1
 
 41
0.7857142857
 72
0
  0
TEXT
  8
LS-12V-100-W8-28359
 62
3
  6
BYLAYER
 10
53.1074999691
 20
11.7949999093
  7
TEXTSTYLE_5
 40
0.46
  1
Weight 
 41
0.768707483
 72
0
  0
TEXT
  8
LS-12V-100-W8-28359
 62
3
  6
BYLAYER
 10
55.0196428262
 20
10.9449999093
  7
TEXTSTYLE_5
 40
0.46
  1
0,000
 41
0.7428571429
 72
2
 11
56.7282142548
 21
10.9449999093
  0
TEXT
  8
LS-12V-100-W8-28359
 62
3
  6
BYLAYER
 10
56.7282142548
 20
10.9449999093
  7
TEXTSTYLE_5
 40
0.46
  1
 KG
 41
0.7857142857
 72
2
 11
57.8124999691
 21
10.9449999093
  0
TEXT
  8
LS-12V-100-W8-28359
 62
3
  6
BYLAYER
 10
39.3271428262
 20
9.5999999093
  7
TEXTSTYLE_5
 40
0.6
  1
5,000
 41
0.7285714286
 72
1
 11
40.4199999691
 21
9.5999999093
  0
TEXT
  8
LS-12V-100-W8-28359
 62
3
  6
BYLAYER
 10
42.1074999691
 20
10.0949999093
  7
TEXTSTYLE_5
 40
0.46
  1
Material:
 41
0.6216931217
 72
0
  0
TEXT
  8
LS-12V-100-W8-28359
 62
3
  6
BYLAYER
 10
42.1074999691
 20
9.2449999093
  7
TEXTSTYLE_5
 40
0.46
  1
Color:
 41
0.626984127
 72
0
  0
TEXT
  8
LS-12V-100-W8-28359
 62
3
  6
BYLAYER
 10
21.1592856834
 20
8.3949999093
  7
TEXTSTYLE_5
 40
0.46
  1
8
 41
0.7857142857
 72
1
 11
21.3399999691
 21
8.3949999093
  0
TEXT
  8
LS-12V-100-W8-28359
 62
3
  6
BYLAYER
 10
32.6424999691
 20
2.7488094331
  7
TEXTSTYLE_2
 40
1.0
  1
CAD-A4
 50
90.0
 41
0.8253968254
 72
2
 11
32.6424999691
 21
7.7011903855
  0
TEXT
  8
LS-12V-100-W8-28359
 62
3
  6
BYLAYER
 10
36.6333333024
 20
8.3949999093
  7
TEXTSTYLE_5
 40
0.46
  1
DATE
 41
0.8333333333
 72
1
 11
37.3999999691
 21
8.3949999093
  0
TEXT
  8
LS-12V-100-W8-28359
 62
3
  6
BYLAYER
 10
39.6807142548
 20
8.3949999093
  7
TEXTSTYLE_5
 40
0.46
  1
NAME
 41
0.8035714286
 72
1
 11
40.4199999691
 21
8.3949999093
  0
TEXT
  8
LS-12V-100-W8-28359
 62
3
  6
BYLAYER
 10
42.1074999691
 20
8.3949999093
  7
TEXTSTYLE_5
 40
0.46
  1
Part Name:
 41
0.7
 72
0
  0
TEXT
  8
LS-12V-100-W8-28359
 62
3
  6
BYLAYER
 10
21.1592856834
 20
7.5449999093
  7
TEXTSTYLE_5
 40
0.46
  1
7
 41
0.7857142857
 72
1
 11
21.3399999691
 21
7.5449999093
  0
TEXT
  8
LS-12V-100-W8-28359
 62
3
  6
BYLAYER
 10
33.2674999691
 20
7.5649999093
  7
TEXTSTYLE_6
 40
0.42
  1
DESIGNER
 41
0.7648809524
 72
0
  0
TEXT
  8
LS-12V-100-W8-28359
 62
3
  6
BYLAYER
 10
35.8914285405
 20
7.5549999093
  7
TEXTSTYLE_5
 40
0.44
  1
04-Aug-20
 41
0.7619047619
 72
1
 11
37.3999999691
 21
7.5549999093
  0
TEXT
  8
LS-12V-100-W8-28359
 62
3
  6
BYLAYER
 10
38.8976190167
 20
7.5449999093
  7
TEXTSTYLE_5
 40
0.46
  1
David Cao
 41
0.7354497354
 72
1
 11
40.4199999691
 21
7.5449999093
  0
TEXT
  8
LS-12V-100-W8-28359
 62
3
  6
BYLAYER
 10
44.4552380643
 20
6.9499999093
  7
TEXTSTYLE_5
 40
0.8
  1
LS-12V-100-W8-2835
 41
0.7645502646
 72
1
 11
49.9599999691
 21
6.9499999093
  0
TEXT
  8
LS-12V-100-W8-28359
 62
3
  6
BYLAYER
 10
21.1592856834
 20
6.6949999093
  7
TEXTSTYLE_5
 40
0.46
  1
6
 41
0.7857142857
 72
1
 11
21.3399999691
 21
6.6949999093
  0
TEXT
  8
LS-12V-100-W8-28359
 62
3
  6
BYLAYER
 10
33.2674999691
 20
6.7149999093
  7
TEXTSTYLE_6
 40
0.42
  1
CHECKER
 41
0.7789115646
 72
0
  0
TEXT
  8
LS-12V-100-W8-28359
 62
3
  6
BYLAYER
 10
21.1757142548
 20
5.8449999093
  7
TEXTSTYLE_5
 40
0.46
  1
5
 41
0.7142857143
 72
1
 11
21.3399999691
 21
5.8449999093
  0
TEXT
  8
LS-12V-100-W8-28359
 62
3
  6
BYLAYER
 10
33.2674999691
 20
5.8649999093
  7
TEXTSTYLE_6
 40
0.42
  1
APPROVER
 41
0.7916666667
 72
0
  0
TEXT
  8
LS-12V-100-W8-28359
 62
3
  6
BYLAYER
 10
42.1074999691
 20
5.8449999093
  7
TEXTSTYLE_5
 40
0.46
  1
Drawing Number:
 41
0.7238095238
 72
0
  0
TEXT
  8
LS-12V-100-W8-28359
 62
3
  6
BYLAYER
 10
55.5074999691
 20
5.8449999093
  7
TEXTSTYLE_5
 40
0.46
  1
Rev:
 41
0.6428571429
 72
0
  0
TEXT
  8
LS-12V-100-W8-28359
 62
3
  6
BYLAYER
 10
21.1592856834
 20
4.9949999093
  7
TEXTSTYLE_5
 40
0.46
  1
4
 41
0.7857142857
 72
1
 11
21.3399999691
 21
4.9949999093
  0
TEXT
  8
LS-12V-100-W8-28359
 62
3
  6
BYLAYER
 10
43.8199999691
 20
4.9249999093
  7
TEXTSTYLE_5
 40
0.6
  1
ls-12v-100-w8-2835.asm
 41
0.7272727273
 72
1
 11
48.6199999691
 21
4.9249999093
  0
TEXT
  8
LS-12V-100-W8-28359
 62
3
  6
BYLAYER
 10
56.914404731
 20
4.9949999093
  7
TEXTSTYLE_8
 40
0.46
  1
A
 41
1.0
 72
2
 11
57.4510713977
 21
4.9949999093
  0
TEXT
  8
LS-12V-100-W8-28359
 62
3
  6
BYLAYER
 10
57.4510713977
 20
4.9949999093
  7
TEXTSTYLE_5
 40
0.46
  1
0
 41
0.7857142857
 72
2
 11
57.8124999691
 21
4.9949999093
  0
TEXT
  8
LS-12V-100-W8-28359
 62
3
  6
BYLAYER
 10
21.1757142548
 20
4.1449999093
  7
TEXTSTYLE_5
 40
0.46
  1
3
 41
0.7142857143
 72
1
 11
21.3399999691
 21
4.1449999093
  0
TEXT
  8
LS-12V-100-W8-28359
 62
3
  6
BYLAYER
 10
42.1074999691
 20
4.1449999093
  7
TEXTSTYLE_5
 40
0.46
  1
Part Number / CSG:
 41
0.7275132275
 72
0
  0
TEXT
  8
LS-12V-100-W8-28359
 62
3
  6
BYLAYER
 10
55.5074999691
 20
4.1449999093
  7
TEXTSTYLE_5
 40
0.46
  1
Sheet:
 41
0.6428571429
 72
0
  0
TEXT
  8
LS-12V-100-W8-28359
 62
3
  6
BYLAYER
 10
21.1592856834
 20
3.2949999093
  7
TEXTSTYLE_5
 40
0.46
  1
2
 41
0.7857142857
 72
1
 11
21.3399999691
 21
3.2949999093
  0
TEXT
  8
LS-12V-100-W8-28359
 62
3
  6
BYLAYER
 10
56.5171428262
 20
3.2749999093
  7
TEXTSTYLE_5
 40
0.5
  1
1
 41
0.5714285714
 72
1
 11
56.6599999691
 21
3.2749999093
  0
TEXT
  8
LS-12V-100-W8-28359
 62
3
  6
BYLAYER
 10
21.2085713977
 20
2.4449999093
  7
TEXTSTYLE_5
 40
0.46
  1
1
 41
0.5714285714
 72
1
 11
21.3399999691
 21
2.4449999093
  0
TEXT
  8
LS-12V-100-W8-28359
 62
3
  6
BYLAYER
 10
42.1074999691
 20
2.4449999093
  7
TEXTSTYLE_5
 40
0.46
  1
Project Number:
 41
0.680952381
 72
0
  0
TEXT
  8
LS-12V-100-W8-28359
 62
3
  6
BYLAYER
 10
56.3149999691
 20
2.4449999093
  7
TEXTSTYLE_5
 40
0.46
  1
OF
 41
0.75
 72
1
 11
56.6599999691
 21
2.4449999093
  0
TEXT
  8
LS-12V-100-W8-28359
 62
3
  6
BYLAYER
 10
20.8635713977
 20
1.5949999093
  7
TEXTSTYLE_5
 40
0.46
  1
No.
 41
0.6904761905
 72
1
 11
21.3399999691
 21
1.5949999093
  0
TEXT
  8
LS-12V-100-W8-28359
 62
3
  6
BYLAYER
 10
23.246904731
 20
1.5949999093
  7
TEXTSTYLE_5
 40
0.46
  1
CONTENTS
 41
0.8005952381
 72
1
 11
24.7199999691
 21
1.5949999093
  0
TEXT
  8
LS-12V-100-W8-28359
 62
3
  6
BYLAYER
 10
27.8533333024
 20
1.5949999093
  7
TEXTSTYLE_5
 40
0.46
  1
DATE
 41
0.8333333333
 72
1
 11
28.6199999691
 21
1.5949999093
  0
TEXT
  8
LS-12V-100-W8-28359
 62
3
  6
BYLAYER
 10
29.9607142548
 20
1.5949999093
  7
TEXTSTYLE_5
 40
0.46
  1
NAME
 41
0.8035714286
 72
1
 11
30.6999999691
 21
1.5949999093
  0
TEXT
  8
LS-12V-100-W8-28359
 62
3
  6
BYLAYER
 10
56.5171428262
 20
1.5749999093
  7
TEXTSTYLE_5
 40
0.5
  1
1
 41
0.5714285714
 72
1
 11
56.6599999691
 21
1.5749999093
  0
LINE
  8
LS-12V-100-W8-28359
 62
7
  6
BYLAYER
 10
1.4000000607
 20
1.3999999093
 11
1.4000000607
 21
40.6000000364
  0
LINE
  8
LS-12V-100-W8-28359
 62
7
  6
BYLAYER
 10
2.4000000607
 20
2.3999999093
 11
2.4000000607
 21
39.6000000364
  0
LINE
  8
LS-12V-100-W8-28359
 62
7
  6
BYLAYER
 10
11.2333333821
 20
2.3999999093
 11
11.2333333821
 21
1.3999999093
  0
LINE
  8
LS-12V-100-W8-28359
 62
7
  6
BYLAYER
 10
11.2333332872
 20
39.6000000364
 11
11.2333332872
 21
40.6000000364
  0
LINE
  8
LS-12V-100-W8-28359
 62
7
  6
BYLAYER
 10
1.4000000607
 20
1.3999999093
 11
57.9999999691
 21
1.3999999093
  0
LINE
  8
LS-12V-100-W8-28359
 62
7
  6
BYLAYER
 10
2.4000000607
 20
2.3999999093
 11
20.5599999691
 21
2.3999999093
  0
LINE
  8
LS-12V-100-W8-28359
 62
3
  6
BYLAYER
 10
55.8993375567
 20
10.2122412422
 11
56.8993375567
 21
10.4622412422
  0
LINE
  8
LS-12V-100-W8-28359
 62
3
  6
BYLAYER
 10
57.060399861
 20
9.9552821935
 11
55.7301513701
 21
9.9552821935
  0
LINE
  8
LS-12V-100-W8-28359
 62
3
  6
BYLAYER
 10
54.8433190429
 20
9.9552821935
 11
53.4727599916
 21
9.9552821935
  0
LINE
  8
LS-12V-100-W8-28359
 62
7
  6
BYLAYER
 10
20.4666667155
 20
2.3999999093
 11
20.4666667155
 21
1.3999999093
  0
LINE
  8
LS-12V-100-W8-28359
 62
7
  6
BYLAYER
 10
20.4666666205
 20
39.6000000364
 11
20.4666666205
 21
40.6000000364
  0
LINE
  8
LS-12V-100-W8-28359
 62
7
  6
BYLAYER
 10
2.4000000607
 20
11.5000000629
 11
1.4000000607
 21
11.5000000629
  0
LINE
  8
LS-12V-100-W8-28359
 62
3
  6
BYLAYER
 10
55.8993375567
 20
9.7122412422
 11
56.8993375567
 21
9.4622412422
  0
LINE
  8
LS-12V-100-W8-28359
 62
7
  6
BYLAYER
 10
29.6999999539
 20
39.6000000364
 11
29.6999999539
 21
40.6000000364
  0
LINE
  8
LS-12V-100-W8-28359
 62
7
  6
BYLAYER
 10
56.9999999691
 20
20.9999999553
 11
57.9999999691
 21
20.9999999553
  0
LINE
  8
LS-12V-100-W8-28359
 62
7
  6
BYLAYER
 10
2.4000000607
 20
21.0000000629
 11
1.4000000607
 21
21.0000000629
  0
LINE
  8
LS-12V-100-W8-28359
 62
7
  6
BYLAYER
 10
38.9333333011
 20
40.6000000279
 11
38.9333333011
 21
39.6000000279
  0
LINE
  8
LS-12V-100-W8-28359
 62
7
  6
BYLAYER
 10
2.4000000607
 20
30.5000000629
 11
1.4000000607
 21
30.5000000629
  0
LINE
  8
LS-12V-100-W8-28359
 62
7
  6
BYLAYER
 10
56.9999999691
 20
30.4999999553
 11
57.9999999691
 21
30.4999999553
  0
LINE
  8
LS-12V-100-W8-28359
 62
7
  6
BYLAYER
 10
48.1666666205
 20
39.6000000364
 11
48.1666666205
 21
40.6000000364
  0
LINE
  8
LS-12V-100-W8-28359
 62
7
  6
BYLAYER
 10
2.4000000607
 20
39.6000000364
 11
56.9999999691
 21
39.6000000364
  0
LINE
  8
LS-12V-100-W8-28359
 62
7
  6
BYLAYER
 10
1.4000000607
 20
40.6000000364
 11
57.9999999691
 21
40.6000000364
  0
LINE
  8
LS-12V-100-W8-28359
 62
3
  6
BYLAYER
 10
54.1430200634
 20
9.2825244897
 11
54.1398624028
 21
10.5961112824
  0
LINE
  8
LS-12V-100-W8-28359
 62
3
  6
BYLAYER
 10
55.8993375567
 20
10.2122412422
 11
55.8993375567
 21
9.7122412422
  0
LINE
  8
LS-12V-100-W8-28359
 62
3
  6
BYLAYER
 10
56.8993375567
 20
10.4622412422
 11
56.8993375567
 21
9.4622412422
  0
LINE
  8
LS-12V-100-W8-28359
 62
7
  6
BYLAYER
 10
56.9999999691
 20
12.4499999093
 11
56.9999999691
 21
39.6000000364
  0
LINE
  8
LS-12V-100-W8-28359
 62
7
  6
BYLAYER
 10
57.9999999691
 20
1.3999999093
 11
57.9999999691
 21
40.6000000364
  0
LINE
  8
LS-12V-100-W8-2835_PLATE2
 62
7
  6
BYLAYER
 10
13.0744573506
 20
25.5323092899
 11
13.0744573506
 21
23.5323092899
  0
LINE
  8
LS-12V-100-W8-2835_PADS2
 62
7
  6
BYLAYER
 10
13.0744573506
 20
23.5323092899
 11
13.0744573506
 21
21.9323092899
  0
LINE
  8
LS-12V-100-W8-2835_PLATE2
 62
7
  6
BYLAYER
 10
13.0744573506
 20
21.9323092899
 11
13.0744573506
 21
21.1323092899
  0
LINE
  8
LS-12V-100-W8-2835_PADS2
 62
7
  6
BYLAYER
 10
13.0744573506
 20
21.1323092899
 11
13.0744573506
 21
19.5323092899
  0
LINE
  8
LS-12V-100-W8-2835_PLATE2
 62
7
  6
BYLAYER
 10
13.0744573506
 20
19.5323092899
 11
13.0744573506
 21
17.5323092899
  0
LINE
  8
LED_CHIP_2835_BASE2
 62
7
  6
BYLAYER
 10
17.2294573506
 20
23.1823092899
 11
17.2294573506
 21
19.8823092899
  0
LINE
  8
LED_CHIP_2835_BASE2
 62
7
  6
BYLAYER
 10
17.2399317193
 20
19.8927836585
 11
17.2399317193
 21
20.2718349213
  0
LINE
  8
LED_CHIP_2835_BASE2
 62
7
  6
BYLAYER
 10
17.2425503114
 20
23.1692163291
 11
17.2425503114
 21
20.2692163291
  0
LINE
  8
LED_CHIP_2835_BASE2
 62
7
  6
BYLAYER
 10
17.3794573506
 20
22.8055235756
 11
17.3794573506
 21
20.2590950042
  0
LINE
  8
LED_CHIP_2835_SLICONE2
 62
7
  6
BYLAYER
 10
17.3934256584
 20
22.8055235756
 11
17.3934256584
 21
20.2590950042
  0
LINE
  8
LED_CHIP_2835_BASE2
 62
7
  6
BYLAYER
 10
17.5794573506
 20
23.0055235756
 11
17.5794573506
 21
22.9915552678
  0
LINE
  8
LED_CHIP_2835_BASE2
 62
7
  6
BYLAYER
 10
17.5794573506
 20
20.0590950042
 11
17.5794573506
 21
20.073063312
  0
LINE
  8
LED_CHIP_2835_BASE2
 62
7
  6
BYLAYER
 10
19.6794573506
 20
23.0055235756
 11
19.6794573506
 21
22.9915552678
  0
LINE
  8
LED_CHIP_2835_BASE2
 62
7
  6
BYLAYER
 10
19.6794573506
 20
20.0590950042
 11
19.6794573506
 21
20.073063312
  0
LINE
  8
0
 62
7
  6
BYLAYER
 10
19.8444573506
 20
20.6545527993
 11
19.8444573506
 21
20.6545887718
  0
LINE
  8
LED_CHIP_2835_SLICONE2
 62
7
  6
BYLAYER
 10
19.8654890428
 20
20.2590950042
 11
19.8654890428
 21
22.8055235756
  0
LINE
  8
LED_CHIP_2835_BASE2
 62
7
  6
BYLAYER
 10
19.8794573506
 20
20.2590950042
 11
19.8794573506
 21
22.8055235756
  0
LINE
  8
LED_CHIP_2835_BASE2
 62
7
  6
BYLAYER
 10
20.0163643898
 20
19.8954022507
 11
20.0163643898
 21
23.1692163291
  0
LINE
  8
LED_CHIP_2835_BASE2
 62
7
  6
BYLAYER
 10
20.0294573506
 20
19.8823092899
 11
20.0294573506
 21
23.1823092899
  0
LINE
  8
LED_CHIP_2835_ELETRODE_22
 62
7
  6
BYLAYER
 10
18.1494573506
 20
23.2823092899
 11
18.0494573506
 21
23.1823092899
  0
LINE
  8
LED_CHIP_2835_BASE2
 62
7
  6
BYLAYER
 10
17.618982982
 20
19.8927836585
 11
17.2399317193
 21
20.2718349213
  0
LINE
  8
LED_CHIP_2835_ELETRODE_12
 62
7
  6
BYLAYER
 10
18.0494573506
 20
19.8823092899
 11
18.1494573506
 21
19.7823092899
  0
LINE
  8
LED_CHIP_2835_BASE2
 62
7
  6
BYLAYER
 10
20.0294573506
 20
23.1823092899
 11
20.0163643898
 21
23.1692163291
  0
LINE
  8
LED_CHIP_2835_BASE2
 62
7
  6
BYLAYER
 10
20.0294573506
 20
19.8823092899
 11
20.0163643898
 21
19.8954022507
  0
LINE
  8
LED_CHIP_2835_BASE2
 62
7
  6
BYLAYER
 10
17.2294573506
 20
19.8823092899
 11
17.2399317193
 21
19.8927836585
  0
LINE
  8
LED_CHIP_2835_BASE2
 62
7
  6
BYLAYER
 10
17.2294573506
 20
23.1823092899
 11
17.2425503114
 21
23.1692163291
  0
LINE
  8
LED_CHIP_2835_ELETRODE_12
 62
7
  6
BYLAYER
 10
19.1094573506
 20
19.7823092899
 11
19.2094573506
 21
19.8823092899
  0
LINE
  8
LED_CHIP_2835_ELETRODE_22
 62
7
  6
BYLAYER
 10
19.2094573506
 20
23.1823092899
 11
19.1094573506
 21
23.2823092899
  0
LINE
  8
LS-12V-100-W8-2835_PLATE2
 62
7
  6
BYLAYER
 10
13.0744573506
 20
17.5323092899
 11
46.4044573506
 21
17.5323092899
  0
LINE
  8
LED_CHIP_2835_BASE2
 62
7
  6
BYLAYER
 10
28.3394573506
 20
23.1823092899
 11
28.3394573506
 21
19.8823092899
  0
LINE
  8
LED_CHIP_2835_BASE2
 62
7
  6
BYLAYER
 10
28.3499317193
 20
19.8927836585
 11
28.3499317193
 21
20.2718349213
  0
LINE
  8
LED_CHIP_2835_BASE2
 62
7
  6
BYLAYER
 10
28.3525503114
 20
23.1692163291
 11
28.3525503114
 21
20.2692163291
  0
LINE
  8
LED_CHIP_2835_BASE2
 62
7
  6
BYLAYER
 10
28.4894573506
 20
22.8055235756
 11
28.4894573506
 21
20.2590950042
  0
LINE
  8
LED_CHIP_2835_SLICONE2
 62
7
  6
BYLAYER
 10
28.5034256584
 20
22.8055235756
 11
28.5034256584
 21
20.2590950042
  0
LINE
  8
LED_CHIP_2835_BASE2
 62
7
  6
BYLAYER
 10
28.6894573506
 20
23.0055235756
 11
28.6894573506
 21
22.9915552678
  0
LINE
  8
LED_CHIP_2835_BASE2
 62
7
  6
BYLAYER
 10
28.6894573506
 20
20.0590950042
 11
28.6894573506
 21
20.073063312
  0
LINE
  8
LED_CHIP_2835_ELETRODE_22
 62
7
  6
BYLAYER
 10
29.2594573506
 20
23.2823092899
 11
29.1594573506
 21
23.1823092899
  0
LINE
  8
LS-12V-100-W8-2835_PLATE2
 62
7
  6
BYLAYER
 10
46.4044573506
 20
19.5323092899
 11
45.6044573506
 21
19.5323092899
  0
LINE
  8
LS-12V-100-W8-2835_PADS2
 62
7
  6
BYLAYER
 10
13.0744573506
 20
19.5323092899
 11
13.8744573506
 21
19.5323092899
  0
LINE
  8
LS-12V-100-W8-2835_PLATE2
 62
7
  6
BYLAYER
 10
13.0744573506
 20
19.5323092899
 11
13.8744573506
 21
19.5323092899
  0
LINE
  8
LS-12V-100-W8-2835_PADS2
 62
7
  6
BYLAYER
 10
45.6044573506
 20
19.5323092899
 11
46.4044573506
 21
19.5323092899
  0
LINE
  8
LS-12V-100-W8-2835_PADS2
 62
7
  6
BYLAYER
 10
17.9294573506
 20
19.6823092899
 11
19.3294573506
 21
19.6823092899
  0
LINE
  8
LS-12V-100-W8-2835_PLATE2
 62
7
  6
BYLAYER
 10
17.9294573506
 20
19.6823092899
 11
19.3294573506
 21
19.6823092899
  0
LINE
  8
LS-12V-100-W8-2835_PADS2
 62
7
  6
BYLAYER
 10
29.0394573506
 20
19.6823092899
 11
30.4394573506
 21
19.6823092899
  0
LINE
  8
LS-12V-100-W8-2835_PLATE2
 62
7
  6
BYLAYER
 10
29.0394573506
 20
19.6823092899
 11
30.4394573506
 21
19.6823092899
  0
LINE
  8
LS-12V-100-W8-2835_PADS2
 62
7
  6
BYLAYER
 10
40.1494573506
 20
19.6823092899
 11
41.5494573506
 21
19.6823092899
  0
LINE
  8
LS-12V-100-W8-2835_PLATE2
 62
7
  6
BYLAYER
 10
40.1494573506
 20
19.6823092899
 11
41.5494573506
 21
19.6823092899
  0
LINE
  8
LED_CHIP_2835_ELETRODE_12
 62
7
  6
BYLAYER
 10
41.3294573506
 20
19.7823092899
 11
40.3694573506
 21
19.7823092899
  0
LINE
  8
LED_CHIP_2835_ELETRODE_12
 62
7
  6
BYLAYER
 10
30.2194573506
 20
19.7823092899
 11
29.2594573506
 21
19.7823092899
  0
LINE
  8
LED_CHIP_2835_ELETRODE_12
 62
7
  6
BYLAYER
 10
19.1094573506
 20
19.7823092899
 11
18.1494573506
 21
19.7823092899
  0
LINE
  8
LED_CHIP_2835_ELETRODE_12
 62
7
  6
BYLAYER
 10
41.8994573506
 20
19.8823092899
 11
41.4294573506
 21
19.8823092899
  0
LINE
  8
LED_CHIP_2835_ELETRODE_12
 62
7
  6
BYLAYER
 10
40.2694573506
 20
19.8823092899
 11
39.7994573506
 21
19.8823092899
  0
LINE
  8
LED_CHIP_2835_ELETRODE_12
 62
7
  6
BYLAYER
 10
30.7894573506
 20
19.8823092899
 11
30.3194573506
 21
19.8823092899
  0
LINE
  8
LED_CHIP_2835_ELETRODE_12
 62
7
  6
BYLAYER
 10
29.1594573506
 20
19.8823092899
 11
28.6894573506
 21
19.8823092899
  0
LINE
  8
LED_CHIP_2835_ELETRODE_12
 62
7
  6
BYLAYER
 10
19.6794573506
 20
19.8823092899
 11
19.2094573506
 21
19.8823092899
  0
LINE
  8
LED_CHIP_2835_ELETRODE_12
 62
7
  6
BYLAYER
 10
18.0494573506
 20
19.8823092899
 11
17.5794573506
 21
19.8823092899
  0
LINE
  8
LED_CHIP_2835_BASE2
 62
7
  6
BYLAYER
 10
17.2294573506
 20
19.8823092899
 11
20.0294573506
 21
19.8823092899
  0
LINE
  8
LED_CHIP_2835_BASE2
 62
7
  6
BYLAYER
 10
28.3394573506
 20
19.8823092899
 11
31.1394573506
 21
19.8823092899
  0
LINE
  8
LED_CHIP_2835_BASE2
 62
7
  6
BYLAYER
 10
39.4494573506
 20
19.8823092899
 11
42.2494573506
 21
19.8823092899
  0
LINE
  8
LED_CHIP_2835_BASE2
 62
7
  6
BYLAYER
 10
17.2399317193
 20
19.8927836585
 11
17.618982982
 21
19.8927836585
  0
LINE
  8
LED_CHIP_2835_BASE2
 62
7
  6
BYLAYER
 10
28.3499317193
 20
19.8927836585
 11
28.728982982
 21
19.8927836585
  0
LINE
  8
LED_CHIP_2835_BASE2
 62
7
  6
BYLAYER
 10
39.4599317193
 20
19.8927836585
 11
39.838982982
 21
19.8927836585
  0
LINE
  8
LED_CHIP_2835_BASE2
 62
7
  6
BYLAYER
 10
42.2363643898
 20
19.8954022507
 11
39.8363643898
 21
19.8954022507
  0
LINE
  8
LED_CHIP_2835_BASE2
 62
7
  6
BYLAYER
 10
31.1263643898
 20
19.8954022507
 11
28.7263643898
 21
19.8954022507
  0
LINE
  8
LED_CHIP_2835_BASE2
 62
7
  6
BYLAYER
 10
20.0163643898
 20
19.8954022507
 11
17.6163643898
 21
19.8954022507
  0
LINE
  8
RES_1206_012
 62
7
  6
BYLAYER
 10
36.0944573506
 20
19.9320893783
 11
34.4944573506
 21
19.9320893783
  0
LINE
  8
LED_CHIP_2835_BASE2
 62
7
  6
BYLAYER
 10
17.5794573506
 20
20.0590950042
 11
19.6794573506
 21
20.0590950042
  0
LINE
  8
LED_CHIP_2835_BASE2
 62
7
  6
BYLAYER
 10
28.6894573506
 20
20.0590950042
 11
30.7894573506
 21
20.0590950042
  0
LINE
  8
LED_CHIP_2835_BASE2
 62
7
  6
BYLAYER
 10
39.7994573506
 20
20.0590950042
 11
41.8994573506
 21
20.0590950042
  0
LINE
  8
LED_CHIP_2835_SLICONE2
 62
7
  6
BYLAYER
 10
17.5794573506
 20
20.073063312
 11
19.6794573506
 21
20.073063312
  0
LINE
  8
LED_CHIP_2835_SLICONE2
 62
7
  6
BYLAYER
 10
28.6894573506
 20
20.073063312
 11
30.7894573506
 21
20.073063312
  0
LINE
  8
LED_CHIP_2835_SLICONE2
 62
7
  6
BYLAYER
 10
39.7994573506
 20
20.073063312
 11
41.8994573506
 21
20.073063312
  0
LINE
  8
LED_CHIP_2835_BASE2
 62
7
  6
BYLAYER
 10
42.0994573506
 20
20.2590950042
 11
42.0854890428
 21
20.2590950042
  0
LINE
  8
LED_CHIP_2835_BASE2
 62
7
  6
BYLAYER
 10
30.9894573506
 20
20.2590950042
 11
30.9754890428
 21
20.2590950042
  0
LINE
  8
LED_CHIP_2835_BASE2
 62
7
  6
BYLAYER
 10
19.8794573506
 20
20.2590950042
 11
19.8654890428
 21
20.2590950042
  0
LINE
  8
LED_CHIP_2835_BASE2
 62
7
  6
BYLAYER
 10
17.3794573506
 20
20.2590950042
 11
17.3934256584
 21
20.2590950042
  0
LINE
  8
LED_CHIP_2835_BASE2
 62
7
  6
BYLAYER
 10
28.4894573506
 20
20.2590950042
 11
28.5034256584
 21
20.2590950042
  0
LINE
  8
LED_CHIP_2835_BASE2
 62
7
  6
BYLAYER
 10
39.5994573506
 20
20.2590950042
 11
39.6134256584
 21
20.2590950042
  0
LINE
  8
RES_1206_012
 62
7
  6
BYLAYER
 10
36.0944573506
 20
20.3323092955
 11
34.4944573506
 21
20.3323092955
  0
LINE
  8
RES_1206_032
 62
7
  6
BYLAYER
 10
36.0944573506
 20
20.3323092899
 11
34.4944573506
 21
20.3323092899
  0
LINE
  8
LED_CHIP_2835_BASE2
 62
7
  6
BYLAYER
 10
28.3499317193
 20
20.2718349213
 11
28.728982982
 21
19.8927836585
  0
LINE
  8
LED_CHIP_2835_ELETRODE_12
 62
7
  6
BYLAYER
 10
29.1594573506
 20
19.8823092899
 11
29.2594573506
 21
19.7823092899
  0
LINE
  8
LED_CHIP_2835_BASE2
 62
7
  6
BYLAYER
 10
31.1394573506
 20
23.1823092899
 11
31.1263643898
 21
23.1692163291
  0
POLYLINE
  8
RES_1206_032
 62
7
  6
BYLAYER
 66
1
 70
0
  0
VERTEX
  8
RES_1206_032
 62
7
  6
BYLAYER
 10
35.1176752671
 20
21.7919154948
  0
VERTEX
  8
RES_1206_032
 62
7
  6
BYLAYER
 10
35.0798767965
 20
21.7859815252
  0
VERTEX
  8
RES_1206_032
 62
7
  6
BYLAYER
 10
35.0462577523
 20
21.7775419883
  0
VERTEX
  8
RES_1206_032
 62
7
  6
BYLAYER
 10
35.0170975061
 20
21.7664410143
  0
VERTEX
  8
RES_1206_032
 62
7
  6
BYLAYER
 10
34.9928884248
 20
21.7526301852
  0
SEQEND
  0
POLYLINE
  8
RES_1206_032
 62
7
  6
BYLAYER
 66
1
 70
0
  0
VERTEX
  8
RES_1206_032
 62
7
  6
BYLAYER
 10
35.4348511084
 20
21.8065794772
  0
VERTEX
  8
RES_1206_032
 62
7
  6
BYLAYER
 10
35.3808460093
 20
21.8018016133
  0
VERTEX
  8
RES_1206_032
 62
7
  6
BYLAYER
 10
35.3350211467
 20
21.7886369775
  0
VERTEX
  8
RES_1206_032
 62
7
  6
BYLAYER
 10
35.295700116
 20
21.7682507999
  0
VERTEX
  8
RES_1206_032
 62
7
  6
BYLAYER
 10
35.2606489554
 20
21.7401805212
  0
SEQEND
  0
POLYLINE
  8
RES_1206_032
 62
7
  6
BYLAYER
 66
1
 70
0
  0
VERTEX
  8
RES_1206_032
 62
7
  6
BYLAYER
 10
35.3419794186
 20
21.2884532279
  0
VERTEX
  8
RES_1206_032
 62
7
  6
BYLAYER
 10
35.4117377409
 20
21.291361191
  0
VERTEX
  8
RES_1206_032
 62
7
  6
BYLAYER
 10
35.4742537244
 20
21.3000227675
  0
VERTEX
  8
RES_1206_032
 62
7
  6
BYLAYER
 10
35.5293222662
 20
21.3142406968
  0
VERTEX
  8
RES_1206_032
 62
7
  6
BYLAYER
 10
35.5765526867
 20
21.3335087656
  0
VERTEX
  8
RES_1206_032
 62
7
  6
BYLAYER
 10
35.6157065124
 20
21.356884972
  0
SEQEND
  0
LINE
  8
RES_1206_032
 62
7
  6
BYLAYER
 10
35.0633643254
 20
20.7323092884
 11
35.1453738316
 21
20.7323092884
  0
LINE
  8
RES_1206_032
 62
7
  6
BYLAYER
 10
35.1453738316
 20
20.9158802337
 11
35.6944573506
 21
20.9158802337
  0
LINE
  8
RES_1206_032
 62
7
  6
BYLAYER
 10
35.6944573506
 20
21.0217865294
 11
34.9216127976
 21
21.0217865294
  0
LINE
  8
LS-12V-100-W8-2835_PADS2
 62
7
  6
BYLAYER
 10
46.4044573506
 20
21.1323092899
 11
45.6044573506
 21
21.1323092899
  0
LINE
  8
LS-12V-100-W8-2835_PLATE2
 62
7
  6
BYLAYER
 10
46.4044573506
 20
21.1323092899
 11
45.6044573506
 21
21.1323092899
  0
LINE
  8
LS-12V-100-W8-2835_PADS2
 62
7
  6
BYLAYER
 10
13.8744573506
 20
21.1323092899
 11
13.0744573506
 21
21.1323092899
  0
LINE
  8
LS-12V-100-W8-2835_PLATE2
 62
7
  6
BYLAYER
 10
13.0744573506
 20
21.1323092899
 11
13.8744573506
 21
21.1323092899
  0
LINE
  8
LED_CHIP_2835_BASE2
 62
7
  6
BYLAYER
 10
31.1394573506
 20
19.8823092899
 11
31.1263643898
 21
19.8954022507
  0
LINE
  8
LED_CHIP_2835_BASE2
 62
7
  6
BYLAYER
 10
30.7894573506
 20
23.0055235756
 11
30.7894573506
 21
22.9915552678
  0
LINE
  8
LED_CHIP_2835_BASE2
 62
7
  6
BYLAYER
 10
30.7894573506
 20
20.0590950042
 11
30.7894573506
 21
20.073063312
  0
LINE
  8
0
 62
7
  6
BYLAYER
 10
30.9544573506
 20
20.6545527993
 11
30.9544573506
 21
20.6545887718
  0
LINE
  8
LED_CHIP_2835_SLICONE2
 62
7
  6
BYLAYER
 10
30.9754890428
 20
20.2590950042
 11
30.9754890428
 21
22.8055235756
  0
LINE
  8
LED_CHIP_2835_BASE2
 62
7
  6
BYLAYER
 10
30.9894573506
 20
20.2590950042
 11
30.9894573506
 21
22.8055235756
  0
LINE
  8
LED_CHIP_2835_BASE2
 62
7
  6
BYLAYER
 10
28.3394573506
 20
19.8823092899
 11
28.3499317193
 21
19.8927836585
  0
LINE
  8
LS-12V-100-W8-2835_PLATE2
 62
7
  6
BYLAYER
 10
46.4044573506
 20
21.9323092899
 11
45.6044573506
 21
21.9323092899
  0
LINE
  8
LS-12V-100-W8-2835_PADS2
 62
7
  6
BYLAYER
 10
13.0744573506
 20
21.9323092899
 11
13.8744573506
 21
21.9323092899
  0
LINE
  8
LS-12V-100-W8-2835_PLATE2
 62
7
  6
BYLAYER
 10
13.0744573506
 20
21.9323092899
 11
13.8744573506
 21
21.9323092899
  0
LINE
  8
LS-12V-100-W8-2835_PADS2
 62
7
  6
BYLAYER
 10
45.6044573506
 20
21.9323092899
 11
46.4044573506
 21
21.9323092899
  0
LINE
  8
RES_1206_032
 62
7
  6
BYLAYER
 10
35.0633643254
 20
21.9629949397
 11
35.1453738316
 21
21.9629949397
  0
LINE
  8
RES_1206_032
 62
7
  6
BYLAYER
 10
35.1453738316
 20
22.1465658969
 11
35.6944573506
 21
22.1465658969
  0
LINE
  8
RES_1206_032
 62
7
  6
BYLAYER
 10
35.6944573506
 20
22.2524721927
 11
34.9216127976
 21
22.2524721927
  0
LINE
  8
RES_1206_012
 62
7
  6
BYLAYER
 10
34.4944573506
 20
22.7320893727
 11
36.0944573506
 21
22.7320893727
  0
LINE
  8
RES_1206_032
 62
7
  6
BYLAYER
 10
34.4944573506
 20
22.7323092899
 11
36.0944573506
 21
22.7323092899
  0
LINE
  8
LED_CHIP_2835_BASE2
 62
7
  6
BYLAYER
 10
42.0994573506
 20
22.8055235756
 11
42.0854890428
 21
22.8055235756
  0
LINE
  8
LED_CHIP_2835_BASE2
 62
7
  6
BYLAYER
 10
30.9894573506
 20
22.8055235756
 11
30.9754890428
 21
22.8055235756
  0
LINE
  8
LED_CHIP_2835_BASE2
 62
7
  6
BYLAYER
 10
19.8794573506
 20
22.8055235756
 11
19.8654890428
 21
22.8055235756
  0
LINE
  8
LED_CHIP_2835_BASE2
 62
7
  6
BYLAYER
 10
17.3794573506
 20
22.8055235756
 11
17.3934256584
 21
22.8055235756
  0
LINE
  8
LED_CHIP_2835_BASE2
 62
7
  6
BYLAYER
 10
28.4894573506
 20
22.8055235756
 11
28.5034256584
 21
22.8055235756
  0
LINE
  8
LED_CHIP_2835_BASE2
 62
7
  6
BYLAYER
 10
39.5994573506
 20
22.8055235756
 11
39.6134256584
 21
22.8055235756
  0
POLYLINE
  8
RES_1206_032
 62
7
  6
BYLAYER
 66
1
 70
0
  0
VERTEX
  8
RES_1206_032
 62
7
  6
BYLAYER
 10
35.4473426207
 20
21.7006731814
  0
VERTEX
  8
RES_1206_032
 62
7
  6
BYLAYER
 10
35.4844878312
 20
21.6976635704
  0
VERTEX
  8
RES_1206_032
 62
7
  6
BYLAYER
 10
35.5162597474
 20
21.6892147992
  0
VERTEX
  8
RES_1206_032
 62
7
  6
BYLAYER
 10
35.5432486623
 20
21.676162593
  0
VERTEX
  8
RES_1206_032
 62
7
  6
BYLAYER
 10
35.5669485205
 20
21.6584460119
  0
SEQEND
  0
POLYLINE
  8
RES_1206_032
 62
7
  6
BYLAYER
 66
1
 70
0
  0
VERTEX
  8
RES_1206_032
 62
7
  6
BYLAYER
 10
35.4484288319
 20
21.3943595237
  0
VERTEX
  8
RES_1206_032
 62
7
  6
BYLAYER
 10
35.4131985561
 20
21.3973786053
  0
VERTEX
  8
RES_1206_032
 62
7
  6
BYLAYER
 10
35.383107111
 20
21.4057808802
  0
VERTEX
  8
RES_1206_032
 62
7
  6
BYLAYER
 10
35.3572921254
 20
21.418827261
  0
VERTEX
  8
RES_1206_032
 62
7
  6
BYLAYER
 10
35.3343758806
 20
21.436722058
  0
SEQEND
  0
POLYLINE
  8
RES_1206_032
 62
7
  6
BYLAYER
 66
1
 70
0
  0
VERTEX
  8
RES_1206_032
 62
7
  6
BYLAYER
 10
35.2806080445
 20
21.3786093539
  0
VERTEX
  8
RES_1206_032
 62
7
  6
BYLAYER
 10
35.2370356521
 20
21.3846747654
  0
VERTEX
  8
RES_1206_032
 62
7
  6
BYLAYER
 10
35.1971068842
 20
21.3913951986
  0
VERTEX
  8
RES_1206_032
 62
7
  6
BYLAYER
 10
35.1606566807
 20
21.399001526
  0
VERTEX
  8
RES_1206_032
 62
7
  6
BYLAYER
 10
35.1277711706
 20
21.4079079461
  0
VERTEX
  8
RES_1206_032
 62
7
  6
BYLAYER
 10
35.0992617738
 20
21.4189062409
  0
SEQEND
  0
POLYLINE
  8
RES_1206_032
 62
7
  6
BYLAYER
 66
1
 70
0
  0
VERTEX
  8
RES_1206_032
 62
7
  6
BYLAYER
 10
34.9216127976
 20
20.9392339295
  0
VERTEX
  8
RES_1206_032
 62
7
  6
BYLAYER
 10
34.9568963585
 20
20.9277879983
  0
VERTEX
  8
RES_1206_032
 62
7
  6
BYLAYER
 10
34.9868242381
 20
20.9138561647
  0
VERTEX
  8
RES_1206_032
 62
7
  6
BYLAYER
 10
35.0109065805
 20
20.8974348531
  0
VERTEX
  8
RES_1206_032
 62
7
  6
BYLAYER
 10
35.0286053494
 20
20.8789488062
  0
SEQEND
  0
LINE
  8
LED_CHIP_2835_BASE2
 62
7
  6
BYLAYER
 10
28.3394573506
 20
23.1823092899
 11
28.3525503114
 21
23.1692163291
  0
LINE
  8
LED_CHIP_2835_BASE2
 62
7
  6
BYLAYER
 10
31.1263643898
 20
19.8954022507
 11
31.1263643898
 21
23.1692163291
  0
LINE
  8
LED_CHIP_2835_BASE2
 62
7
  6
BYLAYER
 10
31.1394573506
 20
19.8823092899
 11
31.1394573506
 21
23.1823092899
  0
LINE
  8
LED_CHIP_2835_ELETRODE_12
 62
7
  6
BYLAYER
 10
30.2194573506
 20
19.7823092899
 11
30.3194573506
 21
19.8823092899
  0
LINE
  8
LED_CHIP_2835_SLICONE2
 62
7
  6
BYLAYER
 10
41.8994573506
 20
22.9915552678
 11
39.7994573506
 21
22.9915552678
  0
LINE
  8
LED_CHIP_2835_SLICONE2
 62
7
  6
BYLAYER
 10
30.7894573506
 20
22.9915552678
 11
28.6894573506
 21
22.9915552678
  0
LINE
  8
LED_CHIP_2835_SLICONE2
 62
7
  6
BYLAYER
 10
19.6794573506
 20
22.9915552678
 11
17.5794573506
 21
22.9915552678
  0
LINE
  8
LED_CHIP_2835_BASE2
 62
7
  6
BYLAYER
 10
41.8994573506
 20
23.0055235756
 11
39.7994573506
 21
23.0055235756
  0
LINE
  8
LED_CHIP_2835_BASE2
 62
7
  6
BYLAYER
 10
30.7894573506
 20
23.0055235756
 11
28.6894573506
 21
23.0055235756
  0
LINE
  8
LED_CHIP_2835_BASE2
 62
7
  6
BYLAYER
 10
19.6794573506
 20
23.0055235756
 11
17.5794573506
 21
23.0055235756
  0
LINE
  8
RES_1206_012
 62
7
  6
BYLAYER
 10
34.4944573506
 20
23.1323092899
 11
36.0944573506
 21
23.1323092899
  0
LINE
  8
LED_CHIP_2835_BASE2
 62
7
  6
BYLAYER
 10
17.2425503114
 20
23.1692163291
 11
20.0163643898
 21
23.1692163291
  0
LINE
  8
LED_CHIP_2835_BASE2
 62
7
  6
BYLAYER
 10
28.3525503114
 20
23.1692163291
 11
31.1263643898
 21
23.1692163291
  0
LINE
  8
LED_CHIP_2835_BASE2
 62
7
  6
BYLAYER
 10
39.4625503114
 20
23.1692163291
 11
42.2363643898
 21
23.1692163291
  0
LINE
  8
LED_CHIP_2835_ELETRODE_22
 62
7
  6
BYLAYER
 10
17.5794573506
 20
23.1823092899
 11
18.0494573506
 21
23.1823092899
  0
LINE
  8
LED_CHIP_2835_ELETRODE_22
 62
7
  6
BYLAYER
 10
19.2094573506
 20
23.1823092899
 11
19.6794573506
 21
23.1823092899
  0
LINE
  8
LED_CHIP_2835_BASE2
 62
7
  6
BYLAYER
 10
17.2294573506
 20
23.1823092899
 11
20.0294573506
 21
23.1823092899
  0
LINE
  8
LED_CHIP_2835_ELETRODE_22
 62
7
  6
BYLAYER
 10
28.6894573506
 20
23.1823092899
 11
29.1594573506
 21
23.1823092899
  0
LINE
  8
LED_CHIP_2835_ELETRODE_22
 62
7
  6
BYLAYER
 10
30.3194573506
 20
23.1823092899
 11
30.7894573506
 21
23.1823092899
  0
LINE
  8
LED_CHIP_2835_BASE2
 62
7
  6
BYLAYER
 10
28.3394573506
 20
23.1823092899
 11
31.1394573506
 21
23.1823092899
  0
LINE
  8
LED_CHIP_2835_ELETRODE_22
 62
7
  6
BYLAYER
 10
39.7994573506
 20
23.1823092899
 11
40.2694573506
 21
23.1823092899
  0
LINE
  8
LED_CHIP_2835_ELETRODE_22
 62
7
  6
BYLAYER
 10
41.4294573506
 20
23.1823092899
 11
41.8994573506
 21
23.1823092899
  0
LINE
  8
LED_CHIP_2835_BASE2
 62
7
  6
BYLAYER
 10
39.4494573506
 20
23.1823092899
 11
42.2494573506
 21
23.1823092899
  0
LINE
  8
LED_CHIP_2835_ELETRODE_22
 62
7
  6
BYLAYER
 10
18.1494573506
 20
23.2823092899
 11
19.1094573506
 21
23.2823092899
  0
LINE
  8
LED_CHIP_2835_ELETRODE_22
 62
7
  6
BYLAYER
 10
29.2594573506
 20
23.2823092899
 11
30.2194573506
 21
23.2823092899
  0
LINE
  8
LED_CHIP_2835_ELETRODE_22
 62
7
  6
BYLAYER
 10
40.3694573506
 20
23.2823092899
 11
41.3294573506
 21
23.2823092899
  0
LINE
  8
LS-12V-100-W8-2835_PADS2
 62
7
  6
BYLAYER
 10
41.5494573506
 20
23.3823092899
 11
40.1494573506
 21
23.3823092899
  0
LINE
  8
LS-12V-100-W8-2835_PLATE2
 62
7
  6
BYLAYER
 10
41.5494573506
 20
23.3823092899
 11
40.1494573506
 21
23.3823092899
  0
LINE
  8
LS-12V-100-W8-2835_PADS2
 62
7
  6
BYLAYER
 10
30.4394573506
 20
23.3823092899
 11
29.0394573506
 21
23.3823092899
  0
LINE
  8
LS-12V-100-W8-2835_PLATE2
 62
7
  6
BYLAYER
 10
30.4394573506
 20
23.3823092899
 11
29.0394573506
 21
23.3823092899
  0
LINE
  8
LS-12V-100-W8-2835_PADS2
 62
7
  6
BYLAYER
 10
19.3294573506
 20
23.3823092899
 11
17.9294573506
 21
23.3823092899
  0
LINE
  8
LS-12V-100-W8-2835_PLATE2
 62
7
  6
BYLAYER
 10
19.3294573506
 20
23.3823092899
 11
17.9294573506
 21
23.3823092899
  0
LINE
  8
LS-12V-100-W8-2835_PADS2
 62
7
  6
BYLAYER
 10
46.4044573506
 20
23.5323092899
 11
45.6044573506
 21
23.5323092899
  0
LINE
  8
LS-12V-100-W8-2835_PLATE2
 62
7
  6
BYLAYER
 10
46.4044573506
 20
23.5323092899
 11
45.6044573506
 21
23.5323092899
  0
LINE
  8
LS-12V-100-W8-2835_PADS2
 62
7
  6
BYLAYER
 10
13.8744573506
 20
23.5323092899
 11
13.0744573506
 21
23.5323092899
  0
LINE
  8
LS-12V-100-W8-2835_PLATE2
 62
7
  6
BYLAYER
 10
13.0744573506
 20
23.5323092899
 11
13.8744573506
 21
23.5323092899
  0
POLYLINE
  8
RES_1206_032
 62
7
  6
BYLAYER
 66
1
 70
0
  0
VERTEX
  8
RES_1206_032
 62
7
  6
BYLAYER
 10
34.9216127976
 20
22.1699195689
  0
VERTEX
  8
RES_1206_032
 62
7
  6
BYLAYER
 10
34.9568963695
 20
22.1584736705
  0
VERTEX
  8
RES_1206_032
 62
7
  6
BYLAYER
 10
34.9868242487
 20
22.1445418478
  0
VERTEX
  8
RES_1206_032
 62
7
  6
BYLAYER
 10
35.0109065835
 20
22.1281205364
  0
VERTEX
  8
RES_1206_032
 62
7
  6
BYLAYER
 10
35.0286053437
 20
22.109634489
  0
SEQEND
  0
POLYLINE
  8
RES_1206_032
 62
7
  6
BYLAYER
 66
1
 70
0
  0
VERTEX
  8
RES_1206_032
 62
7
  6
BYLAYER
 10
35.0154457823
 20
21.3610405184
  0
VERTEX
  8
RES_1206_032
 62
7
  6
BYLAYER
 10
35.0624062151
 20
21.335524633
  0
VERTEX
  8
RES_1206_032
 62
7
  6
BYLAYER
 10
35.1185918577
 20
21.3151625594
  0
VERTEX
  8
RES_1206_032
 62
7
  6
BYLAYER
 10
35.1841085371
 20
21.3003672545
  0
VERTEX
  8
RES_1206_032
 62
7
  6
BYLAYER
 10
35.2586274659
 20
21.2914354507
  0
VERTEX
  8
RES_1206_032
 62
7
  6
BYLAYER
 10
35.3419794186
 20
21.2884532279
  0
SEQEND
  0
LINE
  8
LED_CHIP_2835_ELETRODE_22
 62
7
  6
BYLAYER
 10
30.3194573506
 20
23.1823092899
 11
30.2194573506
 21
23.2823092899
  0
POLYLINE
  8
RES_1206_032
 62
7
  6
BYLAYER
 66
1
 70
0
  0
VERTEX
  8
RES_1206_032
 62
7
  6
BYLAYER
 10
34.9928884248
 20
21.7526301852
  0
VERTEX
  8
RES_1206_032
 62
7
  6
BYLAYER
 10
34.965785757
 20
21.7300421753
  0
VERTEX
  8
RES_1206_032
 62
7
  6
BYLAYER
 10
34.9441130214
 20
21.70457544
  0
VERTEX
  8
RES_1206_032
 62
7
  6
BYLAYER
 10
34.9270439058
 20
21.6756901662
  0
SEQEND
  0
POLYLINE
  8
RES_1206_032
 62
7
  6
BYLAYER
 66
1
 70
0
  0
VERTEX
  8
RES_1206_032
 62
7
  6
BYLAYER
 10
35.3339592703
 20
21.6587180046
  0
VERTEX
  8
RES_1206_032
 62
7
  6
BYLAYER
 10
35.3573628965
 20
21.6767391651
  0
VERTEX
  8
RES_1206_032
 62
7
  6
BYLAYER
 10
35.3834549635
 20
21.6896672805
  0
VERTEX
  8
RES_1206_032
 62
7
  6
BYLAYER
 10
35.4130382046
 20
21.6977683118
  0
VERTEX
  8
RES_1206_032
 62
7
  6
BYLAYER
 10
35.4473426207
 20
21.7006731814
  0
SEQEND
  0
POLYLINE
  8
RES_1206_032
 62
7
  6
BYLAYER
 66
1
 70
0
  0
VERTEX
  8
RES_1206_032
 62
7
  6
BYLAYER
 10
35.5662835701
 20
21.4361789399
  0
VERTEX
  8
RES_1206_032
 62
7
  6
BYLAYER
 10
35.5418653295
 20
21.4181129283
  0
VERTEX
  8
RES_1206_032
 62
7
  6
BYLAYER
 10
35.5148390451
 20
21.4052441749
  0
VERTEX
  8
RES_1206_032
 62
7
  6
BYLAYER
 10
35.4841219827
 20
21.3972124091
  0
VERTEX
  8
RES_1206_032
 62
7
  6
BYLAYER
 10
35.4484288319
 20
21.3943595237
  0
SEQEND
  0
POLYLINE
  8
RES_1206_032
 62
7
  6
BYLAYER
 66
1
 70
0
  0
VERTEX
  8
RES_1206_032
 62
7
  6
BYLAYER
 10
35.0992617738
 20
21.4189062409
  0
VERTEX
  8
RES_1206_032
 62
7
  6
BYLAYER
 10
35.0693136712
 20
21.4364084477
  0
VERTEX
  8
RES_1206_032
 62
7
  6
BYLAYER
 10
35.0456086309
 20
21.4561987849
  0
VERTEX
  8
RES_1206_032
 62
7
  6
BYLAYER
 10
35.0273919946
 20
21.4779092584
  0
SEQEND
  0
POLYLINE
  8
RES_1206_032
 62
7
  6
BYLAYER
 66
1
 70
0
  0
VERTEX
  8
RES_1206_032
 62
7
  6
BYLAYER
 10
35.2606489554
 20
21.7401805212
  0
VERTEX
  8
RES_1206_032
 62
7
  6
BYLAYER
 10
35.2360129265
 20
21.7120597886
  0
VERTEX
  8
RES_1206_032
 62
7
  6
BYLAYER
 10
35.2170047123
 20
21.6811915897
  0
VERTEX
  8
RES_1206_032
 62
7
  6
BYLAYER
 10
35.2032794755
 20
21.6472873129
  0
VERTEX
  8
RES_1206_032
 62
7
  6
BYLAYER
 10
35.1946136578
 20
21.6090450275
  0
VERTEX
  8
RES_1206_032
 62
7
  6
BYLAYER
 10
35.1915381535
 20
21.5654389209
  0
SEQEND
  0
POLYLINE
  8
RES_1206_032
 62
7
  6
BYLAYER
 66
1
 70
0
  0
VERTEX
  8
RES_1206_032
 62
7
  6
BYLAYER
 10
35.6157065124
 20
21.356884972
  0
VERTEX
  8
RES_1206_032
 62
7
  6
BYLAYER
 10
35.6506845905
 20
21.3870569708
  0
VERTEX
  8
RES_1206_032
 62
7
  6
BYLAYER
 10
35.6769963045
 20
21.4209819222
  0
VERTEX
  8
RES_1206_032
 62
7
  6
BYLAYER
 10
35.6955313471
 20
21.4586906692
  0
VERTEX
  8
RES_1206_032
 62
7
  6
BYLAYER
 10
35.7071584528
 20
21.5021273662
  0
VERTEX
  8
RES_1206_032
 62
7
  6
BYLAYER
 10
35.711293739
 20
21.5529474086
  0
SEQEND
  0
LINE
  8
LS-12V-100-W8-2835_PLATE2
 62
7
  6
BYLAYER
 10
46.4044573506
 20
25.5323092899
 11
13.0744573506
 21
25.5323092899
  0
POLYLINE
  8
RES_1206_032
 62
7
  6
BYLAYER
 66
1
 70
0
  0
VERTEX
  8
RES_1206_032
 62
7
  6
BYLAYER
 10
35.6330859997
 20
21.7386908351
  0
VERTEX
  8
RES_1206_032
 62
7
  6
BYLAYER
 10
35.5925495313
 20
21.7676623918
  0
VERTEX
  8
RES_1206_032
 62
7
  6
BYLAYER
 10
35.5474064743
 20
21.7885439483
  0
VERTEX
  8
RES_1206_032
 62
7
  6
BYLAYER
 10
35.4956834698
 20
21.8017840959
  0
VERTEX
  8
RES_1206_032
 62
7
  6
BYLAYER
 10
35.4348511084
 20
21.8065794772
  0
SEQEND
  0
POLYLINE
  8
RES_1206_032
 62
7
  6
BYLAYER
 66
1
 70
0
  0
VERTEX
  8
RES_1206_032
 62
7
  6
BYLAYER
 10
35.5669485205
 20
21.6584460119
  0
VERTEX
  8
RES_1206_032
 62
7
  6
BYLAYER
 10
35.5875699706
 20
21.6355049849
  0
VERTEX
  8
RES_1206_032
 62
7
  6
BYLAYER
 10
35.6017800489
 20
21.6103238754
  0
VERTEX
  8
RES_1206_032
 62
7
  6
BYLAYER
 10
35.6104498472
 20
21.581927818
  0
VERTEX
  8
RES_1206_032
 62
7
  6
BYLAYER
 10
35.6135340675
 20
21.5486025638
  0
SEQEND
  0
POLYLINE
  8
RES_1206_032
 62
7
  6
BYLAYER
 66
1
 70
0
  0
VERTEX
  8
RES_1206_032
 62
7
  6
BYLAYER
 10
35.3343758806
 20
21.436722058
  0
VERTEX
  8
RES_1206_032
 62
7
  6
BYLAYER
 10
35.3149594503
 20
21.4594086455
  0
VERTEX
  8
RES_1206_032
 62
7
  6
BYLAYER
 10
35.3011077716
 20
21.4853035351
  0
VERTEX
  8
RES_1206_032
 62
7
  6
BYLAYER
 10
35.2923998054
 20
21.5155485706
  0
VERTEX
  8
RES_1206_032
 62
7
  6
BYLAYER
 10
35.2892978295
 20
21.5513181514
  0
SEQEND
  0
POLYLINE
  8
RES_1206_032
 62
7
  6
BYLAYER
 66
1
 70
0
  0
VERTEX
  8
RES_1206_032
 62
7
  6
BYLAYER
 10
35.0286053494
 20
20.8789488062
  0
VERTEX
  8
RES_1206_032
 62
7
  6
BYLAYER
 10
35.0403787499
 20
20.8583265129
  0
VERTEX
  8
RES_1206_032
 62
7
  6
BYLAYER
 10
35.0493176991
 20
20.832788734
  0
VERTEX
  8
RES_1206_032
 62
7
  6
BYLAYER
 10
35.0558902253
 20
20.8031138395
  0
VERTEX
  8
RES_1206_032
 62
7
  6
BYLAYER
 10
35.0604859639
 20
20.7696051915
  0
VERTEX
  8
RES_1206_032
 62
7
  6
BYLAYER
 10
35.0633643254
 20
20.7323092884
  0
SEQEND
  0
POLYLINE
  8
RES_1206_032
 62
7
  6
BYLAYER
 66
1
 70
0
  0
VERTEX
  8
RES_1206_032
 62
7
  6
BYLAYER
 10
35.0273919946
 20
21.4779092584
  0
VERTEX
  8
RES_1206_032
 62
7
  6
BYLAYER
 10
35.0128339349
 20
21.5037925973
  0
VERTEX
  8
RES_1206_032
 62
7
  6
BYLAYER
 10
35.0046393097
 20
21.5294228009
  0
VERTEX
  8
RES_1206_032
 62
7
  6
BYLAYER
 10
35.001992999
 20
21.5551198787
  0
SEQEND
  0
POLYLINE
  8
RES_1206_032
 62
7
  6
BYLAYER
 66
1
 70
0
  0
VERTEX
  8
RES_1206_032
 62
7
  6
BYLAYER
 10
34.904233323
 20
21.5665251559
  0
VERTEX
  8
RES_1206_032
 62
7
  6
BYLAYER
 10
34.909154037
 20
21.5135427835
  0
VERTEX
  8
RES_1206_032
 62
7
  6
BYLAYER
 10
34.923031254
 20
21.4677982184
  0
VERTEX
  8
RES_1206_032
 62
7
  6
BYLAYER
 10
34.944766527
 20
21.4283732322
  0
VERTEX
  8
RES_1206_032
 62
7
  6
BYLAYER
 10
34.9749754581
 20
21.3931102867
  0
VERTEX
  8
RES_1206_032
 62
7
  6
BYLAYER
 10
35.0154457823
 20
21.3610405184
  0
SEQEND
  0
POLYLINE
  8
RES_1206_032
 62
7
  6
BYLAYER
 66
1
 70
0
  0
VERTEX
  8
RES_1206_032
 62
7
  6
BYLAYER
 10
35.1915381535
 20
21.5654389209
  0
VERTEX
  8
RES_1206_032
 62
7
  6
BYLAYER
 10
35.1952989612
 20
21.5209276332
  0
VERTEX
  8
RES_1206_032
 62
7
  6
BYLAYER
 10
35.2061343186
 20
21.4807375345
  0
VERTEX
  8
RES_1206_032
 62
7
  6
BYLAYER
 10
35.2234991567
 20
21.444444991
  0
VERTEX
  8
RES_1206_032
 62
7
  6
BYLAYER
 10
35.2478640978
 20
21.4106881965
  0
VERTEX
  8
RES_1206_032
 62
7
  6
BYLAYER
 10
35.2806080445
 20
21.3786093539
  0
SEQEND
  0
LINE
  8
RES_1206_032
 62
7
  6
BYLAYER
 10
34.4944573506
 20
22.7323092899
 11
34.4944573506
 21
20.3323092899
  0
LINE
  8
RES_1206_012
 62
7
  6
BYLAYER
 10
34.4944573506
 20
20.3323092955
 11
34.4944573506
 21
19.9320893783
  0
LINE
  8
RES_1206_012
 62
7
  6
BYLAYER
 10
34.4944573506
 20
22.7320893727
 11
34.4944573506
 21
23.1323092899
  0
LINE
  8
RES_1206_032
 62
7
  6
BYLAYER
 10
34.9216127976
 20
22.2524721927
 11
34.9216127976
 21
22.1699195689
  0
LINE
  8
RES_1206_032
 62
7
  6
BYLAYER
 10
34.9216127976
 20
21.0217865294
 11
34.9216127976
 21
20.9392339295
  0
LINE
  8
RES_1206_032
 62
7
  6
BYLAYER
 10
35.1176752671
 20
21.686009199
 11
35.1176752671
 21
21.7919154948
  0
LINE
  8
RES_1206_032
 62
7
  6
BYLAYER
 10
35.1453738316
 20
20.7323092884
 11
35.1453738316
 21
20.9158802337
  0
LINE
  8
RES_1206_032
 62
7
  6
BYLAYER
 10
35.1453738316
 20
21.9629949397
 11
35.1453738316
 21
22.1465658969
  0
POLYLINE
  8
RES_1206_032
 62
7
  6
BYLAYER
 66
1
 70
0
  0
VERTEX
  8
RES_1206_032
 62
7
  6
BYLAYER
 10
35.001992999
 20
21.5551198787
  0
VERTEX
  8
RES_1206_032
 62
7
  6
BYLAYER
 10
35.0048239868
 20
21.5856182976
  0
VERTEX
  8
RES_1206_032
 62
7
  6
BYLAYER
 10
35.0125952408
 20
21.6107602879
  0
VERTEX
  8
RES_1206_032
 62
7
  6
BYLAYER
 10
35.024496252
 20
21.6315343525
  0
VERTEX
  8
RES_1206_032
 62
7
  6
BYLAYER
 10
35.0405966199
 20
21.6492044259
  0
VERTEX
  8
RES_1206_032
 62
7
  6
BYLAYER
 10
35.0609258724
 20
21.6639976561
  0
VERTEX
  8
RES_1206_032
 62
7
  6
BYLAYER
 10
35.0864658906
 20
21.6763625597
  0
VERTEX
  8
RES_1206_032
 62
7
  6
BYLAYER
 10
35.1176752671
 20
21.686009199
  0
SEQEND
  0
POLYLINE
  8
RES_1206_032
 62
7
  6
BYLAYER
 66
1
 70
0
  0
VERTEX
  8
RES_1206_032
 62
7
  6
BYLAYER
 10
35.6135340675
 20
21.5486025638
  0
VERTEX
  8
RES_1206_032
 62
7
  6
BYLAYER
 10
35.6101765531
 20
21.5132188432
  0
VERTEX
  8
RES_1206_032
 62
7
  6
BYLAYER
 10
35.6008779607
 20
21.4835023025
  0
VERTEX
  8
RES_1206_032
 62
7
  6
BYLAYER
 10
35.5864184474
 20
21.4583494967
  0
VERTEX
  8
RES_1206_032
 62
7
  6
BYLAYER
 10
35.5662835701
 20
21.4361789399
  0
SEQEND
  0
POLYLINE
  8
RES_1206_032
 62
7
  6
BYLAYER
 66
1
 70
0
  0
VERTEX
  8
RES_1206_032
 62
7
  6
BYLAYER
 10
35.2892978295
 20
21.5513181514
  0
VERTEX
  8
RES_1206_032
 62
7
  6
BYLAYER
 10
35.2924463918
 20
21.5843870169
  0
VERTEX
  8
RES_1206_032
 62
7
  6
BYLAYER
 10
35.3011796836
 20
21.6125838384
  0
VERTEX
  8
RES_1206_032
 62
7
  6
BYLAYER
 10
35.3148393903
 20
21.6368984615
  0
VERTEX
  8
RES_1206_032
 62
7
  6
BYLAYER
 10
35.3339592703
 20
21.6587180046
  0
SEQEND
  0
POLYLINE
  8
RES_1206_032
 62
7
  6
BYLAYER
 66
1
 70
0
  0
VERTEX
  8
RES_1206_032
 62
7
  6
BYLAYER
 10
34.9270439058
 20
21.6756901662
  0
VERTEX
  8
RES_1206_032
 62
7
  6
BYLAYER
 10
34.9148124704
 20
21.6440537911
  0
VERTEX
  8
RES_1206_032
 62
7
  6
BYLAYER
 10
34.907002256
 20
21.6078881804
  0
VERTEX
  8
RES_1206_032
 62
7
  6
BYLAYER
 10
34.904233323
 20
21.5665251559
  0
SEQEND
  0
POLYLINE
  8
RES_1206_032
 62
7
  6
BYLAYER
 66
1
 70
0
  0
VERTEX
  8
RES_1206_032
 62
7
  6
BYLAYER
 10
35.0286053437
 20
22.109634489
  0
VERTEX
  8
RES_1206_032
 62
7
  6
BYLAYER
 10
35.0403787476
 20
22.089012187
  0
VERTEX
  8
RES_1206_032
 62
7
  6
BYLAYER
 10
35.0493176999
 20
22.0634744011
  0
VERTEX
  8
RES_1206_032
 62
7
  6
BYLAYER
 10
35.055890227
 20
22.0337995
  0
VERTEX
  8
RES_1206_032
 62
7
  6
BYLAYER
 10
35.060485965
 20
22.0002908466
  0
VERTEX
  8
RES_1206_032
 62
7
  6
BYLAYER
 10
35.0633643254
 20
21.9629949397
  0
SEQEND
  0
POLYLINE
  8
RES_1206_032
 62
7
  6
BYLAYER
 66
1
 70
0
  0
VERTEX
  8
RES_1206_032
 62
7
  6
BYLAYER
 10
35.711293739
 20
21.5529474086
  0
VERTEX
  8
RES_1206_032
 62
7
  6
BYLAYER
 10
35.7076212775
 20
21.6017709531
  0
VERTEX
  8
RES_1206_032
 62
7
  6
BYLAYER
 10
35.6972952815
 20
21.6438588257
  0
VERTEX
  8
RES_1206_032
 62
7
  6
BYLAYER
 10
35.6813740607
 20
21.6797511938
  0
VERTEX
  8
RES_1206_032
 62
7
  6
BYLAYER
 10
35.6601803199
 20
21.7109304235
  0
VERTEX
  8
RES_1206_032
 62
7
  6
BYLAYER
 10
35.6330859997
 20
21.7386908351
  0
SEQEND
  0
LINE
  8
RES_1206_032
 62
7
  6
BYLAYER
 10
35.6944573506
 20
20.9158802337
 11
35.6944573506
 21
21.0217865294
  0
LINE
  8
RES_1206_032
 62
7
  6
BYLAYER
 10
35.6944573506
 20
22.1465658969
 11
35.6944573506
 21
22.2524721927
  0
LINE
  8
RES_1206_032
 62
7
  6
BYLAYER
 10
36.0944573506
 20
22.7323092899
 11
36.0944573506
 21
20.3323092899
  0
LINE
  8
RES_1206_012
 62
7
  6
BYLAYER
 10
36.0944573506
 20
20.3323092955
 11
36.0944573506
 21
19.9320893783
  0
LINE
  8
RES_1206_012
 62
7
  6
BYLAYER
 10
36.0944573506
 20
22.7320893727
 11
36.0944573506
 21
23.1323092899
  0
LINE
  8
LED_CHIP_2835_ELETRODE_22
 62
7
  6
BYLAYER
 10
40.3694573506
 20
23.2823092899
 11
40.2694573506
 21
23.1823092899
  0
LINE
  8
LED_CHIP_2835_BASE2
 62
7
  6
BYLAYER
 10
39.4599317193
 20
20.2718349213
 11
39.838982982
 21
19.8927836585
  0
LINE
  8
LED_CHIP_2835_ELETRODE_12
 62
7
  6
BYLAYER
 10
40.2694573506
 20
19.8823092899
 11
40.3694573506
 21
19.7823092899
  0
LINE
  8
LED_CHIP_2835_BASE2
 62
7
  6
BYLAYER
 10
42.2494573506
 20
23.1823092899
 11
42.2363643898
 21
23.1692163291
  0
LINE
  8
LED_CHIP_2835_BASE2
 62
7
  6
BYLAYER
 10
39.4494573506
 20
19.8823092899
 11
39.4599317193
 21
19.8927836585
  0
LINE
  8
LED_CHIP_2835_BASE2
 62
7
  6
BYLAYER
 10
42.2494573506
 20
19.8823092899
 11
42.2363643898
 21
19.8954022507
  0
LINE
  8
LED_CHIP_2835_BASE2
 62
7
  6
BYLAYER
 10
39.4494573506
 20
23.1823092899
 11
39.4625503114
 21
23.1692163291
  0
LINE
  8
LED_CHIP_2835_BASE2
 62
7
  6
BYLAYER
 10
39.4494573506
 20
23.1823092899
 11
39.4494573506
 21
19.8823092899
  0
LINE
  8
LED_CHIP_2835_BASE2
 62
7
  6
BYLAYER
 10
39.4599317193
 20
19.8927836585
 11
39.4599317193
 21
20.2718349213
  0
LINE
  8
LED_CHIP_2835_BASE2
 62
7
  6
BYLAYER
 10
39.4625503114
 20
23.1692163291
 11
39.4625503114
 21
20.2692163291
  0
LINE
  8
LED_CHIP_2835_BASE2
 62
7
  6
BYLAYER
 10
39.5994573506
 20
22.8055235756
 11
39.5994573506
 21
20.2590950042
  0
LINE
  8
LED_CHIP_2835_SLICONE2
 62
7
  6
BYLAYER
 10
39.6134256584
 20
22.8055235756
 11
39.6134256584
 21
20.2590950042
  0
LINE
  8
LED_CHIP_2835_BASE2
 62
7
  6
BYLAYER
 10
39.7994573506
 20
23.0055235756
 11
39.7994573506
 21
22.9915552678
  0
LINE
  8
LED_CHIP_2835_BASE2
 62
7
  6
BYLAYER
 10
39.7994573506
 20
20.0590950042
 11
39.7994573506
 21
20.073063312
  0
LINE
  8
LED_CHIP_2835_ELETRODE_12
 62
7
  6
BYLAYER
 10
41.3294573506
 20
19.7823092899
 11
41.4294573506
 21
19.8823092899
  0
LINE
  8
LED_CHIP_2835_ELETRODE_22
 62
7
  6
BYLAYER
 10
41.4294573506
 20
23.1823092899
 11
41.3294573506
 21
23.2823092899
  0
LINE
  8
LED_CHIP_2835_BASE2
 62
7
  6
BYLAYER
 10
41.8994573506
 20
23.0055235756
 11
41.8994573506
 21
22.9915552678
  0
LINE
  8
LED_CHIP_2835_BASE2
 62
7
  6
BYLAYER
 10
41.8994573506
 20
20.0590950042
 11
41.8994573506
 21
20.073063312
  0
LINE
  8
0
 62
7
  6
BYLAYER
 10
42.0644573506
 20
20.6545527993
 11
42.0644573506
 21
20.6545887718
  0
LINE
  8
LED_CHIP_2835_SLICONE2
 62
7
  6
BYLAYER
 10
42.0854890428
 20
20.2590950042
 11
42.0854890428
 21
22.8055235756
  0
LINE
  8
LED_CHIP_2835_BASE2
 62
7
  6
BYLAYER
 10
42.0994573506
 20
20.2590950042
 11
42.0994573506
 21
22.8055235756
  0
LINE
  8
LED_CHIP_2835_BASE2
 62
7
  6
BYLAYER
 10
42.2363643898
 20
19.8954022507
 11
42.2363643898
 21
23.1692163291
  0
LINE
  8
LED_CHIP_2835_BASE2
 62
7
  6
BYLAYER
 10
42.2494573506
 20
19.8823092899
 11
42.2494573506
 21
23.1823092899
  0
LINE
  8
LS-12V-100-W8-2835_PLATE2
 62
7
  6
BYLAYER
 10
46.4044573506
 20
17.5323092899
 11
46.4044573506
 21
19.5323092899
  0
LINE
  8
LS-12V-100-W8-2835_PADS2
 62
7
  6
BYLAYER
 10
46.4044573506
 20
19.5323092899
 11
46.4044573506
 21
21.1323092899
  0
LINE
  8
LS-12V-100-W8-2835_PLATE2
 62
7
  6
BYLAYER
 10
46.4044573506
 20
21.1323092899
 11
46.4044573506
 21
21.9323092899
  0
LINE
  8
LS-12V-100-W8-2835_PADS2
 62
7
  6
BYLAYER
 10
46.4044573506
 20
21.9323092899
 11
46.4044573506
 21
23.5323092899
  0
LINE
  8
LS-12V-100-W8-2835_PLATE2
 62
7
  6
BYLAYER
 10
46.4044573506
 20
23.5323092899
 11
46.4044573506
 21
25.5323092899
  0
LINE
  8
LS-12V-100-W8-2835_PLATE2
 62
7
  6
BYLAYER
 10
13.0744573506
 20
33.6418098111
 11
13.0744573506
 21
33.3418098111
  0
LINE
  8
LED_CHIP_2835_BASE2
 62
7
  6
BYLAYER
 10
17.2294573506
 20
33.8418098111
 11
17.2346945349
 21
33.6418098111
  0
LINE
  8
LED_CHIP_2835_BASE2
 62
7
  6
BYLAYER
 10
17.6163643898
 20
34.3418098111
 11
17.618982982
 21
34.2418098111
  0
LINE
  8
LED_CHIP_2835_ELETRODE_12
 62
7
  6
BYLAYER
 10
17.5794573506
 20
33.8418098111
 11
17.5794573506
 21
33.6418098111
  0
LINE
  8
LED_CHIP_2835_BASE2
 62
7
  6
BYLAYER
 10
17.2294573506
 20
33.8418098111
 11
17.2425503114
 21
34.3418098111
  0
LINE
  8
LED_CHIP_2835_ELETRODE_12
 62
7
  6
BYLAYER
 10
18.0494573506
 20
33.8418098111
 11
18.0494573506
 21
33.6418098111
  0
LINE
  8
LED_CHIP_2835_ELETRODE_12
 62
7
  6
BYLAYER
 10
18.1494573506
 20
33.6418098111
 11
18.1494573506
 21
33.8418098111
  0
LINE
  8
LED_CHIP_2835_ELETRODE_12
 62
7
  6
BYLAYER
 10
19.1094573506
 20
33.8418098111
 11
19.1094573506
 21
33.6418098111
  0
LINE
  8
LED_CHIP_2835_ELETRODE_12
 62
7
  6
BYLAYER
 10
19.2094573506
 20
33.8418098111
 11
19.2094573506
 21
33.6418098111
  0
LINE
  8
LED_CHIP_2835_ELETRODE_12
 62
7
  6
BYLAYER
 10
19.6794573506
 20
33.8418098111
 11
19.6794573506
 21
33.6418098111
  0
LINE
  8
0
 62
7
  6
BYLAYER
 10
19.8444573506
 20
35.2480912281
 11
19.8444573506
 21
35.2477848362
  0
LINE
  8
LED_CHIP_2835_BASE2
 62
7
  6
BYLAYER
 10
20.0294573506
 20
33.8418098111
 11
20.0163643898
 21
34.3418098111
  0
LINE
  8
LED_CHIP_2835_BASE2
 62
7
  6
BYLAYER
 10
20.0242201663
 20
33.6418098111
 11
20.0294573506
 21
33.8418098111
  0
LINE
  8
LED_CHIP_2835_BASE2
 62
7
  6
BYLAYER
 10
28.3394573506
 20
33.8418098111
 11
28.3446945349
 21
33.6418098111
  0
LINE
  8
LED_CHIP_2835_BASE2
 62
7
  6
BYLAYER
 10
28.7263643898
 20
34.3418098111
 11
28.728982982
 21
34.2418098111
  0
LINE
  8
LED_CHIP_2835_ELETRODE_12
 62
7
  6
BYLAYER
 10
28.6894573506
 20
33.8418098111
 11
28.6894573506
 21
33.6418098111
  0
LINE
  8
LED_CHIP_2835_BASE2
 62
7
  6
BYLAYER
 10
28.3394573506
 20
33.8418098111
 11
28.3525503114
 21
34.3418098111
  0
LINE
  8
LED_CHIP_2835_ELETRODE_12
 62
7
  6
BYLAYER
 10
29.1594573506
 20
33.8418098111
 11
29.1594573506
 21
33.6418098111
  0
LINE
  8
LED_CHIP_2835_ELETRODE_12
 62
7
  6
BYLAYER
 10
29.2594573506
 20
33.6418098111
 11
29.2594573506
 21
33.8418098111
  0
LINE
  8
LS-12V-100-W8-2835_PLATE2
 62
7
  6
BYLAYER
 10
13.0744573506
 20
33.3418098111
 11
46.4044573506
 21
33.3418098111
  0
LINE
  8
LS-12V-100-W8-2835_PLATE2
 62
7
  6
BYLAYER
 10
13.0744573506
 20
33.6418098111
 11
46.4044573506
 21
33.6418098111
  0
LINE
  8
LED_CHIP_2835_BASE2
 62
7
  6
BYLAYER
 10
17.2294573506
 20
33.8418098111
 11
18.0494573506
 21
33.8418098111
  0
LINE
  8
LED_CHIP_2835_ELETRODE_12
 62
7
  6
BYLAYER
 10
17.5794573506
 20
33.8418098111
 11
19.6794573506
 21
33.8418098111
  0
LINE
  8
LED_CHIP_2835_BASE2
 62
7
  6
BYLAYER
 10
19.2094573506
 20
33.8418098111
 11
20.0294573506
 21
33.8418098111
  0
LINE
  8
LED_CHIP_2835_BASE2
 62
7
  6
BYLAYER
 10
28.3394573506
 20
33.8418098111
 11
29.1594573506
 21
33.8418098111
  0
LINE
  8
LED_CHIP_2835_ELETRODE_12
 62
7
  6
BYLAYER
 10
28.6894573506
 20
33.8418098111
 11
30.7894573506
 21
33.8418098111
  0
LINE
  8
LED_CHIP_2835_BASE2
 62
7
  6
BYLAYER
 10
30.3194573506
 20
33.8418098111
 11
31.1394573506
 21
33.8418098111
  0
LINE
  8
LED_CHIP_2835_BASE2
 62
7
  6
BYLAYER
 10
39.4494573506
 20
33.8418098111
 11
40.2694573506
 21
33.8418098111
  0
LINE
  8
LED_CHIP_2835_ELETRODE_12
 62
7
  6
BYLAYER
 10
39.7994573506
 20
33.8418098111
 11
41.8994573506
 21
33.8418098111
  0
LINE
  8
LED_CHIP_2835_BASE2
 62
7
  6
BYLAYER
 10
41.4294573506
 20
33.8418098111
 11
42.2494573506
 21
33.8418098111
  0
LINE
  8
RES_1206_012
 62
7
  6
BYLAYER
 10
36.0944573506
 20
34.1918098111
 11
34.4944573506
 21
34.1918098111
  0
LINE
  8
LED_CHIP_2835_BASE2
 62
7
  6
BYLAYER
 10
17.2399317193
 20
34.2418098111
 11
17.618982982
 21
34.2418098111
  0
LINE
  8
LED_CHIP_2835_BASE2
 62
7
  6
BYLAYER
 10
28.3499317193
 20
34.2418098111
 11
28.728982982
 21
34.2418098111
  0
LINE
  8
LED_CHIP_2835_BASE2
 62
7
  6
BYLAYER
 10
39.4599317193
 20
34.2418098111
 11
39.838982982
 21
34.2418098111
  0
LINE
  8
LED_CHIP_2835_BASE2
 62
7
  6
BYLAYER
 10
17.2425503114
 20
34.3418098111
 11
20.0163643898
 21
34.3418098111
  0
LINE
  8
LED_CHIP_2835_BASE2
 62
7
  6
BYLAYER
 10
28.3525503114
 20
34.3418098111
 11
31.1263643898
 21
34.3418098111
  0
LINE
  8
LED_CHIP_2835_BASE2
 62
7
  6
BYLAYER
 10
39.4625503114
 20
34.3418098111
 11
42.2363643898
 21
34.3418098111
  0
LINE
  8
LED_CHIP_2835_ELETRODE_12
 62
7
  6
BYLAYER
 10
30.2194573506
 20
33.8418098111
 11
30.2194573506
 21
33.6418098111
  0
LINE
  8
LED_CHIP_2835_ELETRODE_12
 62
7
  6
BYLAYER
 10
30.3194573506
 20
33.8418098111
 11
30.3194573506
 21
33.6418098111
  0
LINE
  8
LED_CHIP_2835_ELETRODE_12
 62
7
  6
BYLAYER
 10
30.7894573506
 20
33.8418098111
 11
30.7894573506
 21
33.6418098111
  0
LINE
  8
0
 62
7
  6
BYLAYER
 10
30.9544573506
 20
35.2480912281
 11
30.9544573506
 21
35.2477848362
  0
LINE
  8
LED_CHIP_2835_BASE2
 62
7
  6
BYLAYER
 10
31.1394573506
 20
33.8418098111
 11
31.1263643898
 21
34.3418098111
  0
LINE
  8
LED_CHIP_2835_BASE2
 62
7
  6
BYLAYER
 10
31.1342201663
 20
33.6418098111
 11
31.1394573506
 21
33.8418098111
  0
LINE
  8
RES_1206_012
 62
7
  6
BYLAYER
 10
34.4944573506
 20
34.1918098111
 11
34.4944573506
 21
33.6418098111
  0
LINE
  8
RES_1206_012
 62
7
  6
BYLAYER
 10
36.0944573506
 20
34.1918098111
 11
36.0944573506
 21
33.6418098111
  0
LINE
  8
LED_CHIP_2835_BASE2
 62
7
  6
BYLAYER
 10
39.4494573506
 20
33.8418098111
 11
39.4546945349
 21
33.6418098111
  0
LINE
  8
LED_CHIP_2835_BASE2
 62
7
  6
BYLAYER
 10
39.8363643898
 20
34.3418098111
 11
39.838982982
 21
34.2418098111
  0
LINE
  8
LED_CHIP_2835_ELETRODE_12
 62
7
  6
BYLAYER
 10
39.7994573506
 20
33.8418098111
 11
39.7994573506
 21
33.6418098111
  0
LINE
  8
LED_CHIP_2835_BASE2
 62
7
  6
BYLAYER
 10
39.4494573506
 20
33.8418098111
 11
39.4625503114
 21
34.3418098111
  0
LINE
  8
LED_CHIP_2835_ELETRODE_12
 62
7
  6
BYLAYER
 10
40.2694573506
 20
33.8418098111
 11
40.2694573506
 21
33.6418098111
  0
LINE
  8
LED_CHIP_2835_ELETRODE_12
 62
7
  6
BYLAYER
 10
40.3694573506
 20
33.6418098111
 11
40.3694573506
 21
33.8418098111
  0
LINE
  8
LED_CHIP_2835_ELETRODE_12
 62
7
  6
BYLAYER
 10
41.3294573506
 20
33.8418098111
 11
41.3294573506
 21
33.6418098111
  0
LINE
  8
LED_CHIP_2835_ELETRODE_12
 62
7
  6
BYLAYER
 10
41.4294573506
 20
33.8418098111
 11
41.4294573506
 21
33.6418098111
  0
LINE
  8
LED_CHIP_2835_ELETRODE_12
 62
7
  6
BYLAYER
 10
41.8994573506
 20
33.8418098111
 11
41.8994573506
 21
33.6418098111
  0
LINE
  8
0
 62
7
  6
BYLAYER
 10
42.0644573506
 20
35.2480912281
 11
42.0644573506
 21
35.2477848362
  0
LINE
  8
LED_CHIP_2835_BASE2
 62
7
  6
BYLAYER
 10
42.2494573506
 20
33.8418098111
 11
42.2363643898
 21
34.3418098111
  0
LINE
  8
LED_CHIP_2835_BASE2
 62
7
  6
BYLAYER
 10
42.2442201663
 20
33.6418098111
 11
42.2494573506
 21
33.8418098111
  0
LINE
  8
LS-12V-100-W8-2835_PLATE2
 62
7
  6
BYLAYER
 10
46.4044573506
 20
33.6418098111
 11
46.4044573506
 21
33.3418098111
  0
CIRCLE
  8
LS-12V-100-W8-28359
 62
3
  6
BYLAYER
 10
54.1387261133
 20
9.9552821935
 40
0.5
  0
CIRCLE
  8
LS-12V-100-W8-28359
 62
3
  6
BYLAYER
 10
54.1387261133
 20
9.9552821935
 40
0.25
  0
ARC
  8
LS-12V-100-W8-2835_PADS2
 62
7
  6
BYLAYER
 10
17.9294573506
 20
19.9823092899
 40
0.3
 50
199.6711644888
 51
270.0
  0
ARC
  8
LS-12V-100-W8-2835_PADS2
 62
7
  6
BYLAYER
 10
19.3294573506
 20
19.9823092899
 40
0.3
 50
270.0
 51
340.3288355112
  0
ARC
  8
LS-12V-100-W8-2835_PLATE2
 62
7
  6
BYLAYER
 10
17.9294573506
 20
19.9823092899
 40
0.3
 50
199.5506432241
 51
270.0
  0
ARC
  8
LS-12V-100-W8-2835_PLATE2
 62
7
  6
BYLAYER
 10
19.3294573506
 20
19.9823092899
 40
0.3
 50
270.0
 51
340.4493567759
  0
ARC
  8
LS-12V-100-W8-2835_PADS2
 62
7
  6
BYLAYER
 10
13.8744573506
 20
20.3323092899
 40
0.8
 50
270.0
 51
90.0
  0
ARC
  8
LS-12V-100-W8-2835_PLATE2
 62
7
  6
BYLAYER
 10
13.8744573506
 20
20.3323092899
 40
0.8
 50
270.0
 51
90.0
  0
ARC
  8
LED_CHIP_2835_BASE2
 62
7
  6
BYLAYER
 10
17.5794573506
 20
20.2590950042
 40
0.2
 50
180.0
 51
270.0
  0
ARC
  8
LED_CHIP_2835_BASE2
 62
7
  6
BYLAYER
 10
19.6794573506
 20
20.2590950042
 40
0.2
 50
270.0
 51
360.0
  0
ARC
  8
LED_CHIP_2835_SLICONE2
 62
7
  6
BYLAYER
 10
19.6794573506
 20
20.2590950042
 40
0.1860316922
 50
270.0
 51
360.0
  0
ARC
  8
LED_CHIP_2835_SLICONE2
 62
7
  6
BYLAYER
 10
17.5794573506
 20
20.2590950042
 40
0.1860316922
 50
180.0
 51
270.0
  0
ARC
  8
LS-12V-100-W8-2835_PADS2
 62
7
  6
BYLAYER
 10
29.0394573506
 20
19.9823092899
 40
0.3
 50
199.6711644888
 51
270.0
  0
ARC
  8
LS-12V-100-W8-2835_PLATE2
 62
7
  6
BYLAYER
 10
29.0394573506
 20
19.9823092899
 40
0.3
 50
199.5506432241
 51
270.0
  0
ARC
  8
LED_CHIP_2835_BASE2
 62
7
  6
BYLAYER
 10
28.6894573506
 20
20.2590950042
 40
0.2
 50
180.0
 51
270.0
  0
ARC
  8
LED_CHIP_2835_SLICONE2
 62
7
  6
BYLAYER
 10
28.6894573506
 20
20.2590950042
 40
0.1860316922
 50
180.0
 51
270.0
  0
ARC
  8
LS-12V-100-W8-2835_PADS2
 62
7
  6
BYLAYER
 10
13.8744573506
 20
22.7323092899
 40
0.8
 50
270.0
 51
90.0
  0
ARC
  8
LS-12V-100-W8-2835_PLATE2
 62
7
  6
BYLAYER
 10
13.8744573506
 20
22.7323092899
 40
0.8
 50
270.0
 51
90.0
  0
ARC
  8
LED_CHIP_2835_BASE2
 62
7
  6
BYLAYER
 10
17.5794573506
 20
22.8055235756
 40
0.2
 50
90.0
 51
180.0
  0
ARC
  8
LED_CHIP_2835_BASE2
 62
7
  6
BYLAYER
 10
19.6794573506
 20
22.8055235756
 40
0.2
 50
0.0
 51
90.0
  0
ARC
  8
LED_CHIP_2835_SLICONE2
 62
7
  6
BYLAYER
 10
17.5794573506
 20
22.8055235756
 40
0.1860316922
 50
90.0
 51
180.0
  0
ARC
  8
LED_CHIP_2835_SLICONE2
 62
7
  6
BYLAYER
 10
19.6794573506
 20
22.8055235756
 40
0.1860316922
 50
0.0
 51
90.0
  0
ARC
  8
LS-12V-100-W8-2835_PADS2
 62
7
  6
BYLAYER
 10
17.9294573506
 20
23.0823092899
 40
0.3
 50
90.0
 51
160.3288355112
  0
ARC
  8
LS-12V-100-W8-2835_PADS2
 62
7
  6
BYLAYER
 10
19.3294573506
 20
23.0823092899
 40
0.3
 50
19.6711644888
 51
90.0
  0
ARC
  8
LS-12V-100-W8-2835_PLATE2
 62
7
  6
BYLAYER
 10
19.3294573506
 20
23.0823092899
 40
0.3
 50
19.5506432241
 51
90.0
  0
ARC
  8
LS-12V-100-W8-2835_PLATE2
 62
7
  6
BYLAYER
 10
17.9294573506
 20
23.0823092899
 40
0.3
 50
90.0
 51
160.4493567759
  0
ARC
  8
LED_CHIP_2835_BASE2
 62
7
  6
BYLAYER
 10
28.6894573506
 20
22.8055235756
 40
0.2
 50
90.0
 51
180.0
  0
ARC
  8
LED_CHIP_2835_SLICONE2
 62
7
  6
BYLAYER
 10
28.6894573506
 20
22.8055235756
 40
0.1860316922
 50
90.0
 51
180.0
  0
ARC
  8
LS-12V-100-W8-2835_PADS2
 62
7
  6
BYLAYER
 10
29.0394573506
 20
23.0823092899
 40
0.3
 50
90.0
 51
160.3288355112
  0
ARC
  8
LS-12V-100-W8-2835_PLATE2
 62
7
  6
BYLAYER
 10
29.0394573506
 20
23.0823092899
 40
0.3
 50
90.0
 51
160.4493567759
  0
ARC
  8
LS-12V-100-W8-2835_PADS2
 62
7
  6
BYLAYER
 10
35.2944573506
 20
20.1323092899
 40
0.75
 50
195.5171917597
 51
344.4828082403
  0
ARC
  8
LS-12V-100-W8-2835_PLATE2
 62
7
  6
BYLAYER
 10
35.2944573506
 20
20.1323092899
 40
0.75
 50
195.7146758971
 51
344.2853241029
  0
ARC
  8
LS-12V-100-W8-2835_PADS2
 62
7
  6
BYLAYER
 10
30.4394573506
 20
19.9823092899
 40
0.3
 50
270.0
 51
340.3288355112
  0
ARC
  8
LS-12V-100-W8-2835_PLATE2
 62
7
  6
BYLAYER
 10
30.4394573506
 20
19.9823092899
 40
0.3
 50
270.0
 51
340.4493567759
  0
ARC
  8
LED_CHIP_2835_BASE2
 62
7
  6
BYLAYER
 10
30.7894573506
 20
20.2590950042
 40
0.2
 50
270.0
 51
360.0
  0
ARC
  8
LED_CHIP_2835_SLICONE2
 62
7
  6
BYLAYER
 10
30.7894573506
 20
20.2590950042
 40
0.1860316922
 50
270.0
 51
360.0
  0
ARC
  8
LS-12V-100-W8-2835_PADS2
 62
7
  6
BYLAYER
 10
40.1494573506
 20
19.9823092899
 40
0.3
 50
199.6711644888
 51
270.0
  0
ARC
  8
LS-12V-100-W8-2835_PADS2
 62
7
  6
BYLAYER
 10
41.5494573506
 20
19.9823092899
 40
0.3
 50
270.0
 51
340.3288355112
  0
ARC
  8
LS-12V-100-W8-2835_PLATE2
 62
7
  6
BYLAYER
 10
41.5494573506
 20
19.9823092899
 40
0.3
 50
270.0
 51
340.4493567759
  0
ARC
  8
LS-12V-100-W8-2835_PLATE2
 62
7
  6
BYLAYER
 10
40.1494573506
 20
19.9823092899
 40
0.3
 50
199.5506432241
 51
270.0
  0
ARC
  8
LS-12V-100-W8-2835_PADS2
 62
7
  6
BYLAYER
 10
45.6044573506
 20
20.3323092899
 40
0.8
 50
90.0
 51
270.0
  0
ARC
  8
LS-12V-100-W8-2835_PLATE2
 62
7
  6
BYLAYER
 10
45.6044573506
 20
20.3323092899
 40
0.8
 50
90.0
 51
270.0
  0
ARC
  8
LED_CHIP_2835_BASE2
 62
7
  6
BYLAYER
 10
39.7994573506
 20
20.2590950042
 40
0.2
 50
180.0
 51
270.0
  0
ARC
  8
LED_CHIP_2835_BASE2
 62
7
  6
BYLAYER
 10
41.8994573506
 20
20.2590950042
 40
0.2
 50
270.0
 51
360.0
  0
ARC
  8
LED_CHIP_2835_SLICONE2
 62
7
  6
BYLAYER
 10
41.8994573506
 20
20.2590950042
 40
0.1860316922
 50
270.0
 51
360.0
  0
ARC
  8
LED_CHIP_2835_SLICONE2
 62
7
  6
BYLAYER
 10
39.7994573506
 20
20.2590950042
 40
0.1860316922
 50
180.0
 51
270.0
  0
ARC
  8
LED_CHIP_2835_BASE2
 62
7
  6
BYLAYER
 10
30.7894573506
 20
22.8055235756
 40
0.2
 50
0.0
 51
90.0
  0
ARC
  8
LED_CHIP_2835_SLICONE2
 62
7
  6
BYLAYER
 10
30.7894573506
 20
22.8055235756
 40
0.1860316922
 50
0.0
 51
90.0
  0
ARC
  8
LS-12V-100-W8-2835_PADS2
 62
7
  6
BYLAYER
 10
35.2944573506
 20
22.9323092899
 40
0.75
 50
15.5003897636
 51
164.4996102364
  0
ARC
  8
LS-12V-100-W8-2835_PLATE2
 62
7
  6
BYLAYER
 10
35.2944573506
 20
22.9323092899
 40
0.75
 50
15.7146758971
 51
164.2853241029
  0
ARC
  8
LS-12V-100-W8-2835_PADS2
 62
7
  6
BYLAYER
 10
30.4394573506
 20
23.0823092899
 40
0.3
 50
19.6711644888
 51
90.0
  0
ARC
  8
LS-12V-100-W8-2835_PLATE2
 62
7
  6
BYLAYER
 10
30.4394573506
 20
23.0823092899
 40
0.3
 50
19.5506432241
 51
90.0
  0
ARC
  8
LS-12V-100-W8-2835_PADS2
 62
7
  6
BYLAYER
 10
45.6044573506
 20
22.7323092899
 40
0.8
 50
90.0
 51
270.0
  0
ARC
  8
LS-12V-100-W8-2835_PLATE2
 62
7
  6
BYLAYER
 10
45.6044573506
 20
22.7323092899
 40
0.8
 50
90.0
 51
270.0
  0
ARC
  8
LED_CHIP_2835_BASE2
 62
7
  6
BYLAYER
 10
39.7994573506
 20
22.8055235756
 40
0.2
 50
90.0
 51
180.0
  0
ARC
  8
LED_CHIP_2835_BASE2
 62
7
  6
BYLAYER
 10
41.8994573506
 20
22.8055235756
 40
0.2
 50
0.0
 51
90.0
  0
ARC
  8
LED_CHIP_2835_SLICONE2
 62
7
  6
BYLAYER
 10
39.7994573506
 20
22.8055235756
 40
0.1860316922
 50
90.0
 51
180.0
  0
ARC
  8
LED_CHIP_2835_SLICONE2
 62
7
  6
BYLAYER
 10
41.8994573506
 20
22.8055235756
 40
0.1860316922
 50
0.0
 51
90.0
  0
ARC
  8
LS-12V-100-W8-2835_PADS2
 62
7
  6
BYLAYER
 10
40.1494573506
 20
23.0823092899
 40
0.3
 50
90.0
 51
160.3288355112
  0
ARC
  8
LS-12V-100-W8-2835_PADS2
 62
7
  6
BYLAYER
 10
41.5494573506
 20
23.0823092899
 40
0.3
 50
19.6711644888
 51
90.0
  0
ARC
  8
LS-12V-100-W8-2835_PLATE2
 62
7
  6
BYLAYER
 10
40.1494573506
 20
23.0823092899
 40
0.3
 50
90.0
 51
160.4493567759
  0
ARC
  8
LS-12V-100-W8-2835_PLATE2
 62
7
  6
BYLAYER
 10
41.5494573506
 20
23.0823092899
 40
0.3
 50
19.5506432241
 51
90.0
  0
ENDSEC
  0
EOF
